#TITLE:{albus};
#SUBTITLE:(Silver ver.);
#ARTIST:Camellia;
#TITLETRANSLIT:;
#SUBTITLETRANSLIT:;
#ARTISTTRANSLIT:;
#GENRE:;
#CREDIT:;
#BANNER:{albus} (Silver ver.).png;
#BACKGROUND:{albus} (Silver ver.)-bg.png;
#LYRICSPATH:;
#CDTITLE:;
#MUSIC:{albus} (Silver ver.).ogg;
#OFFSET:-0.009461;
#SAMPLESTART:70.291000;
#SAMPLELENGTH:15.000000;
#SELECTABLE:YES;
#BPMS:0.000000=99.000000
,16.000000=198.000000
,46.000000=396.000000
,48.000000=99.000000
,63.000000=198.000000
,65.000000=99.000000
,80.000000=198.000000
,82.000000=99.000000
,98.000000=198.000000
,160.000000=99.000000
,165.000000=198.000000
,197.000000=396.000000
,199.000000=198.000000
,206.000000=99.000000
,206.500000=198.000000
,216.500000=99.000000
,217.000000=198.000000
,293.000000=99.000000
;
#STOPS:45.750000=0.303000
;
#BGCHANGES:;
#KEYSOUNDS:;
#ATTACKS:;

//---------------dance-single - ----------------
#NOTES:
     dance-single:
     :
     Challenge:
     17:
     0.784981,1.117826,0.479974,0.314465,0.968222,664.000000,606.000000,58.000000,38.000000,0.000000,0.000000,0.784981,1.117826,0.479974,0.314465,0.968222,664.000000,606.000000,58.000000,38.000000,0.000000,0.000000:
// measure 0
0000
0000
0000
0000
,  // measure 1
0000
0000
0000
0000
,  // measure 2
0000
0000
0000
0000
,  // measure 3
0000
0000
0000
0000
,  // measure 4
0100
0000
0000
0001
0100
0000
0010
0000
1000
0001
0000
0000
1000
0000
0010
0100
,  // measure 5
0010
0000
0000
0000
1000
0000
0000
0000
0001
0000
0000
0100
0000
0000
0010
0000
,  // measure 6
0100
0000
0010
0000
1000
0000
0010
0000
0100
0000
0001
0000
0010
0001
0000
0000
,  // measure 7
0100
0000
0000
0010
0000
0000
1000
0000
0001
0000
0010
0000
0100
0000
1000
0100
,  // measure 8
1000
0000
0000
0010
0000
0000
0100
0000
0000
0001
1000
0000
0010
0000
0100
0001
,  // measure 9
0100
0000
0000
0000
0010
0000
0000
0000
1000
0000
0000
0001
0000
0000
0100
0000
,  // measure 10
0010
0100
0010
0000
1000
0001
1000
0000
0001
0100
0001
0000
1000
0010
1000
0000
,  // measure 11
0001
0000
0000
1000
0000
0000
0100
0000
0120
0000
0000
0000
0000
0000
0000
0000
,  // measure 12
0031
0000
0000
0000
0000
0000
1000
0010
1000
0000
0000
0000
0100
0000
0001
0000
0000
0000
0001
0000
1000
0000
0000
0000
0010
0000
0110
0000
0000
0000
0010
0000
,  // measure 13
1010
0000
0000
0000
1000
0000
0001
0010
0001
0000
0000
0000
0200
0000
0320
0000
0230
0000
0320
0000
1030
0000
1000
0000
0001
0000
0100
0000
0000
0000
0000
0000
,  // measure 14
0010
0010
1000
0100
1000
0001
0100
0001
0000
0010
0100
0100
0010
1000
0000
1000
,  // measure 15
0001
0000
0010
0011
0000
0100
0010
0100
0000
0001
0001
1000
0200
0000
0000
0000
,  // measure 16
0000
0000
0000
0000
0000
0000
0000
0000
0310
0100
0010
0100
0010
0000
0001
0010
0001
0000
1000
0000
0010
0000
0100
0000
0000
0000
0110
0000
0000
0000
0000
0000
,  // measure 17
1000
0000
0010
0000
0100
0000
0010
1000
0010
0000
0100
0000
0001
0000
0010
0000
0000
0000
0001
0000
1000
0000
0010
0000
0000
0000
0100
0000
0001
0000
0101
0000
,  // measure 18
0000
0000
1001
0000
0000
0000
0000
0000
1000
0000
0100
1000
0100
0000
0010
0100
1000
0000
0001
0000
1000
0000
0010
0000
0000
0000
1010
0000
0000
0000
0100
0000
,  // measure 19
0010
0000
0100
0000
0001
0000
0010
0001
0010
0000
0100
0000
0000
0000
1100
0000
0000
0000
1000
0000
0010
0000
0110
0000
0000
0000
0100
0000
0010
0000
0100
0000
,  // measure 20
0002
0000
0000
0000
0000
0000
0000
0000
0000
0000
0000
0000
0000
0000
0000
0000
1003
0010
0100
0010
1000
0000
0001
1000
0010
0000
0100
0000
0001
0000
1000
0000
,  // measure 21
0000
0000
1001
0000
0000
0000
0010
0000
0100
0000
0001
0000
0100
0000
0001
1000
0001
0000
0100
0000
0010
0000
1000
0000
0000
0000
1000
0000
0001
0000
0010
0000
,  // measure 22
0000
0000
0100
0000
1000
0000
1010
0000
0000
0000
0011
0000
0000
0000
0000
0000
0100
0010
1000
0001
0100
0000
0010
1000
0010
0000
0100
0000
0001
0000
0011
0000
,  // measure 23
0000
0000
0110
0000
0000
0000
1000
0000
0010
0000
0100
0000
0001
0000
1000
0001
1000
0000
0001
0000
0000
0000
0101
0000
0000
0000
1010
0000
0000
0000
2100
0000
,  // measure 24
0000
3010
0100
0020
0000
1030
0001
0000
2020
0000
0000
0000
3030
0000
1010
0000
,  // measure 25
0000
0010
0100
0001
0100
0000
0010
1000
,  // measure 26
0000
1001
0000
0000
0202
0000
0303
0101
,  // measure 27
0000
1000
0010
0001
0010
0000
0100
1000
,  // measure 28
0000
1010
0000
0000
2002
0000
3003
1001
,  // measure 29
0000
0100
0001
1000
0010
0100
0010
0110
,  // measure 30
0000
0000
0001
0000
0010
0000
0001
0000
1000
0000
0000
0010
1000
0000
0001
0000
,  // measure 31
0101
0000
0000
0100
0000
0010
0100
0000
0001
0100
0001
0100
0000
0010
1000
0000
,  // measure 32
0010
0000
0000
1000
0001
0000
1000
0000
0220
0000
0000
0000
0330
0000
0110
0000
,  // measure 33
0000
0000
0010
0000
1000
0000
0100
0000
1000
0000
0000
0001
0100
0000
0010
0000
,  // measure 34
0000
1010
1000
0001
0022
0000
0033
0011
,  // measure 35
0000
1000
0100
0010
0100
0001
1000
0010
,  // measure 36
0000
1100
0000
0000
0200
0000
0000
0320
,  // measure 37
0000
0000
2030
0000
3002
0000
0000
2003
,  // measure 38
0000
0000
3020
0000
0130
1000
0001
0100
,  // measure 39
1000
0000
0001
0010
0001
0100
0010
0000
1001
0000
0000
1010
0000
0000
0202
0000
,  // measure 40
0000
0303
0000
0000
2000
0000
0000
0000
3002
0000
0000
0000
0023
0000
0000
0000
,  // measure 41
0200
0000
0330
0000
1000
0010
0000
0000
0100
0000
0000
0001
0000
0100
0001
0000
,  // measure 42
0010
0000
0100
0000
1000
0000
0001
1000
0000
0000
0010
0000
0100
0000
0001
0000
,  // measure 43
1000
0001
1000
0000
0010
0100
0000
0010
1000
0000
0100
0000
0010
0000
0001
0000
,  // measure 44
0010
0100
0000
1000
0001
0000
0000
0100
0000
0000
0010
0000
1000
0000
0010
0000
,  // measure 45
0100
0001
0100
0000
0010
1000
0000
0000
0100
0000
0000
0001
1000
0000
0100
0000
,  // measure 46
1000
0001
0000
0010
1000
0000
0001
0100
0000
1000
0010
0000
0100
0000
0010
0000
,  // measure 47
0001
0100
0001
0000
1000
0100
0000
0001
0100
0000
0010
0001
0000
1000
0001
0000
,  // measure 48
0100
0010
0000
0000
1100
0000
0000
0011
0000
0000
0101
0000
0000
0001
1000
0000
,  // measure 49
0010
0100
0010
0000
2000
0000
0000
0000
0000
0000
0000
0000
3001
0000
0010
0100
,  // measure 50
0000
0000
0010
0000
1000
0100
0000
0001
1000
0000
0001
0100
0000
0010
0100
0000
,  // measure 51
0010
0000
1000
0001
0100
0010
1000
0000
0200
0000
1300
0000
0010
0100
0000
0000
,  // measure 52
0001
0000
0100
0010
0000
1000
0100
0000
0010
1000
0000
0001
0100
0000
1000
0010
,  // measure 53
0000
1000
0001
0100
0001
0000
0010
0000
0100
0001
0000
1000
0010
0000
0100
0000
,  // measure 54
1000
0000
0000
0000
0000
0000
0001
0000
0010
0000
0001
0000
0100
0000
0000
0000
0000
0000
0010
0000
0000
0100
0000
0000
0000
0000
0000
0010
0000
0000
1000
0000
0000
0000
0000
0000
0100
0000
0000
0000
0000
0000
0001
0000
0000
0010
0000
0000
,  // measure 55
0100
0010
0001
0000
1000
0010
0000
1000
0100
0000
0010
0100
0000
0000
1100
0000
,  // measure 56
0000
0110
0000
0000
0101
0000
0000
0011
0000
0000
2010
0000
0000
0000
0100
0000
,  // measure 57
0100
0000
3000
0000
1001
0000
0000
0010
0000
0000
0100
0000
0000
0000
0010
0000
,  // measure 58
0000
0000
0001
1000
0001
0000
0000
0000
0100
0000
0000
0000
0010
0000
0000
1000
,  // measure 59
0000
0000
0100
0000
0000
1000
0000
0000
0001
0000
0100
0000
0000
0000
0010
0000
,  // measure 60
0000
0100
0000
0000
1000
0000
0000
0001
0000
0000
0100
0000
0000
0001
0000
0000
,  // measure 61
0100
0000
0001
0010
0001
0000
0000
1000
0000
0000
0100
0000
0000
0000
1000
0000
,  // measure 62
0000
0000
0010
0001
0010
0000
0000
0000
1000
0000
0000
0000
0100
0000
0000
0010
,  // measure 63
0000
0000
0100
0000
0000
1010
0000
0000
0100
0000
0001
0000
0000
0000
0100
0000
,  // measure 64
0000
0110
0000
0000
1100
0000
0000
0011
0000
0000
1010
0000
0001
0000
0010
0100
,  // measure 65
0000
0000
0001
0000
1000
0000
0000
0001
1000
0000
0010
0000
1000
0000
0001
0000
,  // measure 66
0100
0010
0000
0100
0010
0000
0000
0010
1000
0000
0000
1000
0001
0000
0000
0001
,  // measure 67
0100
0000
0001
0000
0100
0010
0000
0000
1000
0000
0001
0000
0100
0000
0010
0000
,  // measure 68
0100
0001
0000
0100
1000
0000
1000
0000
0001
0000
0010
0001
0000
0000
0100
0000
,  // measure 69
0010
0000
1000
0001
1000
0000
0000
0010
0100
0000
0001
0000
0010
0000
0001
0000
,  // measure 70
1000
0010
0000
1000
0001
0000
0000
0001
0100
0000
0000
0100
0010
0000
0000
0010
,  // measure 71
0100
0000
0001
0000
1000
0100
0000
0001
0010
0000
0100
0000
0001
0010
0001
0000
,  // measure 72
0010
1000
0000
1000
0100
0000
0010
0100
0000
0000
1000
0000
0001
0100
1000
0010
,  // measure 73
0100
0001
0100
0000
1010
0000
0000
0110
0000
0000
0201
0000
0000
0000
0000
0000
,  // measure 74
0010
0000
0000
0000
1000
0000
0000
0000
0310
0000
0000
0000
0100
0000
0000
0001
0000
0000
2000
0000
0000
0000
0000
0000
0010
0000
0000
0000
0000
0000
0010
0000
,  // measure 75
3000
0100
0010
1000
1001
0000
0000
0110
0000
0000
2200
0000
0000
0000
0000
0000
,  // measure 76
0000
0000
0000
0000
3300
0000
0000
0000
1000
0000
0010
0000
0100
0000
0000
0100
0000
0000
0001
0000
0010
0000
1000
0000
0000
0000
0010
0000
0100
0000
0000
0000
,  // measure 77
0001
0100
0100
0110
0000
0000
0000
0000
0000
0000
0000
0000
0000
0000
0000
0000
;
