#TITLE:[AZAKA];
#SUBTITLE:;
#ARTIST:Minamotoya;
#TITLETRANSLIT:;
#SUBTITLETRANSLIT:;
#ARTISTTRANSLIT:;
#GENRE:;
#CREDIT:;
#BANNER:[AZAKA].png;
#BACKGROUND:[AZAKA]-bg.png;
#LYRICSPATH:;
#CDTITLE:;
#MUSIC:[AZAKA].ogg;
#OFFSET:-0.416000;
#SAMPLESTART:86.679001;
#SAMPLELENGTH:15.000000;
#SELECTABLE:YES;
#BPMS:0.000000=177.977997
;
#STOPS:
;
#BGCHANGES:;
#KEYSOUNDS:;
#ATTACKS:;

//---------------dance-single - ----------------
#NOTES:
     dance-single:
     :
     Hard:
     13:
     0.517377,0.753438,0.196921,0.573640,0.269696,423.000000,400.000000,23.000000,67.000000,0.000000,0.000000,0.517377,0.753438,0.196921,0.573640,0.269696,423.000000,400.000000,23.000000,67.000000,0.000000,0.000000:
// measure 0
0000
0000
0000
0000
,  // measure 1
0000
0000
0000
0000
,  // measure 2
0000
0000
0000
0000
,  // measure 3
0000
0000
0000
0000
,  // measure 4
0000
0000
0000
0000
,  // measure 5
0000
0000
0000
0000
,  // measure 6
0000
0000
0000
0000
,  // measure 7
0000
0000
0000
0000
,  // measure 8
0200
0000
0000
0302
0000
0000
0023
0000
,  // measure 9
0000
2030
0000
0000
3200
0000
0302
0000
,  // measure 10
0000
0000
0000
0003
,  // measure 11
0000
0000
0000
0000
0000
0000
0100
0000
0020
0000
0000
2030
0000
0000
3002
0000
,  // measure 12
0000
2003
0000
3200
0000
0320
0000
0032
,  // measure 13
0000
0000
0000
0000
,  // measure 14
0000
0000
0003
0000
,  // measure 15
2002
0000
0000
3003
,  // measure 16
0200
0000
0310
2000
0000
0000
3010
0200
,  // measure 17
0000
0000
0301
0200
0000
0000
0310
0000
,  // measure 18
2000
0000
3001
2000
0000
0000
3010
0200
,  // measure 19
0000
0000
0310
2000
0000
3001
0010
0100
,  // measure 20
2000
0000
3001
0020
0000
0000
0031
0200
,  // measure 21
0000
0000
0301
0020
0000
0000
0031
0000
,  // measure 22
1000
0000
0000
0000
0001
0100
0002
0000
0000
0000
0003
0000
1000
0001
2000
0000
,  // measure 23
0000
0000
3000
0000
0010
0100
0020
0000
0000
0000
0130
0000
0001
0000
0000
0000
,  // measure 24
1000
0010
0100
0001
0000
0100
0010
1000
,  // measure 25
0000
0010
0100
0001
0000
1000
0010
0100
,  // measure 26
0001
0100
0010
1000
0000
0100
0010
0100
,  // measure 27
0000
0000
1000
0000
0001
0000
0100
0000
0000
0010
0100
0000
0010
0000
1000
0000
,  // measure 28
0001
0000
0100
0000
0010
0000
1000
0000
0000
0000
0001
0000
0010
0100
0010
0000
,  // measure 29
0000
0000
0100
0000
1000
0100
1000
0000
0000
0000
0100
0000
0010
0000
0001
0000
,  // measure 30
1000
0010
0100
0010
0000
1000
0001
0010
,  // measure 31
0000
0000
0100
0000
1000
0000
0100
0000
0000
1000
0010
0000
1000
0000
0000
0000
,  // measure 32
0100
0000
0010
0100
0010
0000
0001
0100
,  // measure 33
0001
0000
0000
0000
0010
0000
0100
1000
0100
0000
1000
0000
0010
0000
0100
0000
,  // measure 34
0001
0000
0000
1000
0000
0000
0001
0000
0100
0000
0000
0000
0010
0000
0100
0000
,  // measure 35
0001
0000
0000
0000
1000
0000
0010
1000
0010
0000
0100
0000
0010
0000
1000
0000
,  // measure 36
0001
0000
0000
0010
0100
0000
0010
0000
0001
0000
0000
0000
1000
0000
0010
0000
,  // measure 37
0100
0000
0000
0000
0010
0000
1000
0001
1000
0000
0010
0000
0100
0000
0001
0000
,  // measure 38
1000
0000
0000
0100
1000
0000
0010
0000
1000
0100
0000
0000
0010
0000
0001
0000
,  // measure 39
0011
0000
0000
0101
0000
0000
1100
0000
0000
1010
0000
0000
0110
0000
0100
0000
,  // measure 40
0001
0010
0001
0100
0010
1000
0010
0100
,  // measure 41
0001
0000
0010
0000
0001
0000
1000
0010
1000
0000
0100
0000
0010
0000
0100
0000
,  // measure 42
0010
0001
0100
0010
1000
0001
0100
0010
,  // measure 43
1000
0000
0000
0001
0000
0000
1000
0000
0010
0000
0100
0000
0001
0000
1000
0000
,  // measure 44
0100
0000
0000
0100
0000
0000
0010
0000
0000
0010
0000
0000
0100
0000
1000
0000
,  // measure 45
0001
0000
0000
0010
0000
0000
0001
0000
1000
0000
0010
0000
0100
0000
0010
0000
,  // measure 46
1000
0000
0000
1000
0000
0000
0010
0000
0000
0010
0000
0000
0100
0000
0010
0000
,  // measure 47
1000
0000
0000
0100
0000
0000
0001
0000
0000
0100
0000
0000
1000
0000
0000
0000
,  // measure 48
0020
0000
0230
0000
,  // measure 49
0302
0000
2003
0000
,  // measure 50
3002
0000
0000
0023
0000
0000
0230
0000
,  // measure 51
2300
0000
0000
0000
3000
0000
0020
0230
,  // measure 52
0302
0000
0000
0000
0003
0000
0200
0320
,  // measure 53
2030
0000
0000
3002
0000
0000
0203
0000
,  // measure 54
0320
0230
0302
0023
0230
2300
3002
2003
,  // measure 55
3020
0000
0000
0000
0000
0000
0000
0000
0030
0000
0100
0010
0100
0000
0000
0000
,  // measure 56
1001
0000
0000
1100
0000
0000
2002
0000
0000
0000
0000
0000
3003
0000
0010
0000
,  // measure 57
0110
0000
0000
1010
0000
0000
0220
0000
0000
0000
0330
0000
0000
0000
0100
0000
,  // measure 58
0101
0000
0000
0101
0000
0000
1100
0000
0000
1100
0000
0000
0010
0000
0100
0000
,  // measure 59
0110
0000
0000
0101
0000
0000
0011
0000
0000
0110
0000
0000
1100
0000
1000
0000
,  // measure 60
0010
0000
0000
0100
0010
0000
1000
0000
0001
0010
0000
0000
0001
0000
0100
0000
,  // measure 61
0010
0000
0000
1000
0010
0000
0100
0000
0001
1000
0000
0000
0001
0000
0010
0000
,  // measure 62
0100
1000
0000
0100
0010
0000
0001
1000
0000
0001
0010
0000
0100
0010
0100
0000
,  // measure 63
0200
0000
0000
1000
0000
0000
1000
0000
0000
1000
0300
0000
1001
0000
0001
0000
,  // measure 64
1000
0000
0000
0001
0000
0000
0100
0000
0000
0001
0000
0000
1000
0000
0010
0000
,  // measure 65
0100
0000
0000
0001
0000
0000
0010
0000
0000
0001
0000
0000
1000
0000
0010
0000
,  // measure 66
0100
0000
0000
0001
0000
0000
0100
0000
0000
0010
0000
0000
1000
0000
0001
0000
,  // measure 67
0100
0000
0000
0010
0000
0000
1000
0000
0000
0001
0000
0000
0100
0000
0010
0000
,  // measure 68
1000
0000
0000
0010
0000
0000
0100
0000
0000
0001
0000
0000
0010
0000
0100
0000
,  // measure 69
1000
0000
0000
0001
0000
0000
1000
0000
0000
0010
0000
0000
0100
0000
0001
0000
,  // measure 70
0100
0000
0000
0010
0000
0000
1000
0000
0000
0001
0000
0000
0100
0000
0010
0000
,  // measure 71
1000
0000
0000
0001
0000
0000
0100
0000
0000
0010
0000
0000
0100
0000
0001
0000
,  // measure 72
2000
0000
3010
2000
0000
3001
0200
0000
,  // measure 73
0301
0020
0000
0130
2000
0000
3020
0000
,  // measure 74
2030
0001
0001
3001
,  // measure 75
0010
0000
0000
0000
0001
0000
1000
0000
0001
0000
0000
0100
0000
0000
0010
0000
,  // measure 76
1000
0001
1000
0001
1000
0100
0010
0001
,  // measure 77
0100
0010
0100
0010
0100
0001
1000
0010
,  // measure 78
0100
0100
0001
0001
1000
1000
0010
0010
,  // measure 79
0100
0000
0000
0010
0000
0000
1000
0000
0000
0001
0000
0000
0100
0000
0000
0000
,  // measure 80
0110
0000
0000
0000
;
