#TITLE:#The_Relentless;
#SUBTITLE:;
#ARTIST:DJ Noriken;
#TITLETRANSLIT:;
#SUBTITLETRANSLIT:;
#ARTISTTRANSLIT:;
#GENRE:;
#CREDIT:;
#BANNER:#The_Relentless.png;
#BACKGROUND:#The_Relentless-bg.png;
#LYRICSPATH:;
#CDTITLE:;
#MUSIC:#The_Relentless.ogg;
#OFFSET:-0.284102;
#SAMPLESTART:34.127998;
#SAMPLELENGTH:15.000000;
#SELECTABLE:YES;
#BPMS:0.000000=170.000000
,32.000000=85.000000
,46.000000=42.500000
,47.000000=170.000000
,79.000000=85.000000
,91.000000=170.000000
,99.000000=85.000000
,111.000000=170.000000
,115.000000=85.000000
,117.000000=170.000000
,181.000000=85.000000
,197.000000=170.000000
;
#STOPS:
;
#BGCHANGES:0.000=#The_Relentless.mp4=1.000=0=0=0=StretchNoLoop====,
99999=-nosongbg-=1.000=0=0=0 // don't automatically add -songbackground-
;
#KEYSOUNDS:;
#ATTACKS:;

//---------------dance-single - ----------------
#NOTES:
     dance-single:
     :
     Hard:
     13:
     0.451472,0.710972,0.264006,0.295065,0.112591,407.000000,373.000000,34.000000,38.000000,0.000000,0.000000,0.451472,0.710972,0.264006,0.295065,0.112591,407.000000,373.000000,34.000000,38.000000,0.000000,0.000000:
0000
0000
0000
0000
,
0000
0000
0000
0000
,
0000
0000
0000
0000
,
0000
0000
0000
0000
,
2000
0001
0000
0001
,
0000
0100
0000
0100
,
3000
0010
0000
0010
,
0200
0000
0300
0010
0100
0000
1001
0000
,
0100
0000
0011
0000
1000
0000
1010
0010
,
0100
0000
1001
0000
0010
0000
1100
1000
,
0001
0000
0110
0000
1000
0000
0101
1000
,
0010
0000
0000
0000
1001
0000
0100
0000
0200
0000
0300
1001
2000
0000
0000
0000
,
0010
0100
3100
0020
,
0001
1000
1030
0002
,
0100
0010
0013
0200
,
1000
0000
0301
0000
0101
0000
1000
0010
,
1000
0000
0100
0010
0100
0000
0001
0100
,
0001
0000
1000
0001
1000
0000
0010
0001
,
0010
0000
0100
0000
1000
0000
0000
0100
0000
0000
0001
0000
0020
0000
0000
0000
,
0000
0000
0030
0000
0110
0000
1000
0001
,
0101
0000
0100
0000
0010
0001
0000
0010
0001
0000
0100
0000
0002
0000
1003
0000
,
0010
0010
0000
0010
0100
1000
0100
0001
1000
0000
1001
0000
0020
0000
0100
0000
,
0130
0000
0001
1000
0001
0100
0000
0100
0010
0000
1100
0000
0200
0000
0000
0000
,
0302
0000
0013
1000
0010
0000
0002
0000
,
2003
0000
3100
0010
0110
0000
0100
0001
,
0011
0000
0010
0000
1000
0010
1000
0010
0100
0000
0001
0000
0200
0000
1300
0000
,
0001
0001
0000
0001
0100
0010
1000
0010
0100
0000
0110
0000
2000
0000
0001
0000
,
3001
0100
0010
0100
0001
1000
0000
1000
0100
0000
1010
0000
0020
0000
0000
0000
,
0230
0000
1300
0001
1000
0010
0200
0000
,
0300
0000
1001
0000
0010
0000
0000
0000
1000
0000
0000
0000
0010
0000
0000
0010
,
0000
0000
0100
0000
0010
0000
0000
0000
0001
0000
0000
0000
1000
0000
0000
1000
,
0000
0000
0100
0000
0001
0000
0000
0000
0010
0000
0000
0000
0100
0000
0000
0100
,
0000
0000
1000
0000
0100
0000
0000
0000
1000
0000
0000
0000
0001
0000
0000
0001
,
0000
0000
0010
0000
1000
0000
0000
0000
0100
0000
0000
0000
1000
0000
0000
1000
,
0000
0000
0001
0000
0010
0000
0000
0000
0100
0000
0000
0000
0010
0000
0000
0020
,
0000
0000
0000
0000
0130
0000
0000
1000
0000
0000
0100
0000
0110
0000
0001
0000
,
0010
0000
0100
0001
0100
1000
0010
0000
,
1010
0200
0001
0001
,
0310
1000
0010
0100
0001
0000
1000
0100
,
0100
0002
0010
0010
,
0103
1000
0100
0010
0100
0000
0001
0000
,
1001
0000
0100
1000
0100
0000
0010
0100
,
0010
0000
0001
1000
0001
0000
0010
0001
,
0010
0000
0100
0010
1000
0010
1000
0001
,
0100
0010
0200
0000
0300
0000
0101
0000
,
1100
0020
0000
2030
,
0000
3002
0000
0203
,
0000
0310
0010
0001
,
0001
0100
0100
2000
,
3000
1100
0002
0000
0010
0000
0000
0000
,
0013
0200
0001
0000
,
0301
0020
0100
0000
,
0130
2000
0010
3000
,
1010
0000
1000
0001
1000
0000
0010
1000
,
0010
0000
0100
0001
0100
1000
0001
0010
,
0001
0000
0000
0000
0001
0000
0010
0000
0100
0000
1000
0000
0100
0000
0000
0001
,
0000
1000
2020
0000
0000
0000
3030
0000
,
1001
0000
0010
0000
0100
0000
0010
1000
,
0001
0000
1000
0000
0100
0000
0001
0010
,
0001
0000
1000
0000
0100
0000
0010
0100
,
0010
0000
0001
0000
1000
0000
0010
0001
,
0100
0000
0001
0000
0001
0000
1000
0100
,
0010
0000
0100
0000
0100
0000
0010
0100
,
0001
0000
1000
0000
0001
0000
0100
0001
,
0010
0001
1000
0000
0001
0000
0100
0010
,
0220
0000
0330
0000
1001
0000
0100
1000
,
0010
0000
0001
1000
0001
1000
0100
0001
,
0010
0000
0010
1000
0100
0001
0001
1000
,
0100
1000
0010
0100
0001
0100
0010
1000
,
1001
0000
0100
0010
0100
0100
1000
0010
,
1000
1000
0001
0100
0001
0001
0010
0001
,
0010
0010
1000
0100
0010
0001
0010
1000
,
0100
0001
0220
0000
0000
0000
0330
0000
,
1010
0011
0000
0000
;

//---------------dance-single - ----------------
#NOTES:
     dance-single:
     :
     Challenge:
     17:
     0.728789,1.189871,0.341655,0.225182,0.873549,657.000000,613.000000,44.000000,29.000000,44.000000,0.000000,0.728789,1.189871,0.341655,0.225182,0.873549,657.000000,613.000000,44.000000,29.000000,44.000000,0.000000:
0000
0000
0000
0000
,
0000
0000
0000
0000
,
0000
0000
0000
0000
,
0000
0000
0000
0000
,
0000
0000
0010
0000
0001
0010
0001
0000
0100
0000
0100
0000
0220
0000
0000
0000
,
0300
1000
0000
0001
,
0030
0000
0000
0000
0100
0000
0000
0000
0010
0000
0100
0000
0001
0100
0001
0100
,
0002
0000
0003
1000
1100
0000
MMMM
0000
,
0001
0000
0000
0100
0010
0000
0100
0000
0010
1000
0010
0000
0001
0000
0000
0000
0100
0000
0000
1000
0010
0000
1000
0000
0001
0100
0001
0000
0100
0000
0100
0000
,
0010
0000
0000
0001
0010
0000
0001
0000
1000
0001
1000
0000
0010
0000
0000
0000
1000
0000
0000
0100
0001
0000
0100
0000
0110
0000
0010
0000
1010
0000
0000
0000
,
0100
0000
0000
0001
0010
0000
0001
0000
1000
0010
1000
0000
0100
0000
0000
0000
0001
0000
0000
0010
1000
0000
0010
0000
0100
0010
0100
0000
0001
0000
0001
0000
,
1000
0000
0000
0000
0000
0000
0010
0000
1000
0000
0000
0000
0001
0000
0000
0000
0100
0000
0000
0000
0100
0000
0000
0000
0010
0000
1000
0000
0010
0000
0000
0000
0000
0000
0100
0001
0100
0001
0100
1000
0010
0000
0010
0000
MMMM
0000
0000
0000
1001
0000
0000
0000
0000
0000
0000
0000
0000
0000
0000
0000
0010
0000
0000
0000
,
0000
0000
0100
0000
0000
0001
0000
0000
0100
0000
0000
0000
0110
0000
0000
1000
,
0000
0000
0001
0000
0000
0100
0000
0000
1000
0000
0000
0000
0101
0000
0000
0010
,
0000
0000
0100
0000
0000
1000
0000
0000
0010
0000
0000
0000
1100
0000
0000
0010
,
0000
0000
0001
0000
1000
0010
1000
0010
2000
0000
0000
0000
3001
0000
0100
0000
,
0001
0000
0010
0100
0010
0000
0001
0000
0010
0000
1000
0100
1000
0000
0001
0000
,
1000
0000
0100
1000
0100
0000
0010
0000
0100
0000
0010
0000
0001
1000
0001
0000
,
0100
0001
0100
0000
1001
0000
0000
0110
0000
0000
1200
0000
0010
0000
0000
0000
,
0310
0000
0000
0000
0000
0000
0000
0000
1000
0000
0000
0000
0001
0000
0000
0000
MMMM
0000
0000
0000
0000
0000
0000
0000
0220
0000
0000
0000
0330
0000
0001
0100
,
0001
0000
0000
0000
0100
0000
0000
0000
0010
1000
0010
0000
0010
0100
0010
0000
1000
0000
1000
0000
0010
0000
1000
0000
2200
0000
0000
0000
3300
0000
0000
0000
,
0100
0000
0100
0000
0000
0001
0100
0000
1000
0001
1000
0000
0100
0010
0100
0000
0010
0000
0001
0000
1001
0000
0000
0000
0202
0000
0000
0000
0303
0000
1000
0010
,
1000
0000
0010
0000
0100
0000
0000
0000
0001
0100
0001
0000
0001
0010
0001
0000
1000
0000
0010
0000
0220
0000
0000
0000
0330
0000
0000
0000
0010
0000
1000
0000
,
0010
1000
0010
0100
0001
0000
1000
0000
1001
0000
0000
0000
0000
0000
1000
0100
,
1000
0000
0100
0000
1000
0000
0010
0000
0001
0000
0000
0000
0001
0000
0000
0000
MMMM
0000
0000
0000
0000
0000
0000
2000
0000
0000
0000
0000
0000
3000
0010
0100
,
0001
0000
0000
0000
0100
0000
0000
0000
1000
0100
1000
0000
1000
0001
1000
0000
0001
0000
0010
0000
0100
0000
1000
0000
0202
0000
0000
0000
0303
0000
0000
0000
,
0001
0000
0001
0000
0000
0100
0001
0000
0100
0010
0100
0000
0001
1000
0001
0000
0010
0000
0000
0000
MMMM
0000
0000
0000
0020
0000
0000
0000
0030
0000
0100
0010
,
1000
0000
0000
0000
0001
0000
0000
0000
0010
1000
0010
0000
1000
0100
1000
0000
0100
0000
0100
0000
0002
0000
0000
0000
0003
0000
0000
0000
0010
0000
0100
0000
,
0010
0100
0010
0001
1000
0000
1000
0000
1010
0000
0000
0000
0000
0001
0001
0000
,
1000
0010
1000
0010
MMMM
0000
0000
0000
0100
0000
0000
0000
0000
0000
0000
0000
1100
0000
0000
0000
0000
0000
0000
0000
1000
0000
0000
0000
0000
0000
0001
0000
,
1000
0000
0010
0000
0100
0000
0000
0000
0101
0000
0000
0000
0010
0000
0000
1000
,
0010
0000
0001
0000
1000
0000
0000
0000
1001
0000
0000
0000
0100
0000
0000
0001
,
0100
0000
1000
0000
0010
0000
0000
0000
0011
0000
0000
0000
1000
0000
0000
0100
,
1000
0000
0001
0000
1000
0000
0000
0000
1010
0000
0000
0000
0100
0000
0000
0001
,
0100
0000
0010
0000
1000
0000
0000
0000
0110
0000
0000
0000
0001
0000
0000
1000
,
0002
0000
0000
0000
0103
0000
0000
0001
0100
0000
0010
0000
0011
0000
0001
0000
,
1000
0000
0010
0000
1000
0000
0100
0001
0000
0100
0010
0000
0001
1000
0001
0000
,
MMMM
0000
0000
0000
0100
0000
1000
0010
0100
0010
0100
0001
0100
0000
0001
0000
,
1000
0000
0001
0000
0010
0000
1000
0100
1000
0100
0001
0010
0001
0000
1000
0000
,
0010
0000
0100
0000
0010
0000
0001
1000
0001
0100
0010
0100
0001
0000
1000
0000
,
0010
0000
1000
0000
0001
0000
0100
0000
0200
0000
0000
0000
0301
0010
0001
0010
,
0001
0000
0000
0000
1000
0000
0001
0000
1000
0000
0010
1000
0010
0000
0001
0000
,
0010
0000
0100
0001
0100
0000
1000
0000
0010
0000
1000
0100
1000
0000
0100
0000
,
0001
0000
0100
0000
0110
0000
0010
0000
1010
0000
1000
0000
1100
0000
0001
0100
,
0001
0010
0002
0000
1000
0000
0000
0000
1003
0000
0000
0000
0110
0000
0100
0000
,
0110
0000
0000
0000
0002
1000
0000
1000
0000
0010
0000
2000
0003
0100
0000
0010
,
0000
0001
0000
0020
3000
0100
0000
1000
0000
0100
0000
0032
0000
0010
0000
0100
,
0000
0000
0100
0000
0003
0000
0001
0000
0100
0000
0000
0010
0000
0000
0100
0000
0000
1000
0000
0000
0001
0000
0000
0000
1000
0000
0000
0100
0000
0000
1000
0000
,
0000
0010
0000
0000
0001
0000
0000
0000
0010
0000
0000
1000
0000
0000
0010
0000
0000
0100
0000
0000
0010
0000
0000
0000
0001
0000
0000
1000
0000
0000
0100
0000
,
0000
0010
0000
0000
MMMM
0000
0000
0000
0110
0000
0000
0000
0000
0000
0100
0000
0000
0000
0000
0000
0001
0000
0000
0000
0000
0000
0100
0000
0000
0000
0000
0000
,
0010
0000
0000
0000
1010
0000
0000
1000
0000
0000
0100
0000
0000
0001
0000
0000
,
0100
0000
0000
0000
1100
0000
0000
1000
0000
0000
0001
0000
0000
0010
0000
0000
,
0100
0000
0000
0000
0101
0000
0000
0001
0000
0000
1000
0000
0010
0100
0010
0100
,
0020
0000
0000
0000
1030
0000
0001
0000
1000
0000
0001
0100
0001
0000
0100
0000
,
0010
0000
1000
0010
1000
0000
1000
0000
0001
0000
0001
0000
0100
0000
0100
0000
,
0010
0000
0010
0000
1000
0001
1000
0000
0010
0001
0010
0000
0110
0000
0000
0110
,
0000
1000
2001
0000
0001
3000
0010
0100
,
MMMM
0000
0000
0000
1000
0000
0000
0001
0100
0000
0010
0000
0100
0001
0000
0000
,
0010
0000
0000
1000
0010
0000
0000
0001
1000
0000
0001
0000
0100
0001
0000
0000
,
0100
0000
0010
0000
0001
0000
0000
1000
0100
0000
1000
0000
0010
0001
0000
1000
,
0001
0000
0100
0000
0010
0000
1000
0010
0000
0100
0010
0000
1000
0001
1000
0000
,
0001
0000
0100
0010
0100
0000
0000
0001
0010
0000
0001
0000
1000
0010
0000
0000
,
1000
0000
0001
0000
0001
0000
0000
0010
0100
0000
0010
0000
1000
0001
0000
0001
,
0100
0000
0001
0000
1000
0000
0000
0001
0000
0000
0001
0000
0110
0000
0000
0010
,
0000
0000
1000
0000
1000
0000
0001
0100
0000
0001
1000
0000
0010
1000
0010
1000
,
0001
0000
0000
0000
MMMM
0000
0000
0000
0101
0000
0001
0000
0100
0010
0000
0100
,
0010
0000
1000
0000
0001
0000
1000
0010
0000
0000
0010
0000
0100
0001
0100
0000
,
0001
0000
0010
0100
0010
0000
0000
1000
0010
0000
0001
0000
1000
0001
0000
0001
,
1000
0000
0010
0000
0100
0000
0100
0001
0000
0001
1000
0000
0010
0100
0010
0000
,
0001
0000
0000
0000
1000
0000
0010
0000
1000
0000
0001
0100
0010
0000
0100
0000
,
0010
0000
0100
0001
1000
0000
0010
0000
0100
0000
0001
1000
0100
0000
0010
0000
,
0001
0000
0100
0010
1000
0000
1000
0000
0010
0000
0010
0000
0001
0100
0001
0010
,
0100
0010
1000
0000
1100
0000
0000
0000
0101
0000
0000
0000
1001
0000
0001
0000
,
MMMM
0220
0000
0000
,
0000
0000
0000
0330
;

//---------------dance-single - ----------------
#NOTES:
     dance-single:
     :
     Medium:
     8:
     0.341655,0.398144,0.085414,0.225182,0.011647,308.000000,297.000000,11.000000,29.000000,0.000000,0.000000,0.341655,0.398144,0.085414,0.225182,0.011647,308.000000,297.000000,11.000000,29.000000,0.000000,0.000000:
0000
0000
0000
0000
,
0000
0000
0000
0000
,
0000
0000
0000
0000
,
0000
0000
0000
0000
,
0220
0000
0000
0000
,
0330
0000
0000
0000
,
0000
0001
1000
0010
,
0200
0000
0300
0010
0100
0000
1001
0000
,
0002
0000
0010
0000
1000
0000
0010
0003
,
0200
0000
0001
0000
0010
0000
0001
0300
,
2000
0000
0001
0000
0100
0000
0001
3000
,
0020
0000
0000
0000
1000
0000
0000
0000
0031
0000
0000
1001
0100
0000
0000
0000
,
0001
0010
0010
1000
,
0010
0100
0100
0001
,
0100
1000
1000
0010
,
0100
0001
0001
0010
,
0100
0000
0010
1000
0010
0000
0100
0000
,
0001
0000
0100
0010
0100
0000
0001
0000
,
1000
0000
0000
0000
0001
0000
0000
0100
0000
0000
0001
0000
0020
0000
0000
0000
,
0000
0030
0110
2000
,
3020
0000
0130
1000
0100
0010
0001
0000
,
1000
1000
0010
0100
0010
1000
0002
0000
,
2003
0000
3010
0100
0001
0001
1000
0000
,
0010
0000
0100
1000
0100
0000
0001
0000
,
0100
0000
1000
0010
1000
0000
0020
0000
,
0230
0000
0301
0010
0100
0010
1000
0000
,
0100
0100
1000
0001
1000
0010
0200
0000
,
0302
0000
0013
1000
0100
0010
0100
0000
,
0001
0000
0010
1000
0010
0000
2002
0000
,
0000
3003
0010
0000
1000
0000
0100
0010
,
0100
0000
1000
0000
0100
0000
0001
1000
,
0001
0000
0100
0000
0010
0000
0001
0010
,
0001
0000
0100
0000
0001
0000
1000
0100
,
1000
0000
0100
0000
0100
0000
0010
1000
,
0010
0000
1000
0000
1000
0000
0001
0100
,
0002
0000
0013
0000
0010
0000
0100
0001
,
0100
0000
0001
0000
0001
0000
0100
0010
,
0110
1000
0100
0001
,
0100
0010
0100
1000
,
0001
1000
0010
1000
,
0100
0000
0001
0000
0010
0000
0100
1000
,
0100
0001
0010
1000
,
0010
1000
0001
0100
,
0001
0000
0010
0000
0100
0000
0001
1000
,
0001
0000
0100
0000
1000
0000
0010
0010
,
0010
2001
0000
3020
,
0000
0230
0000
0302
,
0000
0023
0000
0230
,
0000
2300
0000
3002
,
0000
0003
0010
0000
0100
0000
0100
0000
,
0010
1000
0001
0001
,
1000
0100
0001
0001
,
0100
0010
1000
1000
,
0010
0001
0001
1000
,
1000
0010
0100
0001
,
1000
0000
0000
0000
0010
0000
0100
0000
0010
0000
0000
0000
0001
0000
0000
1000
,
0000
0100
2000
0000
0000
0000
3000
0000
,
0110
0100
0001
0010
,
1000
0000
0010
0000
0001
0000
1000
0100
,
1000
0010
0001
0100
,
0001
0000
1000
0000
0100
0000
0010
1000
,
0010
1000
0001
0010
,
0100
0000
1000
0000
0010
0000
0001
1000
,
0001
0100
1000
0010
,
1000
0100
0001
0010
,
1001
0000
0110
1000
,
0010
0000
0100
0000
0001
0000
0010
1000
,
0001
1000
0001
0100
,
1000
0000
0100
0000
0001
1000
0100
1000
,
0010
0100
0100
1000
,
1000
0001
0001
0010
,
0010
0000
0001
1000
0001
0000
0100
0001
,
0100
1000
0002
0000
0000
0000
0003
0000
,
1001
0100
0000
0000
;

//---------------dance-single - ----------------
#NOTES:
     dance-single:
     :
     Easy:
     5:
     0.205215,0.255950,0.038824,0.085414,0.000000,185.000000,180.000000,5.000000,11.000000,0.000000,0.000000,0.205215,0.255950,0.038824,0.085414,0.000000,185.000000,180.000000,5.000000,11.000000,0.000000,0.000000:
0000
0000
0000
0000
,
0000
0000
0000
0000
,
0000
0000
0000
0000
,
0000
0000
0000
0000
,
1001
0000
0000
0000
,
0000
0000
0000
0000
,
0000
0000
0000
0000
,
0200
0000
0300
0000
,
1000
0000
0001
0000
,
0010
0000
0100
0000
,
0010
0000
1000
0000
,
0001
0000
0100
0010
,
0000
0010
0000
1000
,
0000
1000
0000
0100
,
0000
0100
0000
0001
,
0000
0001
0000
1000
,
0000
1000
0000
0001
,
0000
0001
0000
0010
,
0010
0100
0100
0020
,
0000
0000
0030
0100
,
0001
0100
0100
1000
,
0010
1000
1000
0001
,
0100
0001
0001
0100
,
1000
0100
0000
0010
,
0100
0010
0000
0001
,
0001
1000
0001
0010
,
0010
0100
0010
1000
,
1000
0001
1000
0010
,
0100
0010
0000
0002
,
0000
0003
1000
0000
0100
0000
1000
0000
,
0000
0010
0100
0010
,
0000
0001
0010
0001
,
0000
0100
0001
0100
,
0000
0010
1000
0010
,
0000
0001
1000
0001
,
0000
0100
0100
0010
,
0000
1000
1000
0001
,
0000
0010
1000
0010
,
0000
0100
1000
0100
,
0000
0001
0010
0001
,
0000
0001
0100
0001
,
0000
0010
0010
1000
,
1000
0001
0001
0100
,
0100
0010
0001
0100
,
1000
0200
0000
0000
,
0300
0020
0000
0030
,
0000
0002
0000
0003
,
0000
0200
0000
0300
,
0000
2000
0000
3000
,
0000
1000
0000
0001
,
0000
0001
0000
1000
,
0000
0100
0000
0010
,
0000
0010
0000
0100
,
0000
0001
0100
0001
,
0000
0010
0001
0010
,
0000
0001
0001
1000
,
1000
2002
0000
0000
,
3003
0010
0100
0010
,
0000
0001
0100
0001
,
0000
1000
0010
1000
,
0000
0100
1000
0100
,
0000
0010
0001
0010
,
0000
0100
0010
0100
,
0000
1000
1000
1001
,
0000
0010
0010
0110
,
0000
0000
0001
1000
,
0000
0010
0001
0100
,
0000
1000
0100
0010
,
0000
0100
1000
0001
,
0000
0100
0100
0010
,
0000
1000
1000
0001
,
0000
0100
0010
0100
,
0010
2000
0000
0000
,
3000
1001
0000
0000
;

//---------------dance-single - ----------------
#NOTES:
     dance-single:
     :
     Beginner:
     3:
     0.143096,0.227511,0.054354,0.054354,0.000000,129.000000,122.000000,7.000000,7.000000,0.000000,0.000000,0.143096,0.227511,0.054354,0.054354,0.000000,129.000000,122.000000,7.000000,7.000000,0.000000,0.000000:
// measure 0
0000
0000
0000
0000
,  // measure 1
0000
0000
0000
0000
,  // measure 2
0000
0000
0000
0000
,  // measure 3
0000
0000
0000
0000
,  // measure 4
0200
0000
0000
0000
,  // measure 5
0300
0000
0000
0000
,  // measure 6
0000
0000
0000
0000
,  // measure 7
0110
0000
0000
0000
,  // measure 8
1000
0000
1000
0000
,  // measure 9
0001
0000
0001
0000
,  // measure 10
0010
0000
0010
0000
,  // measure 11
0100
0000
0100
0010
,  // measure 12
0000
0000
0000
0100
,  // measure 13
0000
0000
0000
0001
,  // measure 14
0000
0000
0000
1000
,  // measure 15
0000
0000
0000
0010
,  // measure 16
0000
0010
0000
1000
,  // measure 17
0000
1000
0000
0001
,  // measure 18
0000
0001
0000
1001
,  // measure 19
0000
0000
0000
0100
,  // measure 20
0000
0100
0000
0010
,  // measure 21
0000
0010
0000
0001
,  // measure 22
0000
0001
0000
1000
,  // measure 23
0000
1000
0000
0001
,  // measure 24
0000
0001
0000
1000
,  // measure 25
0000
1000
0000
0010
,  // measure 26
0000
0010
0000
0100
,  // measure 27
0000
0100
0000
0001
,  // measure 28
0000
0001
0000
1001
,  // measure 29
0000
0100
0000
0100
,  // measure 30
0000
0010
0000
0010
,  // measure 31
0000
0001
0000
0001
,  // measure 32
0000
1000
0000
1000
,  // measure 33
0000
0010
0000
0010
,  // measure 34
0000
0100
0000
0100
,  // measure 35
0000
2000
0000
3000
,  // measure 36
0000
0002
0000
0003
,  // measure 37
0000
0010
0000
0100
,  // measure 38
0000
0010
0000
0010
,  // measure 39
0000
1000
0000
0001
,  // measure 40
0000
1000
0000
1000
,  // measure 41
0000
0100
0100
0100
,  // measure 42
0000
0001
0001
0001
,  // measure 43
0000
1000
1000
1000
,  // measure 44
0000
0110
0000
0000
,  // measure 45
0000
2000
0000
3000
,  // measure 46
0000
0002
0000
0003
,  // measure 47
0000
0200
0000
0300
,  // measure 48
0000
0020
0000
0030
,  // measure 49
0000
0100
0000
0000
,  // measure 50
0000
0100
0000
0000
,  // measure 51
0000
0010
0000
0000
,  // measure 52
0000
0010
0000
0000
,  // measure 53
0000
1000
0000
1000
,  // measure 54
0000
0001
0000
0001
,  // measure 55
0000
0100
0100
0100
,  // measure 56
0000
0110
0000
0000
,  // measure 57
0000
1000
0000
1000
,  // measure 58
0000
0001
0000
0001
,  // measure 59
0000
1000
0000
0001
,  // measure 60
0000
1000
0000
0001
,  // measure 61
0000
0100
0000
0100
,  // measure 62
0000
0010
0000
0010
,  // measure 63
0000
0100
0000
0010
,  // measure 64
0000
0100
0000
0010
,  // measure 65
0000
0000
0000
0001
,  // measure 66
0000
1000
0000
0001
,  // measure 67
0000
0010
0000
0100
,  // measure 68
0000
0010
0000
0100
,  // measure 69
0000
1000
1000
1000
,  // measure 70
0000
0001
0001
0001
,  // measure 71
0000
0010
0010
0010
,  // measure 72
0000
0110
0000
0000
,  // measure 73
0000
1001
0000
0000
;
