#VERSION:0.83;
#TITLE:underground;
#SUBTITLE:;
#ARTIST:f5ve;
#TITLETRANSLIT:;
#SUBTITLETRANSLIT:;
#ARTISTTRANSLIT:;
#GENRE:;
#ORIGIN:;
#CREDIT:;
#BANNER:;
#BACKGROUND:;
#PREVIEWVID:;
#JACKET:;
#CDIMAGE:;
#DISCIMAGE:;
#LYRICSPATH:;
#CDTITLE:;
#MUSIC:Underground.ogg;
#OFFSET:1.230932;
#SAMPLESTART:37.412998;
#SAMPLELENGTH:15.000000;
#SELECTABLE:YES;
#BPMS:0.000=177.000;
#STOPS:;
#DELAYS:;
#WARPS:;
#TIMESIGNATURES:0.000=4=4;
#TICKCOUNTS:0.000=4;
#COMBOS:0.000=1;
#SPEEDS:0.000=1.000=0.000=0;
#SCROLLS:0.000=1.000;
#FAKES:;
#LABELS:0.000=Song Start;
#BGCHANGES:4.000=Underground.mp4=1.000=0=0=1=====,
99999=-nosongbg-=1.000=0=0=0 // don't automatically add -songbackground-
;
#KEYSOUNDS:;
#ATTACKS:
;

//---------------dance-single - ----------------
#NOTEDATA:;
#CHARTNAME:;
#STEPSTYPE:dance-single;
#DESCRIPTION:;
#CHARTSTYLE:;
#DIFFICULTY:Hard;
#METER:12;
#RADARVALUES:0.605411,0.655742,0.229262,0.354314,0.003474,610.000000,577.000000,33.000000,51.000000,0.000000,0.000000,0.000000,0.000000,0.000000,0.605411,0.655742,0.229262,0.354314,0.003474,610.000000,577.000000,33.000000,51.000000,0.000000,0.000000,0.000000,0.000000,0.000000;
#CREDIT:;
#NOTES:
0000
0000
0000
0000
,
0000
0000
0000
0000
,
0000
0000
0000
0000
,
0000
0000
0000
0000
,
0000
0000
0000
0000
,
0000
0000
0000
0000
,
0000
0000
0000
0000
,
0000
0000
0000
0000
,
0000
0000
0000
0000
,
1000
0100
0010
0100
1000
0010
0100
0001
,
0100
0001
0010
0100
2000
0000
3000
0000
,
0001
0100
0010
0100
0001
0010
0100
1000
,
0100
1000
0010
0100
0002
0000
0003
0000
,
1000
0100
0000
0010
0001
0010
0001
0100
,
0010
1000
0001
1000
0200
0000
0300
0000
,
0010
0001
1000
0001
0100
0000
0010
0000
,
1000
0010
0100
0001
2000
0000
3000
0000
,
0001
0010
0001
1000
0010
1000
0001
0010
,
0200
0000
0300
1000
,
0100
0000
0010
0001
0000
1000
0000
0010
,
0000
0100
0002
0000
2003
0000
3000
0000
,
1000
0100
1000
0001
0100
0001
1000
0100
,
0020
0000
0000
0000
0030
0000
0010
0001
,
0000
0100
0000
0010
0000
1000
0000
0001
,
0010
0000
0100
0000
0100
0000
1000
0010
,
0000
0100
0000
0001
0000
1000
0000
0100
,
0010
0000
0000
0000
0000
0000
0000
0000
0002
0000
0000
0000
0000
0000
0000
0000
0000
2000
0000
0000
0000
0000
0000
0000
0000
0000
0000
0000
0000
0000
0000
0000
,
0000
0000
0000
0000
,
0000
0000
3003
0000
,
0001
0100
0010
1000
0001
1000
0100
0010
,
0001
0100
0110
0000
1000
0100
0110
0000
,
0010
0001
0100
0010
0100
0001
0010
0100
,
1000
0010
0110
0000
0110
0000
0010
1000
,
0010
0100
0001
1000
0100
1000
0001
0100
,
0001
1000
0100
0010
0001
0000
1001
0000
,
0001
0100
0010
1000
0001
0010
0100
1000
,
0010
0100
0110
0000
0110
0000
0001
0000
,
2000
0100
3002
0100
2003
0100
3002
0100
,
2003
0000
3001
0010
0100
0000
1001
0000
,
0001
0010
1000
0010
0100
0001
0100
1000
,
0010
0100
0001
0010
0100
0000
1001
0000
,
0002
0100
2003
0100
3002
0100
2003
0100
,
3002
0000
1003
0010
0100
0000
1001
0000
,
1000
0010
0001
0010
0100
1000
0100
0001
,
0010
0100
1000
0001
0100
0000
1001
0000
,
0001
0100
0010
1000
0100
0010
0100
1000
,
0001
0100
0001
0100
0010
0000
1000
0000
,
0001
0010
0100
0010
0001
1000
0010
0100
,
0001
1000
0100
0010
0001
0000
2000
3000
,
0001
0100
0000
0010
1000
0010
1000
0100
,
0010
0100
1000
0001
0100
0000
0010
0000
,
0100
0010
0100
0001
1000
0100
0010
0001
,
1000
0010
1000
0001
0020
0000
0030
0000
,
0100
1000
0100
0010
0001
0010
0100
1000
,
0200
0010
1000
0310
,
0100
0000
1000
0001
0000
0100
0000
0010
,
0000
1000
0001
0000
0010
0000
0100
0000
,
0010
0001
0100
0010
1000
0010
0100
0001
,
0200
0000
0010
0000
0001
0000
0310
0100
,
0000
0001
0000
1000
0000
0100
0000
0010
,
0001
0000
0100
0000
0010
0000
1000
0100
,
0000
0010
0000
0001
0000
0010
0000
0100
,
1000
0020
0200
0000
,
0000
0000
0000
0000
,
0000
0000
0330
0000
,
1000
0100
0010
0001
1000
0001
0100
0010
,
1000
0100
0110
0000
0001
0100
0110
0000
,
0010
1000
0100
0010
0100
1000
0010
0100
,
0001
0010
0110
0000
0110
0000
0010
0001
,
0010
0100
1000
0001
0100
0001
1000
0100
,
1000
0001
0100
0010
1000
0000
1001
0000
,
1000
0100
0010
0001
1000
0010
0100
0001
,
0010
0100
0110
0000
0110
0000
1000
0000
,
0002
0100
2003
0100
3002
0100
2003
0100
,
3002
0000
1003
0010
0100
0000
1001
0000
,
1000
0010
0001
0010
0100
1000
0100
0001
,
0010
0100
1000
0010
0100
0000
1001
0000
,
2000
0100
3002
0100
2003
0100
3002
0100
,
2003
0000
3001
0010
0100
0000
1001
0000
,
0001
0010
1000
0010
0100
0001
0100
1000
,
0010
0100
0001
1000
0100
0000
1001
0000
,
0001
0000
1000
0100
1000
0001
0100
0000
,
0010
0010
1000
1000
0001
0001
0010
0010
,
0200
0000
0310
0001
2000
0000
3002
0000
,
0103
0100
0001
0001
0010
0010
0100
0100
,
1000
0000
0100
0010
0001
0000
1000
0001
,
0000
0100
0010
0000
1000
0001
1000
0100
,
0010
0000
0001
0000
1000
0010
0100
0000
,
0001
0010
0100
1000
0010
0100
0001
1000
,
0001
0010
0100
1000
0001
1000
0010
0100
,
0001
0010
0110
0000
1000
0010
0110
0000
,
0100
0001
0010
0100
0010
0001
0100
0010
,
1000
0100
0110
0000
0110
0000
0100
1000
,
0100
0010
0001
1000
0010
1000
0001
0010
,
0001
1000
0010
0100
0001
0000
1001
0000
,
0001
0010
0100
1000
0001
0100
0010
1000
,
0100
0010
0110
0000
0110
0000
0001
0000
,
2000
0010
3002
0010
2003
0010
3002
0010
,
2003
0000
3001
0100
0010
0000
1001
0000
,
0001
0100
1000
0100
0010
0001
0010
1000
,
0100
0010
0001
0100
0010
0000
1001
0000
,
0002
0010
2003
0010
3002
0010
2003
0010
,
3002
0000
1003
0100
0010
0000
1001
0000
,
1000
0100
0001
0100
0010
1000
0010
0001
,
0100
0010
1000
0001
1000
0000
2002
3003
;

//---------------dance-single - ----------------
#NOTEDATA:;
#CHARTNAME:;
#STEPSTYPE:dance-single;
#DESCRIPTION:;
#CHARTSTYLE:;
#DIFFICULTY:Medium;
#METER:9;
#RADARVALUES:0.426765,0.582187,0.180631,0.257052,0.000000,430.000000,404.000000,26.000000,37.000000,0.000000,0.000000,0.000000,0.000000,0.000000,0.426765,0.582187,0.180631,0.257052,0.000000,430.000000,404.000000,26.000000,37.000000,0.000000,0.000000,0.000000,0.000000,0.000000;
#CREDIT:;
#NOTES:
0000
0000
0000
0000
,
0000
0000
0000
0000
,
0000
0000
0000
0000
,
0000
0000
0000
0000
,
0000
0000
0000
0000
,
0000
0000
0000
0000
,
0000
0000
0000
0000
,
0000
0000
0000
0000
,
0000
0000
0000
0000
,
1000
0100
0010
0001
,
0100
0100
0100
0000
,
0001
0100
0010
1000
,
0100
0100
0100
0000
,
0010
0001
0000
1000
0100
0000
0010
0000
,
0001
0001
0001
0000
,
2000
3020
0230
0302
,
1003
0001
2002
3003
,
1000
0000
0000
1000
0000
0000
1000
0000
,
2000
0000
3000
0010
,
1000
0000
0100
0010
0000
0010
0000
0010
,
0000
0010
0001
0000
2000
0000
0000
0000
,
3001
0000
0000
0001
0000
0000
0001
0000
,
0002
0000
0000
0000
0003
0000
0001
0100
,
0000
0100
0000
0100
0000
0100
0000
0100
,
0010
0000
1000
0000
0001
0000
0010
0001
,
0000
0001
0000
1000
0000
1000
0000
0010
,
0100
0002
2000
0000
,
0000
0000
0000
0000
,
0000
0000
3003
0000
,
1000
0100
0010
0001
,
1000
1100
1000
1100
,
1000
0100
0010
0001
,
0100
0101
0101
0001
,
0100
0010
0100
1000
,
0100
0001
0020
0230
,
0310
0100
1000
0001
,
0100
0100
0200
0300
,
0010
1000
0010
1000
0010
1000
0010
1000
,
0010
0000
1000
0010
1000
0000
1010
0000
,
1000
0010
0100
0001
,
0100
0010
1000
1001
,
0001
0010
0001
0010
0001
0010
0001
0010
,
0001
0000
0010
0001
0010
0000
0011
0000
,
0001
1000
0001
1000
0001
0000
1000
0000
,
0100
0010
0001
1001
,
0001
0010
0100
1000
,
0010
0010
0010
0000
,
1000
0010
0100
0001
,
0010
0010
0010
0020
,
0130
1000
0000
0001
0010
0000
0100
0000
,
1000
1000
1000
0000
,
0002
0203
0320
2030
,
3001
1000
2002
3003
,
0001
0000
0000
0001
0000
0000
0001
0000
,
0002
0000
0003
0100
,
0001
0000
0010
0100
0000
0100
0000
0100
,
0000
0100
1000
0000
0002
0000
0000
0000
,
1003
0000
0000
1000
0000
0000
1000
0000
,
2000
0000
0000
0000
3000
0000
1000
0010
,
0000
0010
0000
0010
0000
0010
0000
0010
,
0100
0000
0001
0000
1000
0000
0100
1000
,
0000
1000
0000
0001
0000
0001
0000
0100
,
0010
2000
0002
0000
,
0000
0000
0000
0000
,
0000
0000
3003
0000
,
0001
0010
0100
1000
,
0001
0101
0100
0101
,
0001
0010
0100
1000
,
0100
1100
1100
1000
,
0010
0100
0010
0001
,
0010
1000
0200
0320
,
0031
0100
0010
1000
,
0100
0100
0200
0300
,
1000
0100
1000
0100
1000
0100
1000
0100
,
1000
0000
0100
1000
0100
0000
1100
0000
,
1000
0100
0010
0001
,
0010
0100
1000
1001
,
0001
0100
0001
0100
0001
0100
0001
0100
,
0001
0000
0100
0001
0100
0000
0101
0000
,
0100
0010
0100
0010
0100
0000
0010
0000
,
1000
0001
0010
0110
,
1000
0001
0100
0010
,
1000
0010
1000
0010
1000
0010
1000
0010
,
2000
3200
0320
0032
,
0103
0010
0100
0010
0100
0010
0100
0010
,
0100
0000
0010
1000
0010
0000
1000
0100
,
0000
1000
0100
0000
0010
0000
0001
0010
,
0001
0000
1000
0000
0001
0100
0001
0000
,
0200
0320
2030
3002
,
1003
0100
0010
0001
,
0010
0001
0100
0000
0010
1000
0100
0000
,
1000
0001
0100
0010
,
1000
0100
0010
0000
0110
0000
0100
0000
,
1000
0001
0100
0010
,
1000
0001
0010
0110
,
1000
0100
0010
0001
,
0100
0010
0100
0000
0110
0000
0110
0000
,
1000
0010
1000
0010
1000
0010
1000
0010
,
1000
0000
0100
1000
0100
0000
1100
0000
,
1000
0100
0010
0001
,
0010
0100
0010
0100
0010
0000
0110
0000
,
0001
0010
0001
0010
0001
0010
0001
0010
,
0001
0000
0100
0001
0100
0000
0101
0000
,
0001
0100
0010
1000
,
0100
0000
0010
0100
0010
0000
0110
0000
;

//---------------dance-single - ----------------
#NOTEDATA:;
#CHARTNAME:;
#STEPSTYPE:dance-single;
#DESCRIPTION:;
#CHARTSTYLE:;
#DIFFICULTY:Easy;
#METER:6;
#RADARVALUES:0.274916,0.363867,0.006947,0.152841,0.000000,277.000000,276.000000,1.000000,22.000000,0.000000,0.000000,0.000000,0.000000,0.000000,0.274916,0.363867,0.006947,0.152841,0.000000,277.000000,276.000000,1.000000,22.000000,0.000000,0.000000,0.000000,0.000000,0.000000;
#CREDIT:;
#NOTES:
0000
0000
0000
0000
,
0000
0000
0000
0000
,
0000
0000
0000
0000
,
0000
0000
0000
0000
,
0000
0000
0000
0000
,
0000
0000
0000
0000
,
0000
0000
0000
0000
,
0000
0000
0000
0000
,
0000
0000
0000
0000
,
0001
0000
1000
0000
,
0010
0010
0010
0000
,
1000
0000
0001
0000
,
0010
0010
0010
0000
,
1000
0000
0010
0000
,
0100
0100
0100
0000
,
0001
0000
0010
0000
,
0100
0100
0100
0000
,
2000
0000
3002
0000
,
2003
0000
3000
0000
,
0010
0000
0100
0000
,
0001
0001
0001
0000
,
0020
0000
0230
0000
,
0320
0000
0030
0000
,
0001
0000
1000
0000
,
0010
0010
0010
0000
,
0100
0000
0010
0000
,
1000
1000
2000
0000
,
0000
0000
0000
0000
,
0000
0000
3000
0000
,
1000
0100
1000
0000
,
0100
0000
0100
0000
,
0001
0100
0001
0000
,
0100
0100
0100
0000
,
0010
0000
1000
0000
,
0100
0000
0010
0000
,
0001
1000
0001
0000
,
0100
0100
0100
0000
,
0010
1000
0010
1000
,
0010
1000
0010
2000
,
3100
0010
0100
0010
,
0100
0010
0100
0020
,
0031
0010
0001
0010
,
0001
0010
0001
0020
,
0130
0010
0100
0010
,
0100
0010
0100
0020
,
0031
0000
1000
0000
,
0100
0100
0100
0000
,
1000
0000
0001
0000
,
0100
0100
0100
0000
,
0001
0000
0100
0000
,
0010
0010
0010
0000
,
1000
0000
0100
0000
,
0010
0010
0010
0000
,
0002
0000
2003
0000
,
3002
0000
0003
0000
,
0100
0000
0010
0000
,
1000
1000
1000
0000
,
0200
0000
0320
0000
,
0230
0000
0300
0000
,
1000
0000
0001
0000
,
0100
0100
0100
0000
,
0010
0000
0100
0000
,
0001
0001
0002
0000
,
0000
0000
0000
0000
,
0000
0000
0003
0000
,
0001
0100
0001
0000
,
0100
0000
0100
0000
,
1000
0100
1000
0000
,
0100
0100
0100
0000
,
0010
0010
0001
0001
,
0100
0100
0010
0010
,
1000
0001
1000
1000
,
0100
0100
0100
0000
,
0010
0001
0010
0001
,
0010
0001
0010
0002
,
0103
0010
0100
0010
,
0100
0010
0100
0020
,
1030
0010
1000
0010
,
1000
0010
1000
0020
,
0130
0010
0100
0010
,
0100
0010
0100
0020
,
1030
0000
0100
0000
,
0010
0010
0010
0010
,
0001
0000
0100
0000
,
0010
0010
0010
0010
,
1000
0000
0001
0000
,
1000
0000
0100
0000
,
0010
0000
0100
0000
,
0010
0100
0010
0100
,
1000
1000
0001
0001
,
0100
0000
0100
0000
,
0001
0001
1000
1000
,
0100
0100
0100
0000
,
0010
0010
0001
0001
,
1000
1000
0010
0010
,
0100
0100
0001
0001
,
1000
1000
0100
0100
,
0010
0001
0010
0100
,
1000
0100
0010
0001
,
0100
0010
1000
0010
,
0100
0001
0100
0010
,
1000
0100
0010
0001
,
0100
0010
1000
0010
,
0100
0001
0010
0100
,
1000
0100
0010
0110
;

//---------------dance-single - ----------------
#NOTEDATA:;
#CHARTNAME:;
#STEPSTYPE:dance-single;
#DESCRIPTION:;
#CHARTSTYLE:;
#DIFFICULTY:Beginner;
#METER:3;
#RADARVALUES:0.164751,0.254099,0.000000,0.000000,0.000000,166.000000,166.000000,0.000000,0.000000,0.000000,0.000000,0.000000,0.000000,0.000000,0.164751,0.254099,0.000000,0.000000,0.000000,166.000000,166.000000,0.000000,0.000000,0.000000,0.000000,0.000000,0.000000,0.000000;
#CREDIT:;
#NOTES:
// measure 0
0000
0000
0000
0000
,  // measure 1
0000
0000
0000
0000
,  // measure 2
0000
0000
0000
0000
,  // measure 3
0000
0000
0000
0000
,  // measure 4
0000
0000
0000
0000
,  // measure 5
0000
0000
0000
0000
,  // measure 6
0000
0000
0000
0000
,  // measure 7
0000
0000
0000
0000
,  // measure 8
0000
0000
0000
0000
,  // measure 9
1000
0000
0000
0000
,  // measure 10
0000
0000
0000
0000
,  // measure 11
0001
0000
0000
0000
,  // measure 12
0000
0000
0000
0000
,  // measure 13
1000
0000
0000
0000
,  // measure 14
0000
0000
0000
0000
,  // measure 15
0001
0000
0000
0000
,  // measure 16
0000
0000
0000
0000
,  // measure 17
0010
0000
0000
0000
,  // measure 18
0010
0000
0000
0000
,  // measure 19
0100
0000
0000
0000
,  // measure 20
0100
0000
0000
0000
,  // measure 21
1000
0000
0000
0000
,  // measure 22
1000
0000
0000
0000
,  // measure 23
0001
0000
0000
0000
,  // measure 24
0001
0000
0000
0000
,  // measure 25
0100
0000
0000
0000
,  // measure 26
0010
0000
0000
0000
,  // measure 27
0000
0000
0000
0000
,  // measure 28
0000
0000
0000
0000
,  // measure 29
1000
0000
1000
0000
,  // measure 30
1000
0000
0000
0000
,  // measure 31
0001
0000
0001
0000
,  // measure 32
0001
0000
0000
0000
,  // measure 33
0100
0000
0100
0000
,  // measure 34
0100
0000
0000
0000
,  // measure 35
0010
0000
0010
0000
,  // measure 36
0010
0000
0000
0000
,  // measure 37
1000
0000
0001
0000
,  // measure 38
1000
0000
0001
0000
,  // measure 39
0010
0000
0100
0000
,  // measure 40
0010
0000
0100
0000
,  // measure 41
1000
0000
1000
0000
,  // measure 42
0001
0000
0001
0000
,  // measure 43
0100
0000
0100
0000
,  // measure 44
0010
0000
0010
0000
,  // measure 45
1000
0000
0000
0000
,  // measure 46
0001
0000
0000
0000
,  // measure 47
1000
0000
0000
0000
,  // measure 48
0001
0000
0000
0000
,  // measure 49
0010
0000
0000
0000
,  // measure 50
0100
0000
0000
0000
,  // measure 51
0010
0000
0000
0000
,  // measure 52
0100
0000
0000
0000
,  // measure 53
1000
0000
0100
0000
,  // measure 54
0010
0000
0000
0000
,  // measure 55
0001
0000
0010
0000
,  // measure 56
0100
0000
0000
0000
,  // measure 57
1000
0000
0010
0000
,  // measure 58
0100
0000
0000
0000
,  // measure 59
0001
0000
0100
0000
,  // measure 60
0010
0000
0000
0000
,  // measure 61
1000
0000
0001
0000
,  // measure 62
1000
0000
0001
0000
,  // measure 63
0000
0000
0000
0000
,  // measure 64
0000
0000
0000
0000
,  // measure 65
0001
0001
0001
0000
,  // measure 66
1000
1000
1000
0000
,  // measure 67
0001
0001
0001
0000
,  // measure 68
1000
1000
1000
0000
,  // measure 69
0010
0000
0010
0000
,  // measure 70
0100
0000
0100
0000
,  // measure 71
0010
0010
0010
0000
,  // measure 72
0100
0100
0100
0000
,  // measure 73
0001
0001
0001
0000
,  // measure 74
1000
1000
1000
0000
,  // measure 75
0001
0001
0001
0000
,  // measure 76
1000
1000
1000
0000
,  // measure 77
0100
0100
0100
0000
,  // measure 78
0010
0010
0010
0000
,  // measure 79
0100
0100
0100
0000
,  // measure 80
0010
0010
0010
0000
,  // measure 81
0001
0000
0000
0000
,  // measure 82
0001
0001
0001
0000
,  // measure 83
0100
0000
0000
0000
,  // measure 84
0100
0100
0100
0000
,  // measure 85
0010
0000
0000
0000
,  // measure 86
0010
0010
0010
0000
,  // measure 87
1000
0000
0000
0000
,  // measure 88
1000
1000
1000
0000
,  // measure 89
0001
0000
0001
0000
,  // measure 90
1000
1000
1000
0000
,  // measure 91
1000
0000
0001
0000
,  // measure 92
0001
0001
0001
0000
,  // measure 93
0100
0000
0100
0000
,  // measure 94
0100
0100
0100
0000
,  // measure 95
0010
0000
0010
0000
,  // measure 96
0010
0010
0010
0000
,  // measure 97
1000
0000
0100
0000
,  // measure 98
0010
0000
0001
0000
,  // measure 99
0001
0000
0100
0000
,  // measure 100
0010
0000
1000
0000
,  // measure 101
1000
0000
0010
0000
,  // measure 102
0100
0000
0001
0000
,  // measure 103
0001
0010
0100
1000
,  // measure 104
0001
0000
1000
0000
;
