#TITLE:Xmix5 (Overcrush);
#SUBTITLE:;
#ARTIST:DJ Inhabit;
#TITLETRANSLIT:;
#SUBTITLETRANSLIT:;
#ARTISTTRANSLIT:;
#GENRE:;
#CREDIT:;
#BANNER:Xmix5 (Overcrush).png;
#BACKGROUND:Xmix5 (Overcrush)-bg.png;
#LYRICSPATH:;
#CDTITLE:;
#MUSIC:Xmix5 (Overcrush).ogg;
#OFFSET:0.000000;
#SAMPLESTART:39.700001;
#SAMPLELENGTH:15.000000;
#SELECTABLE:YES;
#DISPLAYBPM:70.000000:400.000000;
#BPMS:0.000000=150.000000
,64.000000=169.811005
,68.000000=85.005997
,84.000000=169.811005
,88.000000=316.135986
,120.000000=78.946999
,122.000000=315.789001
,138.000000=316.901001
,143.000000=321.428986
,144.000000=314.684998
,149.000000=157.994003
,177.000000=78.946999
,179.000000=315.963013
,243.000000=165.037003
,258.000000=164.994003
,353.000000=165.138000
,359.000000=400.000000
,375.000000=100.000000
,383.000000=200.000000
,413.000000=399.670990
,467.000000=400.000000
,469.000000=391.303986
,470.000000=400.000000
,474.000000=200.000000
,506.000000=400.000000
,570.000000=100.000000
,586.000000=109.947998
,600.000000=112.500000
,600.250000=114.990997
,607.750000=115.098999
,615.500000=120.000000
,627.500000=115.000000
,639.000000=107.142998
,639.500000=95.745003
,640.000000=93.750000
,640.500000=91.836998
,641.000000=78.946999
,641.500000=77.585999
,642.000000=75.000000
,642.500000=70.311996
,643.000000=70.009003
;
#STOPS:138.000000=0.567000,
143.000000=0.193000,
144.000000=0.187000,
413.000000=0.593000,
467.000000=0.153000,
469.000000=0.147000,
470.000000=0.147000,
593.000000=0.407000,
600.000000=0.547000,
607.750000=0.393000
;
#BGCHANGES:;
#KEYSOUNDS:;
#ATTACKS:;

//---------------dance-single - ----------------
#NOTES:
     dance-single:
     :
     Easy:
     10:
     0.358729,0.456378,0.127683,0.302656,0.037832,531.000000,504.000000,27.000000,64.000000,0.000000,0.000000,0.358729,0.456378,0.127683,0.302656,0.037832,531.000000,504.000000,27.000000,64.000000,0.000000,0.000000:
0000
0000
0000
0000
,
0000
0000
0000
0000
,
0000
0000
0000
0000
,
0000
0000
0000
0000
,
0000
0000
0000
0000
,
0001
1000
1100
0000
,
0001
0010
0001
0000
0100
0000
1000
0000
,
0010
0010
1001
0000
,
0010
0100
0010
0000
0100
0000
1000
0000
,
0001
1000
0101
0000
,
0010
1000
0100
0000
0001
0000
0010
0000
,
0100
0010
0110
0000
,
0010
0001
1000
0000
0010
0000
0100
0000
,
0001
0000
0000
0001
0000
0000
1000
0000
,
0000
1000
0000
0000
0010
0000
0000
0010
,
0000
0000
0100
0000
0000
0100
0100
0000
,
2002
0000
0000
3003
,
0200
0302
2003
3200
,
0320
0032
2003
3020
,
0230
0320
2030
3200
,
0320
0032
0203
0302
,
2000
0000
0000
3003
,
0000
1000
0001
0010
,
0100
1000
0001
0100
,
0010
1000
0010
0000
,
0001
0000
0010
0000
,
0100
1000
0010
0000
,
0100
0001
0020
0030
,
0002
0000
2003
0000
,
3002
0000
2003
0000
,
3100
0001
0100
0010
,
0100
0000
0001
0100
,
0010
0100
0001
0010
,
0001
0000
1000
0001
,
0010
0000
0100
0001
,
0000
2002
3003
0110
,
1001
0100
0100
0010
,
0010
1000
0100
0001
,
1000
0000
0110
0000
0001
1000
0010
0000
,
0000
0001
0100
1000
,
0001
0000
1001
0000
0100
0001
1000
0000
,
0000
0100
0001
0010
,
0100
0000
0101
0000
0010
0100
0001
0000
,
0000
0000
1000
0000
0010
0000
0001
0010
,
0001
0100
1000
0001
,
0010
0100
0010
0001
,
0100
1000
0010
0100
,
1000
0001
0010
0001
,
1000
0100
0010
0001
,
0100
0010
1000
0010
,
0100
0010
0001
0010
,
0100
0001
0010
0001
,
0000
1001
0000
0100
,
1000
0001
0100
0001
,
0010
0100
1000
0100
,
0010
0100
1000
0010
,
0100
0001
0000
2000
,
3000
0002
0003
2000
,
3000
0002
0003
0100
,
0010
0000
1000
0001
,
0010
1100
0000
0002
,
0000
0003
0000
0200
,
0000
0300
0000
2000
,
0000
3000
0000
0020
,
0000
0030
0000
1000
,
0001
1000
0001
0100
,
0010
0100
0010
1000
,
0100
0001
0100
1000
,
0100
0001
0100
0010
,
0001
0010
0001
0100
,
1000
0100
1000
0001
,
0100
1000
0100
0001
,
0100
1000
0100
0010
,
0010
0001
0001
1100
,
0000
1000
0001
0010
,
0010
1000
1000
0101
,
0000
0010
0100
1000
,
0010
0100
0001
1001
,
0000
0100
0100
0110
,
0000
1000
0001
0110
,
0000
0001
0010
1001
,
0000
0100
0010
1001
,
0000
0010
0001
1000
,
1000
0100
0010
0001
,
0001
0100
0010
1000
,
1000
0010
0100
0001
,
0001
0010
0100
0200
,
1000
0010
0301
0020
,
0001
0100
1030
0001
,
0001
1000
1000
0001
,
0000
0000
1000
0000
,
0000
2002
0000
3003
,
0010
0000
0100
0000
,
0010
0000
0000
0100
,
0000
0010
0000
1000
,
0000
0001
1001
0001
,
0001
1000
0000
1000
,
0001
0100
0100
0010
,
0010
0100
0000
0100
,
0001
1000
1000
0001
,
0100
0010
1000
0100
,
0010
1000
0001
0010
,
1000
0100
0001
1000
,
0100
1001
0000
0100
,
1000
0000
0000
0010
,
0000
0000
0001
0100
,
0000
0000
0010
0000
,
0001
1000
0000
0001
,
1000
0000
0000
0010
,
0100
0000
1000
0000
,
0100
0000
0001
0000
,
0000
0100
0000
0010
,
0100
0000
0000
1000
,
0000
0000
0001
0100
,
0000
0000
0100
0000
,
0000
0010
0000
0001
,
0100
0000
0000
0100
,
0000
0100
0100
0100
,
0000
0000
0100
0000
,
0010
0000
0100
1000
,
0100
0000
0001
0000
,
1000
0000
0001
0010
,
0001
0000
1000
0000
,
0001
0000
1000
0010
,
0100
0000
0001
0000
,
0100
0000
0001
1000
,
2002
3003
0001
0000
,
0000
0010
0100
0000
,
0000
1000
0000
0010
,
0000
0100
0001
0000
,
0100
0001
1000
0001
,
0010
0001
1000
0001
,
1000
0001
0001
1000
,
0010
0100
0001
0000
,
0100
0001
0100
0001
,
0010
0100
1000
0010
,
0100
0001
1000
0100
,
1000
0001
0010
0001
,
1000
0001
2000
0000
,
3200
0000
0302
0000
,
0203
0000
2300
0000
,
3020
0000
0032
0000
,
0023
0000
0000
0000
0000
0000
0000
0000
0230
0000
0000
0300
0002
0000
0000
0003
,
0200
0000
0000
0300
2000
0000
0000
3000
0200
0000
0000
0300
0002
0000
0000
0003
,
0020
0000
0000
0030
2000
0000
0000
3000
0020
0000
0000
0030
0002
0000
0000
0003
,
0200
0000
0000
0300
2000
0000
0000
3000
0200
0000
0000
0300
0002
0000
0000
0003
,
0020
0000
0000
0030
0002
0000
0000
0003
1000
0000
0000
0000
0001
0000
0000
0000
,
1000
1000
0001
1000
,
0001
0000
0000
0000
0001
1000
0000
0000
0000
0001
0000
0000
0000
1000
0000
0000
,
0000
1000
0000
0000
0000
0001
0000
0000
0000
1000
0000
0000
0000
0001
0000
0000
,
0000
1000
0000
0000
0000
0100
0000
0000
0000
0010
0000
0000
0000
0010
0000
0000
,
0000
0001
0000
0000
0000
0100
0000
0000
0000
0010
0000
0000
0000
0010
0000
0000
,
0000
1001
0000
0100
0000
0100
0000
0010
,
0000
1001
0000
0100
0000
0100
0000
0010
,
0000
0001
0000
0100
0000
0001
0000
0010
,
0000
0100
0000
0100
0000
1000
0000
0010
,
0000
1000
0000
0100
0000
0010
0000
0010
,
0000
0001
0100
0000
0010
1000
0000
0100
,
0010
0000
0001
1000
0000
0100
0010
0000
,
0001
0100
0000
0010
1000
0000
0100
0010
,
0000
0000
0000
0000
0100
0000
0000
0000
0000
0000
0000
0000
0010
0000
0000
0000
0000
0000
0000
0000
0100
0000
0000
0000
0000
0000
0000
1001
0000
0000
0000
0000
;

//---------------dance-single - ----------------
#NOTES:
     dance-single:
     :
     Medium:
     13:
     0.509381,0.684568,0.392507,0.222263,0.120590,754.000000,671.000000,83.000000,47.000000,0.000000,0.000000,0.509381,0.684568,0.392507,0.222263,0.120590,754.000000,671.000000,83.000000,47.000000,0.000000,0.000000:
0000
0000
0000
0000
,
0000
0000
0000
0000
,
0000
0000
0000
0000
,
0000
0000
0000
0000
,
0000
0000
0000
0000
,
0001
0001
0100
0000
0001
0010
0100
0000
,
1000
1000
0100
0000
1000
0010
0100
0000
,
0010
0010
0100
0000
0010
1000
0100
0000
,
0100
0100
0010
0000
0100
0010
0100
0000
,
0001
0001
0100
0000
0010
0001
0100
0000
,
1000
1000
0100
0000
0010
1000
0100
0000
,
0010
0010
1001
0000
0010
0100
0100
0000
,
0100
0100
1001
0000
0100
0010
0100
0000
,
0001
0000
0000
0001
0000
0000
0011
0000
0000
1000
0000
0000
1000
0000
0000
1100
,
0000
0000
0010
0000
0000
0010
0000
0000
0110
0000
0000
0100
0000
0000
0100
0000
,
0000
0110
0000
0000
0001
0000
0000
1000
0000
0000
0001
0000
1001
0000
0000
0000
,
2002
0000
0000
3003
,
0020
2030
3002
0023
,
0230
2300
3002
0103
,
2010
3100
0102
0013
,
2100
3001
0120
2030
,
0002
0000
0000
3003
,
0000
1000
0001
0100
,
0010
1000
0001
0010
,
0100
1000
0100
0000
,
0100
0001
0100
0000
,
0100
0010
0001
1000
,
0010
0100
0220
0330
,
0001
0000
0000
0000
0001
0000
1000
0000
0000
0000
1000
0000
,
0001
0000
0000
0000
0001
0000
1000
0000
0000
0000
0000
0000
,
0100
0000
0000
0000
0001
0001
0001
0000
0010
0000
0000
0000
0100
0000
0000
0000
,
1000
0010
0001
0010
,
1000
0001
0010
0001
,
1000
0010
0100
0001
,
1000
0100
0010
0001
,
1000
2002
3003
1100
,
0011
1000
0010
0001
,
0010
0000
1000
0000
0010
0000
0001
0100
,
1000
0000
0110
0000
0001
1000
0100
0000
,
0000
0000
0001
0000
0010
0000
1000
0100
,
0001
0000
1001
0000
0010
0001
1000
0000
,
0000
0000
0010
0000
0001
0000
0100
1000
,
0010
0000
0001
0010
0100
0010
0001
0000
,
0000
0000
1000
0100
0001
0000
0100
1000
,
0010
0100
0001
0000
1000
0000
0001
0000
,
0100
0000
0010
0000
0100
0001
0100
0000
,
0010
0000
1000
0000
0100
0010
0100
0000
,
1000
0001
0100
0001
,
1000
0010
0100
0001
,
0010
0000
0100
0000
1000
0100
1000
0000
,
0010
0000
0100
0000
0001
0100
0001
0000
,
0010
0001
0100
0001
,
1000
1001
0000
0010
,
1000
0000
0001
0010
0001
0010
0001
0000
,
0100
0000
0010
1000
0010
1000
0010
0000
,
0100
0010
1000
0100
,
0010
0001
0000
2000
,
3000
0002
0003
1000
,
0100
0001
0100
0010
,
0100
0000
1000
0001
,
0100
1010
0000
1010
,
0000
1001
0000
0000
0000
0000
0011
0000
,
0000
1001
0000
0000
0000
0000
1100
0000
,
0000
1001
0000
0000
0000
0000
0101
0000
,
0000
1001
0000
0000
0000
0000
0010
0000
,
0100
1000
0000
0100
0001
0000
0100
0000
,
1000
0010
0000
0001
0010
0000
0100
0000
,
1000
0100
0000
0001
0100
0000
0010
0000
,
1000
0010
0000
0001
0010
0000
0100
0000
,
0001
0010
0000
0001
0100
0000
0010
0000
,
1000
0100
0000
1000
0010
0000
0100
0000
,
0001
1000
0000
0010
0100
0001
2000
0000
,
0100
0000
0100
0000
3100
0000
0100
1000
,
0100
1000
0100
0010
0100
0010
0002
0000
,
1000
0000
1000
0000
1003
0000
1000
0010
,
1000
0010
0100
0010
0100
0010
0200
0000
,
0001
0000
0001
0000
0301
0000
0001
0100
,
0001
0100
0001
0010
0001
0010
0100
0000
,
1000
0001
1000
0020
,
1000
0100
1030
0200
,
0001
0010
0301
0020
,
0001
0100
0031
0200
,
1000
0010
1300
0021
,
0100
0001
0130
1200
,
0010
1000
0310
2100
,
0001
0100
3001
0102
,
1000
0100
1003
1001
,
0000
0101
0000
0000
0011
0000
1001
0000
,
0000
1010
0000
0000
1100
0000
1001
0000
,
0000
0110
0000
1000
0001
1000
0010
0000
,
0010
0000
1001
0000
,
0100
0100
0000
0000
,
0110
0000
0010
1000
,
0001
1000
0001
0100
,
0000
0000
0010
0000
0010
0000
0000
0000
0000
0110
0000
0000
1001
0000
0000
0000
,
0000
0000
0000
1001
0000
0000
0010
0000
0001
0000
1000
0000
0100
0000
0000
0000
0000
0000
1000
0000
0000
0000
0000
0000
,
1000
0000
0101
0000
1000
0100
0001
0000
,
1100
0000
1000
0100
0001
0000
0001
0000
,
0001
0000
1010
0000
0001
0100
1000
0000
,
0011
0000
0001
0100
1000
0000
0010
0000
,
0100
0000
0101
0000
1000
0010
0100
0000
,
1100
0000
0100
0010
1000
0000
0001
0000
,
1000
0001
0100
1001
,
1001
1001
0100
0010
,
0100
0000
0000
0010
,
0100
0001
0100
0010
,
0000
0000
1100
0000
,
0100
0010
0000
0010
,
1000
0000
0000
0010
,
0001
0000
1100
0000
,
1010
0000
0101
0000
,
0000
0010
0100
0010
,
0100
0000
0000
1000
,
0001
1000
0100
1000
,
0000
0000
0110
0000
,
0000
1010
0000
0100
,
0010
0000
0000
1001
,
0000
1001
1001
1001
,
0000
0000
0010
0102
,
0000
1000
0003
0000
0010
0000
0000
0100
,
0000
0000
0001
1000
0100
0000
0020
0000
,
0000
0001
0030
0000
0100
0100
0000
1000
,
0000
0001
0000
0000
0100
0000
2001
0000
,
0000
0010
3000
0000
1000
0001
0000
0100
,
0010
0100
0100
2001
,
0000
0000
0000
0010
0000
0000
3000
0000
0000
0000
0000
0000
1000
0000
0000
0000
0001
0000
0000
0000
0100
0000
0000
0000
,
0020
0030
1100
0000
,
0000
0001
0100
0000
,
0000
0010
0000
1000
,
0000
0001
0100
0000
,
0010
1000
0100
0010
,
0001
0100
0001
0000
,
1000
0010
0100
0010
,
1000
0100
0001
0000
,
0100
0000
1000
0001
1000
0000
0100
0000
,
0010
0001
0010
1000
,
0100
0001
0100
1000
,
0001
0100
1000
0100
,
0001
1000
1100
0000
,
0101
0000
0011
0000
,
0101
0000
1100
0000
,
1010
0000
0000
0000
0000
0000
0001
0000
0100
0000
0010
0000
,
1000
0000
0001
0000
0100
0000
0010
0000
0000
1010
0000
0000
,
0100
0011
1000
0101
,
0010
1100
0011
0100
,
1010
0001
1100
0010
,
0101
0000
1000
0000
0010
1000
0100
0010
,
0001
0000
0100
0001
0000
0000
0000
0000
1000
0000
0010
0000
0100
0000
0001
0000
,
0010
0000
0100
1000
0000
0001
0000
0100
0000
1000
0000
0100
0000
0010
0000
0001
,
1000
0000
0000
0000
0000
1000
0000
0001
0000
0010
0000
0100
0000
1000
0000
0010
,
0100
0001
0000
1000
0000
0200
0000
0300
0000
1000
0000
0001
0000
0010
0000
0010
,
0000
1000
0000
0001
0000
0200
0000
0300
0000
0010
0000
1000
0000
0100
0000
0100
,
0000
1000
1000
0000
0000
0000
0001
0000
0100
0000
0010
0000
1000
0000
0100
0000
,
0000
0010
0010
0000
0000
0000
0001
0000
1000
0000
0100
0000
0010
0000
0002
0000
,
0100
0103
0002
1000
1003
0002
0100
0103
,
0002
0010
0013
0002
0100
0103
0020
0001
,
0031
2000
0010
3010
0200
1000
1300
0001
,
0100
0010
1000
0100
0010
0001
1000
0100
,
1000
0001
0100
0010
1000
0100
0010
1000
,
0001
0010
0100
0001
1000
0100
0010
0010
,
0001
0000
0000
0000
0100
0000
0000
0000
1000
0000
0000
0000
0010
0000
0000
0000
0001
0000
0000
0000
0100
0000
0000
0000
1000
0000
0000
1001
0000
0000
0000
0000
;

//---------------dance-single - ----------------
#NOTES:
     dance-single:
     :
     Hard:
     15:
     0.748534,1.102915,0.496545,0.245908,0.532013,1108.000000,1003.000000,105.000000,52.000000,0.000000,0.000000,0.748534,1.102915,0.496545,0.245908,0.532013,1108.000000,1003.000000,105.000000,52.000000,0.000000,0.000000:
0000
0000
0000
0000
,
0000
0000
0000
0000
,
0000
0000
0000
0000
,
0000
0000
0000
0000
,
0000
0000
0000
0000
,
0001
0000
0010
0000
0100
0000
1000
0100
1000
0000
0010
0000
0100
0000
0000
0000
,
1000
0000
0010
0000
0100
0000
0001
0010
0001
0000
0010
0000
0100
0000
1000
0000
,
0100
0000
0010
0000
0100
0000
1000
0001
1000
0000
0010
0000
0100
0000
0000
0000
,
0100
0000
0010
0000
1000
0000
0001
0010
0001
0000
1000
0000
0001
0000
1000
0000
,
0100
0000
1000
0000
0010
0000
0001
0010
0001
0000
1000
0000
1010
0000
0000
0000
,
0001
0000
0100
0000
0010
0000
1000
0100
1000
0000
0001
0000
1000
0001
1000
0000
,
0010
0000
0010
0000
0001
0000
0100
0010
0100
0000
0100
0000
1001
0000
0000
0000
,
0010
0000
0100
0000
0001
0000
0010
0100
0010
0000
0100
0000
0100
0000
0000
0000
,
0011
0000
0000
1001
0000
0000
0110
0000
0000
1010
0000
0000
1100
0000
0000
1010
,
0000
0000
0110
0000
0000
0101
0000
0000
1001
0000
0000
1010
0000
0000
0110
0000
,
0000
0101
0000
0000
0110
0000
0000
1100
0000
0000
0110
0000
1001
0000
0000
0000
,
2002
0000
0000
3003
,
0020
0100
0032
0100
2003
0100
3020
0001
,
0230
1000
0302
0010
2003
0010
3100
0100
,
0012
1000
0103
0010
2100
0001
3010
0010
,
0102
0100
1003
1000
0120
0100
0031
0002
,
2000
0000
0000
3003
,
0000
1000
0001
0010
,
0100
0001
1000
0100
,
0001
1000
0010
0001
,
0100
0010
1000
0001
,
0010
0100
1000
0001
,
0100
0010
2002
3003
,
1000
0000
0000
0000
0010
0000
0100
0000
0000
0000
0100
0000
,
0001
0000
0000
0000
0001
0000
1000
0000
0000
0000
0000
0000
,
0010
0000
0000
0000
1000
1000
1000
0000
0200
0000
0010
0000
0300
0000
0002
0000
,
0100
0003
0010
0000
2000
0100
3000
0020
,
0001
0030
0100
0000
0020
1000
0030
0200
,
0010
0300
0001
0000
0200
0010
0300
2000
,
0100
3000
0010
0000
0100
0000
1000
0000
,
0001
2000
0200
0000
3300
0000
1010
0000
,
0101
0001
0100
1000
,
0100
0000
0001
0000
0100
0000
1000
0010
,
0001
0000
0000
0000
0110
0000
0000
0000
1000
0001
0000
0100
0010
0000
0000
0000
,
0000
0000
1000
0000
0100
0000
0001
0010
,
1000
0000
0000
0000
1001
0000
0000
0000
0010
0100
0000
1000
0001
0000
0000
0001
,
0000
0001
0100
0000
1000
0000
0010
0001
,
0100
0000
0000
0000
1000
0100
0000
0010
0000
0001
0100
0010
1000
0000
0000
0000
,
0000
0000
0000
0000
0000
0000
0000
0000
0000
0000
0000
0000
1000
0000
0000
0100
0000
0000
0010
0000
0000
0001
0000
0000
1000
0000
0000
0000
0100
0000
0000
0000
0010
0000
0000
0000
0001
0000
0000
0000
0000
0000
0100
0000
0000
0000
0000
0000
,
0010
1000
0001
0010
,
1000
0000
0001
0010
0100
1000
0010
0000
,
1000
0000
0001
0010
0100
1000
0010
0000
,
1000
0000
0001
0010
0100
1000
0001
0100
,
0001
0100
1000
0100
1000
0100
0001
0000
,
0010
0000
0100
1000
0001
0100
0001
0000
,
0010
0000
0100
1000
0001
0100
1000
0100
,
1000
0100
0001
0010
0001
0010
0001
0000
,
0000
1100
0000
0010
,
0100
0000
1000
0010
0100
0001
0010
0000
,
0100
0000
1000
0010
0100
0001
0010
0100
,
0010
0100
1000
0001
1000
0001
0010
0001
,
0100
0000
0000
0010
0000
0000
1000
0000
0000
0100
0000
0000
0010
0000
0000
0001
0000
0000
1000
0000
0000
0000
0100
0000
,
0000
1000
0000
0001
0000
0100
0000
0001
0000
1000
0000
0010
,
0000
0100
0000
0001
0000
0010
0000
0100
0000
1001
0000
0000
,
0110
0000
0001
1000
,
0010
0000
0000
0000
0101
0000
0000
0000
0000
0000
0000
0000
1000
0001
1000
0001
,
1000
0001
1000
0001
1000
0001
1000
0001
1000
0001
1000
0001
1000
0000
0010
0000
,
0100
0001
1000
0100
0010
0001
1000
0100
,
0010
0001
1000
0010
0100
0001
1000
0100
,
0010
0000
1000
0000
0001
0000
1000
0000
0001
0000
0000
0000
1000
0010
1000
0010
,
1000
0010
1000
0010
1000
0010
1000
0010
1000
0010
1000
0010
0100
0000
0001
0000
,
0100
0000
0001
0000
1000
0000
0001
0000
1000
0000
0001
0000
0010
0001
0010
0001
,
0010
0001
0010
0001
0010
0001
0010
0001
0010
0001
0010
0001
1000
0000
0100
0000
,
1000
0000
0100
0000
1000
0000
0001
0000
1000
0000
0001
0000
0100
0001
0100
0001
,
0100
0001
0100
0001
0100
0001
0100
0001
0100
0001
0100
0001
1000
0000
0010
0000
,
1000
0000
0010
0000
1000
0000
0100
0000
1000
0000
0100
0000
1000
0001
1000
0001
,
1000
0001
1000
0001
1000
0001
1000
0001
1000
0001
1000
0001
0100
0000
0010
0000
,
1000
0000
0001
0000
0100
0000
0010
0000
1000
0000
0001
0000
0100
0010
0100
0010
,
0100
0010
0100
0010
1000
0010
1000
0010
1000
0010
1000
0001
1000
0000
0100
0000
,
1000
0000
0010
0000
0100
0000
0001
0000
1000
0000
0100
0000
0010
0100
0010
0100
,
0010
0100
0010
0100
1000
0100
1000
0100
1000
0100
1000
0001
1000
0000
0100
0000
,
0010
0000
0001
0000
1000
0000
0010
0000
0100
0000
0001
0000
0010
0001
0010
0001
,
0010
0001
0010
0001
1000
0001
1000
0001
1000
0001
1000
0010
1000
0000
0001
0000
,
0100
0010
1000
0001
1000
0001
2001
0000
,
0100
0000
0000
0000
0001
0000
0000
0000
3100
0000
0000
0000
1001
0000
0000
1000
,
0100
0000
0000
0100
0010
0000
0000
0010
0001
0000
0000
0000
1002
0000
0000
0000
,
0100
0000
0000
0000
1000
0000
0000
0000
0103
0000
0000
0000
1001
0000
0000
1000
,
0010
0000
0000
0010
0100
0000
0000
0100
0001
0000
0000
0000
1001
0000
0000
0100
,
0001
0000
0000
0010
0100
0000
0000
1000
0010
0000
0000
0000
1001
0000
0000
0001
,
0010
0000
0000
0010
0001
0000
0000
1000
0100
0000
1000
0000
0011
0000
0000
0100
,
1000
0000
0000
0010
0100
0000
0000
0001
0010
0000
0000
0000
1001
0000
0000
1000
,
0010
0000
0000
0010
1000
0000
0000
0001
0100
0000
0001
0000
1010
0000
0000
0100
,
0001
0000
0000
1000
0100
0000
0000
1000
0001
0000
0000
0000
0011
0000
0000
0100
,
1000
0000
0000
0001
0100
0000
0000
0001
1000
0000
0000
0000
1010
0000
0000
0010
,
0100
0000
0000
0100
0001
0000
1000
0001
1000
0001
1000
0000
0001
0000
1000
0000
,
0001
0000
1001
0000
,
0100
0010
0200
0000
0000
0000
0000
0000
,
0010
0000
0010
0302
,
0023
0000
0230
0000
2300
0000
3001
0010
,
0001
0000
1100
0000
1100
0000
0001
0000
0000
0110
0000
0000
1100
0000
0011
0000
,
0100
0000
0000
0010
0000
0000
0110
0000
1001
0000
1001
0000
0110
0000
0000
0000
0000
0000
0001
0000
0000
0100
0000
0000
,
1000
0100
0001
0000
1000
0010
0001
0010
,
1000
0000
0001
0100
1000
0020
0100
0030
,
1000
0100
0001
0000
0010
0001
0100
0001
,
0010
0000
1000
0010
0001
0200
1000
0300
,
0001
0010
1000
0000
0010
0001
1000
0001
,
0010
0000
0001
0200
1000
0300
0001
1001
,
0000
1100
0000
0011
0000
0110
1001
0000
,
0110
1001
0010
0100
,
0202
0000
0303
1000
,
1000
0001
0001
0220
,
0000
0330
1000
0000
,
0001
1010
0000
0010
,
0101
0000
0000
0011
,
1100
0000
0110
0000
,
1001
0000
0202
0000
,
0303
0010
0010
0100
,
2002
0000
3003
0001
,
0001
0010
0010
2200
,
0000
3300
0010
0000
,
0000
0110
0000
1002
,
1003
0000
0000
1100
,
0000
0011
1001
0110
,
0000
0000
0110
0110
,
0000
1100
1000
0000
0011
0010
0000
1000
,
0001
0000
0001
1000
1001
0000
0110
0000
,
0000
1001
0000
0000
0100
0100
0000
1200
,
0000
0301
0000
0000
0110
0000
1001
0000
,
0010
0100
0010
0000
1000
1010
0000
0001
,
0011
0101
1100
0011
,
0010
0000
0000
0001
0000
0000
0100
0000
0000
0000
0000
0000
1000
0000
0100
0000
0001
0000
1000
0000
0010
0000
0001
0000
,
0200
0301
0110
0000
,
0000
1000
1001
0000
,
0000
0011
0000
1100
,
0000
1000
1001
0000
,
1000
0001
0100
0010
,
1000
0001
0010
0100
,
1000
0000
0010
0100
0001
0000
1000
0000
,
0010
0100
0001
1000
,
0001
1000
0001
1000
0001
0000
0100
0000
,
0010
1000
0100
0010
,
0001
1000
0010
0100
,
0001
1000
0100
0010
,
0001
0000
0000
1000
0000
0000
0010
0000
0100
0000
0001
0000
,
1000
0000
0100
0000
0010
0000
0001
0000
1000
0000
0010
0000
,
0100
0000
0001
0000
0010
0000
0100
0000
1000
0000
0001
0000
,
0100
0000
0010
0000
1000
0000
0001
0000
0010
0000
0100
0000
,
1000
0000
0001
0000
0100
0000
0020
0000
0000
1000
0000
0000
,
0001
0000
1030
0100
0201
0000
1000
0000
,
0001
0000
0000
0000
1300
0000
0001
0000
0010
0001
1000
0001
0000
1001
0000
1000
,
0100
0010
0100
1000
0001
0010
0100
0000
0001
0010
0001
1000
0000
1001
0000
0001
,
0100
0010
0100
0001
1000
0010
0100
0000
1000
0000
0001
0100
1000
0000
0001
0100
,
0001
0000
1000
0100
0000
0000
0000
0000
0001
0000
1000
0010
0001
0000
1000
0010
,
1000
0000
0001
0010
0000
0100
0000
1000
0010
0100
0000
0001
0010
0100
0000
1000
,
0001
0000
0000
0000
0000
0010
0000
1000
0100
0010
0000
0001
0100
0010
0000
1000
,
0001
0010
0000
0100
1000
0010
0000
0000
0000
0100
0010
0100
0000
0001
0000
1000
,
0000
0001
0000
0010
0100
1000
0000
0000
0000
0001
0100
0010
0000
1000
0000
0001
,
0000
0010
0100
0000
0000
0000
1000
0010
0100
0000
0010
0000
1000
0000
0100
0000
,
0000
0010
0100
0000
0000
0000
1000
0001
1000
0000
0100
0000
0010
0000
0001
0000
,
0100
0010
0100
0000
0001
1000
0001
0000
0100
0000
0001
0000
1000
0100
1000
0000
,
0001
0010
0001
0000
0100
0000
0010
0000
1000
0001
1000
0000
0010
0100
0010
0000
,
1000
0000
0001
0000
0010
0100
0010
0000
0001
1000
0001
0000
0100
0000
0010
1000
,
0100
0010
0001
0000
0100
0010
0100
0000
0010
0000
1000
0000
0100
1000
0100
0000
,
0010
0000
0001
0010
0001
0000
0100
0010
1000
0100
0010
0000
0001
1000
0001
0000
,
0100
0000
0010
0000
1000
0100
1000
0000
0010
0000
0100
0001
0100
0000
0010
0000
,
1100
0000
0000
0000
0010
0000
0000
0000
0101
0000
0000
0000
1000
0000
0000
0000
0110
0000
0000
0000
0001
0000
0000
0000
0110
0000
0000
1001
0000
0000
0000
0000
;

//---------------dance-double - ----------------
#NOTES:
     dance-double:
     :
     Easy:
     11:
     0.340488,0.494410,0.122954,0.108767,0.037832,504.000000,478.000000,26.000000,23.000000,0.000000,0.000000,0.340488,0.494410,0.122954,0.108767,0.037832,504.000000,478.000000,26.000000,23.000000,0.000000,0.000000:
00000000
00000000
00000000
00000000
,
00000000
00000000
00000000
00000000
,
00000000
00000000
00000000
00000000
,
00000000
00000000
00000000
00000000
,
00000000
00000000
00000000
00000000
,
10000000
00010000
00010000
00100000
,
00001000
00000100
00000100
00000001
,
00001000
00000010
00000010
00010000
,
00001000
01000000
01000000
00100000
,
01000000
10000000
10000000
01000000
,
00010000
00100000
00100000
00001000
,
00010000
00000100
00000100
00000010
,
00000001
00000100
00000100
00001000
,
00010000
00000000
00000000
00100000
00000000
00000000
00010000
00000000
,
00000000
00100000
00000000
00000000
00010000
00000000
00000000
00001000
,
00000000
00000000
00000010
00000000
00000000
00001000
00001000
00000000
,
00022000
00000000
00000000
00033000
,
00100000
00010000
00001000
00000100
,
00001000
00010000
01000000
00001000
,
00000100
00000001
00001000
00010000
,
01000000
10000000
00100000
00010000
,
00022000
00000000
00000000
00033000
,
00000000
00100000
00100000
00010000
,
01000000
00001000
00010000
00000000
,
00000100
00000010
00000001
00000000
,
00001000
00000000
00000010
00000000
,
00000100
00001000
00010000
00000000
,
00001000
00010000
02000000
03000000
,
20000000
00000000
30200000
00000000
,
20300000
00000000
32000000
00000000
,
03010000
00001000
00100000
01000000
,
00100000
00000000
10000000
00100000
,
10000000
00000000
00010000
01000000
,
00010000
00000000
00001000
00010000
,
00001000
00000000
00000010
00000001
,
00000000
00002002
00003003
00001010
,
00000101
00001000
00001000
00010000
,
00010000
00000000
01000000
00000000
00000000
01000000
10000000
00000000
,
00000000
10000000
00010000
00000000
01000000
00001000
00100000
00000000
,
00000000
00000000
00010000
00000000
00000000
00010000
00001000
00000000
,
00000000
00001000
00000010
00000000
00000001
00000100
00001000
00000000
,
00000000
00000000
00010000
00000000
00000000
00010000
00001000
00000000
,
00000000
00001000
00100000
00000000
00010000
10000000
00100000
00000000
,
00000000
00000000
00010000
00000000
00000000
00010000
01000000
00000000
,
00000000
01000000
00100000
00000000
00010000
00000000
00000010
00000000
,
00001000
00000100
00000000
00000010
,
00000001
00000100
00000000
00000010
,
00001000
00010000
01000000
00100000
,
01000000
00010000
00000000
00100000
,
01000000
10000000
00000000
00010000
,
10000000
01000000
00000000
00100000
,
01000000
00001000
00010000
00000100
,
00000000
00001001
00000000
00000010
,
00000001
00000010
00000001
00000100
,
00000001
00000100
00000001
00001000
,
00000100
00010000
00001000
00100000
,
00010000
10000000
00000000
00020000
,
00030000
20000000
30000000
00020000
,
00030000
20000000
30000000
00100000
,
01000000
00000000
00010000
00001000
,
00010000
00011000
00000000
00000002
,
00000000
00000003
00000000
00000200
,
00000000
00000300
00000000
00002000
,
00000000
00003000
00000000
00020000
,
00000000
00030000
00000000
00100000
,
10000000
00100000
00000000
01000000
,
10000000
00010000
01000000
00100000
,
00010000
00100000
00000000
00001000
,
00100000
00010000
00001000
00000100
,
00000001
00000100
00000000
00000010
,
00001000
00000001
00000100
00001000
,
00010000
00001000
00000000
00000010
,
00000010
00000010
00000001
00000100
,
00010000
00001000
00100000
00010000
,
00001000
00010000
10000000
01000000
,
00010000
00100000
00001000
00010000
,
00010000
00010000
01000000
10000000
,
00010000
00100000
10000000
01000000
,
01000000
00100000
00100000
01100000
,
00000000
00010000
10000000
01100000
,
00000000
00010000
00001000
00011000
,
00000000
00000010
00001000
00000101
,
00000000
00001000
00010000
00011000
,
00000000
00001000
00000001
00000110
,
00000000
00000010
00000001
00001100
,
00000000
00000001
00001000
00001001
,
00000000
00001000
00000010
00000100
,
00010000
00010000
00001000
00001000
,
00100000
00100000
00010000
00010000
,
01000000
00100000
10000000
10010000
,
00000000
00000000
00000000
00000000
,
00000000
00000000
00000000
00011000
,
00000000
00000000
00000000
00000100
,
00000000
00001000
00000000
00010000
,
00100000
10000000
01000000
00010000
,
00001000
00000100
00000001
00000100
,
00000000
00001001
00000000
00000001
,
00000000
00001000
00000000
00010000
,
00000000
00011000
00000000
00001000
,
00000000
00010000
00000000
10000000
,
00000000
01100000
00000000
00010000
,
00000000
00000010
00000000
00001000
,
00001000
00001000
00001000
00010000
,
00010000
00001000
00000000
00000000
,
00100000
00000000
00000000
10000000
,
00000000
00000000
00010000
00000000
,
00000000
00000000
00100000
00000000
,
00000000
00001000
00000000
00010000
,
00000000
00000000
00000000
00000010
,
00000000
00000000
00001000
00000000
,
00000100
00000000
00000001
00000000
,
00000000
00000100
00000000
00000000
,
00000010
00000000
00000000
00000100
,
00000000
00000000
00010000
00000000
,
00000000
00000000
00001000
00000000
,
00000000
00100000
00000000
00010000
,
00000000
00000000
00000000
01000000
,
00000000
00001000
00010000
00001000
,
00000000
00000000
00000100
00000000
,
00000010
00000000
00000100
00000010
,
00000100
00000000
00000001
00000000
,
00001000
00000000
00000001
00001000
,
00000001
00000000
00000010
00000000
,
00010000
00000000
00001000
01000000
,
00001000
00000000
00100000
00000000
,
01000000
00000000
00100000
01000000
,
02200000
03300000
00100000
00000000
,
00000000
00000000
01000000
00000000
,
00000000
00000000
10000000
00000000
,
00010000
00000000
00100000
00000000
,
01000000
00000000
00100000
10000000
,
00100000
00010000
01000000
00001000
,
00010000
00000100
00001000
00000010
,
00000100
00001000
00000100
00000000
,
00000001
00000000
00000010
00000001
,
00000010
00000000
00000100
00001000
,
00000100
00000000
00010000
00000010
,
00010000
00000000
00001000
01000000
,
00001000
00000000
00100000
00010000
,
10000000
01000000
00010000
00001000
,
00000100
00000001
00001000
00000001
,
00000100
00001000
00010000
01000000
,
10000000
00010000
20010000
01000000
,
00010000
31000000
00002000
01000000
,
00010000
00000000
01003000
00000000
00001000
00010000
00001000
00000000
,
00000100
00000001
00000010
00000000
00001000
00010000
00001000
00000000
,
00100000
01000000
10000000
00000000
01000000
00000000
00010000
00000000
,
00001000
00000100
00000001
00001000
,
00000100
00000000
00000000
00000000
00011000
00100000
00000000
00000000
00000000
00010000
00000000
00000000
00000000
10000000
00000000
00000000
,
00000000
10000000
00000000
00000000
00000000
00010000
00000000
00000000
00000000
01000000
00000000
00000000
00000000
00001000
00000000
00000000
,
00000000
00010000
00000000
00000000
00000000
00000010
00000000
00000000
00000000
00000100
00000000
00000000
00000000
00000001
00000000
00000000
,
00000000
00001000
00000000
00000000
00000000
00000100
00000000
00000000
00000000
00010000
00000000
00000000
00000000
00001000
00000000
00000000
,
00000000
00110000
00000000
10000000
00000000
01000000
00000000
00100000
,
00000000
00011000
00000000
00000010
00000000
00000001
00000000
00000100
,
00000000
00000010
00000000
00000010
00000000
00010000
00000000
00001000
,
00000000
00001000
00000000
00100000
00000000
00010000
00000000
00010000
,
00000000
10000000
00000000
01000000
00000000
01000000
00000000
00100000
,
00000000
00010000
01000000
00000000
00100000
10000000
00000000
01000000
,
00010000
00000000
00001000
00000100
00000000
00000001
00000010
00000000
,
00000100
00010000
00000000
00001000
00100000
00000000
00010000
01000000
,
00000000
00000000
00000000
00000000
00100000
00000000
00000000
00000000
00000000
00000000
00000000
00000000
10000000
00000000
00000000
00000000
00000000
00000000
00000000
00000000
01000000
00000000
00000000
00000000
00000000
00000000
00000000
10010000
00000000
00000000
00000000
00000000
;

//---------------dance-double - ----------------
#NOTES:
     dance-double:
     :
     Medium:
     15:
     0.478981,0.684568,0.241179,0.141870,0.115861,709.000000,658.000000,51.000000,30.000000,0.000000,0.000000,0.478981,0.684568,0.241179,0.141870,0.115861,709.000000,658.000000,51.000000,30.000000,0.000000,0.000000:
00000000
00000000
00000000
00000000
,
00000000
00000000
00000000
00000000
,
00000000
00000000
00000000
00000000
,
00000000
00000000
00000000
00000000
,
00000000
00000000
00000000
00000000
,
00000001
00000100
00000010
00000000
00001000
00000000
00000100
00000000
,
00010000
00001000
00000100
00000000
00001000
00000000
00100000
00000000
,
00010000
10000000
01000000
00000000
00100000
00000000
00010000
00000000
,
01000000
00100000
10000000
00000000
01000000
00000000
00010000
00000000
,
00001000
00010000
00001000
00000000
00000100
00000000
00000100
00000000
,
00000001
00000010
00001000
00000000
00000010
00000000
00000010
00000000
,
00000001
00001000
00010000
00000000
01000000
00000000
01000000
00000000
,
00001000
00100000
10000000
00000000
00100000
00000000
01000000
00000000
,
10000000
00000000
00000000
00100000
00000000
00000000
01000000
00000000
00000000
00010000
00000000
00000000
00100000
00000000
00000000
00001000
,
00000000
00000000
00010000
00000000
00000000
00000100
00000000
00000000
00001000
00000000
00000000
00000010
00000000
00000000
00000100
00000000
,
00000000
00000001
00000000
00000000
00000010
00000000
00000000
00000100
00000000
00000000
00010000
00000000
00001000
00000000
00000000
00000000
,
20020000
00000000
00000000
30030000
,
01000000
00000000
00010000
00000000
00001000
00000010
00000001
00000100
,
00001000
00000000
00010000
00000000
00100000
00010000
00001000
00000000
,
00000010
00000000
00000001
00000000
00001000
00010000
01000000
10000000
,
00100000
00000000
00010000
00000000
00000010
00010000
00100000
00001000
,
00022000
00000000
00000000
00033000
,
00000000
00001000
00010000
01000000
,
00001000
00010000
00000010
00001000
,
00000001
00000010
00000100
00000000
,
00001000
00000010
00000100
00000000
,
00000010
00010000
00001000
00100000
,
01000000
10000000
02200000
03300000
,
00010000
00000000
00000000
00000000
00010000
00000000
10000000
00000000
00000000
00000000
10000000
00000000
,
00010000
00000000
00000000
00000000
00010000
00000000
10000000
00000000
00000000
00000000
00000000
00000000
,
00100000
00000000
00000000
00000000
01000000
01000000
01000000
00000000
10000000
00000000
00000000
00000000
00000000
00000000
00100000
00000000
,
00000000
00000000
00010000
00001000
00010000
00000000
00000000
00000100
,
00000000
00000000
00001000
00000000
00000001
00000000
00000000
00000100
,
00000000
00000000
00000010
00000100
00000010
00000000
00000000
00001000
,
00000000
00000100
00010000
00001000
,
00010000
00022000
00033000
00110000
,
11000000
00010000
01000000
10000000
,
01000000
00000000
00010000
00000000
00100000
00001000
00010000
00000000
,
00000100
00001000
00000010
00000000
00001000
00000000
00000001
00000000
,
00000000
00000000
00000100
00000000
00000001
00000010
00001000
00000000
,
00010000
00100000
10000000
00000000
00010000
00000000
10010000
00000000
,
00000000
00000000
01000000
00000000
10000000
00010000
00100000
00000000
,
00001000
00010000
00000010
00000000
00000100
00000000
00000001
00000000
,
00000000
00000000
00000001
00000010
00001000
00000000
00000010
00000001
,
00000100
00000010
00001000
00000000
00010000
00000000
00100000
00000000
,
00010000
00000000
10000000
00000000
00100000
01000000
00100000
00000000
,
00010000
00000000
00001000
00000000
00000010
00000001
00000010
00000000
,
00001000
00000010
00000100
00001000
,
00010000
01000000
10000000
00100000
,
01000000
00000000
00001000
00000000
00010000
00000010
00010000
00000000
,
00000100
00000000
00000010
00000000
00000001
00000100
00000001
00000000
,
00000010
00000100
00010000
00001000
,
00100000
10010000
00000000
01000000
,
00010000
00000000
00001000
00000000
00000100
00000010
00000100
00000000
,
00000001
00000000
00001000
00000000
00000100
00010000
00000100
00000000
,
00001000
00010000
01000000
00100000
,
10000000
00010000
00100000
02000000
,
00000000
00200000
03300000
00020000
,
00030000
00002000
00003000
00000100
,
00000010
00000000
00000001
00001000
,
00000010
00000101
00000000
00001001
,
00000000
00001001
00000000
00000000
00000000
00000000
00000101
00000000
,
00000000
00000101
00000000
00000000
00000000
00000000
00001010
00000000
,
00000000
00001010
00000000
00000000
00000000
00000000
00011000
00000000
,
00000000
00011000
00000000
00000000
00000000
00000000
10000000
00000000
,
00000000
01000000
00000000
01000000
00100000
00000000
00010000
00000000
,
00000000
01000000
00000000
01000000
00100000
00000000
00010000
00000000
,
00000000
00001000
00000000
00001000
00000100
00000000
00000001
00000000
,
00000000
00000010
00000000
00000010
00001000
00000000
00010000
00000000
,
00000000
01000000
00000000
01000000
00100000
00000000
00010000
00000000
,
00000000
10000000
00000000
10000000
00100000
00000000
01000000
00000000
,
00100000
10000000
00000000
10000000
00010000
01000000
00100000
00000000
,
00100000
00010000
00000000
00010000
00001000
00000000
00000100
00000000
,
00000100
00000001
00000000
00000001
00000010
00000000
00000100
00000000
,
00000100
00001000
00000000
00001000
00000010
00000000
00000100
00000000
,
00000100
00001000
00000000
00001000
00010000
00000000
00001000
00000000
,
00100000
00010000
00000000
00010000
01000000
00000000
00100000
00000000
,
10000000
01000000
00000000
01000000
00100000
00000000
00010000
00000000
,
00010000
00100000
00000000
00100000
00001000
00010000
00002000
00000000
,
00010000
00010000
00013000
00001000
,
00000100
00000001
00000010
00000200
,
00001000
00001000
00001300
00000100
,
00010000
00001000
01000000
00200000
,
10000000
10000000
10300000
01000000
,
00010000
00100000
01000000
20000000
,
00010000
00010000
30010000
00100000
,
00001000
00010000
00000010
00000200
,
00000001
00000001
00000301
00001000
,
00000100
00002100
00003100
00020000
,
00001000
00000000
00031000
00010000
00001000
00010000
00001000
00000000
,
00100000
00001000
00100000
00000000
,
00010000
01000000
00000000
00000000
,
01100000
00000000
00100000
10000000
,
00010000
10000000
00010000
01000000
,
00000000
00000000
00010000
00000000
00001000
00000000
00000000
00000000
00000000
00000100
00000000
00000000
00011000
00000000
00000000
00000000
,
00000000
00000000
00000000
00001001
00000000
00000000
00000010
00000000
00000001
00000000
00000100
00000000
00001000
00000000
00000000
00000000
00000000
00000000
10000000
00000000
00000000
00000000
00000000
00000000
,
10000000
00000000
01010000
00000000
00100000
00000000
00001000
00010000
,
00001000
00000100
00000110
00000001
,
00000001
00000000
00001010
00000000
00000100
00000000
00000010
00010000
,
00000010
00000000
00001000
00000100
00001000
00000100
00010000
00000000
,
00101000
00000000
00010000
01000000
10000000
00000000
00100000
00000000
,
10010000
00000000
01000000
00100000
10000000
00000000
01000000
00010000
,
00000000
00001000
00000000
00000010
00000000
00000001
00001000
00000000
,
00001100
00100000
00010000
00100000
,
00001000
00000000
00000000
00010000
,
01000000
10000000
01000000
00010000
,
00000000
00000000
00001100
00000000
,
00000010
00000001
00000000
00000010
,
00001000
00000000
00000000
00010000
,
00001000
00000000
01000000
00000000
,
00001000
00000000
00011000
00000000
,
00000000
00000010
00000001
00000100
,
00001000
00000000
00000000
00001000
,
00010000
00001000
00010000
01000000
,
00000000
00000000
01100000
00000000
,
00000000
10010000
00000000
00100000
,
00001000
00000000
00000000
00011000
,
00000000
00010000
00001000
00001001
,
00000000
00000000
00000010
00020000
,
00000000
00001000
00030000
00000000
00100000
00000000
00000000
10000000
,
00000000
00000000
01000000
00010000
01000000
00000000
00200000
00000000
,
00000000
00010000
00300000
00000000
00001000
00001000
00000000
00010000
,
00000000
00000100
00000000
00000000
00000010
00000000
00001002
00000000
,
00000000
00000010
00000003
00000000
00001000
00010000
00000000
00001000
,
00010000
00010000
00100000
20010000
,
00000000
00000000
00000000
00100000
00000000
00000000
30000000
00000000
00000000
00000000
00000000
00000000
10000000
00000000
00000000
00000000
01000000
00000000
00000000
00000000
00010000
00000000
00000000
00000000
,
02000000
03000000
00011000
00000000
,
00000000
00000010
00001000
00000000
,
00000000
00000001
00000000
00000100
,
00000000
00000010
00001000
00000000
,
00000100
00001000
00000100
00000010
,
00000001
00000100
00001000
00010000
,
00100000
10000000
01000000
00100000
,
00010000
10000000
00010000
00000000
,
01000000
00100000
01000000
00100000
01000000
00000000
00010000
00000000
,
10000000
01000000
00100000
00001000
,
00010000
00000010
00001000
00000100
,
00000010
00000001
00001000
00000001
,
00000100
00000010
00002000
00000000
,
00003200
00000000
00020300
00000000
,
00032000
00000000
02003000
00000000
,
03200000
00000000
00000000
00000000
00000000
00000000
10300000
00000000
01000000
00000000
00100000
00000000
,
00010000
00000000
01000000
00000000
00100000
00000000
10000000
00000000
00000000
10100000
00000000
00000000
,
00010000
00001100
00000001
00000110
,
00001000
01010000
00110000
00011000
,
00001100
00000011
00000101
00001010
,
00011000
00000000
00110000
00000000
00100000
00010000
01000000
00100000
,
10000000
00000000
01000000
00100000
00000000
00000000
00000000
00000000
00010000
00000000
10000000
00000000
01000000
00000000
00010000
00000000
,
00001000
00000000
00000100
00000001
00000000
00001000
00000000
00000100
00000000
00010000
00000000
00001000
00000000
00100000
00000000
00010000
,
01000000
00000000
00000000
00000000
00000000
00001000
00000000
00010000
00000000
00000010
00000000
00001000
00000000
00000001
00000000
00000010
,
00000100
00001000
00000000
00000001
00000000
00001000
00000000
00000000
00000000
00000010
00000000
00000100
00000000
00001000
00000000
00010000
,
00000000
00100000
00000000
01000000
00000000
00100000
00000000
00000000
00000000
10000000
00000000
01000000
00000000
00010000
00000000
00001000
,
00000000
00001010
00000000
00000001
00000010
00000100
00001000
00000000
,
00000000
00011000
00000000
00100000
00010000
01000000
00100000
10000000
,
01000000
00010000
00001000
00000100
00000001
00000001
00000100
00001000
,
00010000
01000000
10000000
10000000
01000000
00010000
00001000
00000100
,
00000001
00000001
00000100
00001000
00010000
01000000
10000000
10000000
,
00100000
00010000
00001000
00000100
00000001
00000001
00000010
00001000
,
00010000
01000000
10000000
10000000
00100000
00010000
00001000
00000010
,
00000001
00000001
00000010
00001000
00010000
00100000
10000000
01000000
,
00100000
00000000
00000000
00000000
00001000
00000000
00000000
00000000
00010000
00000000
00000000
00000000
00000010
00000000
00000000
00000000
00001000
00000000
00000000
00000000
00000001
00000000
00000000
00000000
00000100
00000000
00000000
00001001
00000000
00000000
00000000
00000000
;

//---------------dance-double - ----------------
#NOTES:
     dance-double:
     :
     Hard:
     18:
     0.668816,0.988820,0.373591,0.208076,0.245908,990.000000,911.000000,79.000000,44.000000,0.000000,0.000000,0.668816,0.988820,0.373591,0.208076,0.245908,990.000000,911.000000,79.000000,44.000000,0.000000,0.000000:
00000000
00000000
00000000
00000000
,
00000000
00000000
00000000
00000000
,
00000000
00000000
00000000
00000000
,
00000000
00000000
00000000
00000000
,
00000000
00000000
00000000
00000000
,
00000100
00000000
00010000
00000000
00001000
00000000
00010000
00001000
00010000
00000000
00100000
00000000
01000000
00000000
00000000
00000000
,
00010000
00000000
00100000
00000000
01000000
00000000
10000000
00100000
10000000
00000000
00010000
00000000
01000000
00000000
00000000
00000000
,
00001000
00000000
00100000
00000000
00010000
00000000
01000000
00001000
01000000
00000000
00001000
00000000
00010000
00000000
00000000
00000000
,
00000100
00000000
00000010
00000000
00000001
00000000
00001000
00000010
00001000
00000000
00000100
00000000
00010000
00000000
00000000
00000000
,
01000000
00000000
10000000
00000000
00100000
00000000
00010000
00100000
00010000
00000000
00001000
00000000
00100000
00000000
00000000
00000000
,
00010000
00000000
00000100
00000000
00000010
00000000
00000001
00000100
00000001
00000000
00001000
00000000
00000100
00000000
00000000
00000000
,
00010000
00000000
00100000
00000000
10000000
00000000
01000000
00100000
01000000
00000000
10000000
00000000
00010000
00000000
00000000
00000000
,
00100000
00000000
00001000
00000000
00000100
00000000
00000010
00001000
00000010
00000000
00000100
00000000
00000001
00000000
00000000
00000000
,
00000011
00000000
00000000
00000101
00000000
00000000
00000110
00000000
00000000
00001010
00000000
00000000
00001100
00000000
00000000
00010100
,
00000000
00000000
00011000
00000000
00000000
00101000
00000000
00000000
01100000
00000000
00000000
11000000
00000000
00000000
10100000
00000000
,
00000000
01100000
00000000
00000000
10010000
00000000
00000000
01001000
00000000
00000000
00011000
00000000
00101000
00000000
00000000
00000000
,
00020200
00000000
00000000
00030300
,
00000010
00000000
00001000
00000000
00010000
01000000
10000000
00100000
,
00010000
00000000
00001000
00000000
00000100
00001000
00010000
00000000
,
01000000
00000000
10000000
00000000
00010000
00001000
00000010
00000001
,
00000100
00000000
00001000
00000000
01000000
00001000
00000100
00010000
,
00022000
00000000
00000000
00033000
,
00000000
00010000
10000000
00100000
,
01000000
10000000
00010000
01000000
,
00100000
00010000
00001000
00000010
,
00000100
00010000
00000010
00000100
,
00000001
00000010
00000100
00010000
,
00001000
00100000
20020000
30030000
,
00010000
00000000
00000000
00000000
00100000
00000000
01000000
00000000
00000000
00000000
01000000
00000000
,
10000000
00000000
00000000
00000000
10000000
00000000
00010000
00000000
00000000
00000000
00000000
00000000
,
01000000
00000000
00000000
00000000
00001000
00001000
00001000
00000000
00100000
00000000
02000000
00000000
00000000
00000000
13000000
00000000
,
00200000
00000000
00310000
00000000
00000010
00000200
00000000
00000301
,
00000020
00000000
00001030
00000000
00100000
02000000
00000000
13000000
,
00200000
00000000
00310000
00000000
00000010
00000200
00000000
00000301
,
00000020
00001030
00010000
00100000
,
10000000
00020000
02000000
00000000
03030000
00000000
00101000
00000000
,
00010100
00000010
00000001
00001000
,
00000010
00000000
00000100
00000000
00000001
00000100
00001000
00000000
,
00010000
01000000
10000000
00000000
00010000
10000000
10010000
00000000
,
00000000
00000000
00100000
00000000
10000000
00100000
00010000
00000000
,
00001000
00000010
00000001
00000000
00000100
00000010
00000110
00000000
,
00000000
00000000
00000010
00000000
00000001
00001000
00000010
00000000
,
00010000
00001000
00100000
00010000
10000000
00100000
01000000
00000000
,
00000000
00000000
00100000
10000000
01000000
00010000
00001000
00000100
,
00000001
00000010
00000200
00000000
00000020
00000330
00000001
00000000
,
00001000
00000000
00000010
00000000
00010000
00001000
00100000
00000000
,
01000000
00000000
10000000
00000000
00100000
01000000
00010000
00000000
,
10000000
00000000
01000000
00000000
00010000
00000000
00000010
00001000
,
00000010
00001000
00000001
00000010
00000001
00000010
00000100
00000000
,
00010000
00000000
00001000
00000000
00000100
00000001
00000010
00000000
,
00000100
00000000
00010000
00000000
00001000
00100000
01000000
00100000
,
01000000
00100000
00010000
00100000
00010000
00100000
00001000
00000000
,
00010000
01010000
00000000
00100000
,
10000000
00000000
01000000
00000000
00100000
00001000
01000000
00000000
,
00100000
00000000
00010000
00000000
00001000
00000010
00000100
00000000
,
00001000
00000000
00000001
00000000
00000100
00000000
00000010
00010000
,
00001000
00000000
00000000
00100000
00000000
00000000
00010000
00000000
00000000
01000000
00000000
00000000
00100000
00000000
00000000
10000000
00000000
00000000
00010000
00000000
00000000
00000000
01000000
00000000
,
00000000
00010000
00000000
00100000
00000000
01000000
00000000
00100000
00000000
00001000
00000000
00010000
,
00000000
00001000
00000000
00000100
00000000
00000001
00000000
00000100
00000000
00001001
00000000
00000000
,
00000110
00000000
00001000
00010000
,
00010100
00101000
00000000
00011000
,
00000000
00022000
00000000
00000000
00033000
00000000
00000010
00001000
,
00000100
00000010
00000001
00001000
00000100
00000010
00000001
00001000
,
00000100
00010000
00001000
00100000
00010000
10000000
00100000
01000000
,
00010000
00100000
00001000
00010000
01000000
00000000
10000000
01000000
,
00010000
01000000
10000000
01000000
00010000
01000000
10000000
00010000
,
01000000
00100000
00010000
00001000
00000100
00000010
00000001
00000010
,
00001000
00000010
00000001
00000010
00001000
00000010
00000001
00000010
,
00010000
00000100
00010000
00001000
01000000
00001000
00010000
00100000
,
10000000
00100000
00010000
00100000
10000000
00100000
00010000
00001000
,
00100000
00010000
00001000
00000100
00000010
00000001
00001000
00000010
,
00000100
00000000
00001000
00000000
00010000
00000000
00001000
00010000
00001000
00010000
00001000
00000000
00011000
00000000
00000000
00001000
,
00010000
00000000
00011000
00000000
00000000
00000000
00100000
00000000
00001000
00000000
00010000
00000000
00100000
00000000
00000000
00010000
,
00100000
00000000
00110000
00000000
00000000
00000000
00100000
00000000
00010000
00000000
00001000
00000000
00000010
00000000
00000000
00001000
,
00000010
00000000
00001010
00000000
00000000
00000000
00010000
00000000
00000100
00000000
00001000
00000000
00000010
00001000
00000100
00000000
,
00010000
00000000
00001000
00000000
01000000
00010000
00100000
00000000
00001000
00000000
00010000
00000000
00011000
00000000
00000000
00010000
,
00001000
00000000
00011000
00000000
00000000
00000000
00000100
00000000
00010000
00000000
00001000
00000000
00000100
00000000
00000000
00000001
,
00000100
00000000
00000101
00000000
00000000
00000000
00000100
00000000
00001000
00000000
00010000
00000000
01000000
00000000
00000000
10000000
,
01000000
11000000
00000000
00100000
00100000
00100000
00010000
01000000
,
00001000
00100000
00010000
00100000
00001000
01000000
00100000
00010000
,
00001000
00000010
00001000
00010000
00100000
00010000
00001000
00000100
,
00000010
00001000
00000001
00000010
00000100
00001000
00000001
00000001
,
00000001
00001000
00001000
00001000
00000100
00010000
00001000
00100000
,
00010000
01000000
00001000
01000000
00010000
00100000
01000000
00010000
,
00001000
00000100
00001000
00010000
01000000
00010000
00001000
00000010
,
00000100
00001000
00000001
00000100
00000010
00001000
00000001
00000001
,
00000001
00000100
00000100
00000100
00001000
00010000
00001000
00100000
,
00010000
01000000
00100000
10000000
01000000
00100000
00010000
10000000
,
01000000
00010000
00001000
00000010
00000001
00001000
00000010
00000100
,
00000001
00000000
00000010
00000000
00000100
00000000
00010000
00001000
00010000
00001000
00010000
00000000
00010000
00000000
00000000
00000000
,
00001000
00000000
00011000
00000000
,
00100000
02000000
00000000
00000000
,
00100000
00000000
03100000
00020000
,
00032000
00000000
00000000
00000000
00003200
00000000
00000000
00000000
00000302
00000000
00000000
00000000
00001003
00000000
00000010
00000100
,
00000010
00000000
00011000
00000000
01001000
00000000
00000000
00000000
00000000
11000000
00000000
00000000
00110000
00000000
01000000
10000000
,
01000000
00000000
00000000
00010000
00000000
00000000
00011000
00000000
00000010
00000000
00000001
00000000
00000010
00000000
00000000
00000000
00000000
00000000
00000001
00000000
00000000
00000100
00000000
00000000
,
00001000
00000000
00010000
00000000
01000000
10000000
00100000
00010000
,
00001000
00000000
00001000
00000100
00000001
00000100
00001000
00010000
,
01000000
00000000
10000000
00000000
00100000
10000000
01000000
00000000
,
00010000
00000000
00001000
00010000
00011000
00000000
00000100
00000010
,
00000100
00000000
00000001
00000100
00000001
00000000
00000010
00010000
,
00000010
00000000
00001000
01000000
00001000
00000000
00010000
10010000
,
00000000
01100000
00000000
00011000
00000000
00000110
00000001
00000000
,
00002000
00003100
00001000
00000010
,
00000200
00000000
00000000
00000301
,
00000100
00001000
00000100
00000020
,
00000000
00000000
00000130
00000000
,
00010000
00011000
00000000
00100000
,
00110000
00000000
00000000
10010000
,
10010000
00000000
01100000
00000000
,
00101000
00000000
00022000
00000000
,
00033000
00000010
00010000
00000100
,
00000002
00000000
00000000
00000103
,
00000010
00000001
00001000
00020000
,
00000000
00000000
00031000
00000000
,
00000000
00011000
00000000
00110000
,
01010000
00000000
00000000
11000000
,
00000000
00101000
00010100
00011000
,
00000000
00000000
00001001
00000110
,
00000001
00000100
00000001
00000000
00000010
00010000
00000000
00010000
,
00000010
00000000
00010000
00001000
00011000
00000000
01100000
00000000
,
10000000
01000000
10000000
00000000
00100000
00001000
00000000
00011000
,
00000000
00011000
00000000
00000000
00000110
00000000
00001001
00000000
,
00000010
00001000
00010000
00000000
00100000
10000000
00000000
10000000
,
00010000
00011000
01100000
10010000
,
01000000
00000000
00000000
00001000
00000000
00000000
00000100
00000000
00000000
00000000
00000000
00000000
00000010
00000000
00001000
00000000
00010000
00000000
00100000
00000000
00010000
00000000
00001000
00000000
,
00000020
00000030
00000010
00000000
,
00000000
00000001
00000010
00000000
,
00000000
00000100
00000000
00000010
,
00000000
00001000
00010000
00000000
,
00001000
01000000
00100000
01000000
,
00010000
00100000
01000000
00100000
,
00001000
00000000
00010000
00000100
00010000
00000000
00001000
00000000
,
00100000
00010000
01000000
00000000
,
00100000
10000000
01000000
00100000
00010000
00000000
10000000
00000000
,
01000000
10000000
00100000
01000000
,
00001000
00100000
00001000
00010000
,
00000010
00001000
00000100
00000000
,
00010000
00000000
00000010
00000000
00000100
00000001
00000100
00000010
,
00000100
00000001
00000010
00000100
00000010
00000001
00001000
00000100
,
00010000
00000100
00001000
00000010
00010000
00001000
00010000
00000100
,
00010000
00001000
01000000
00010000
00100000
00010000
10000000
00100000
,
01000000
00100000
10000000
01000000
00200000
00000000
00001000
00000000
,
10000000
00000000
00301000
00010000
00002000
00000000
00000100
00000000
,
01000000
00000000
00003100
00000001
00000011
00000010
00000010
00000100
,
00010100
00010000
00010000
00001000
01001000
01000000
01000000
00100000
,
10100000
00000000
10000000
00000000
00010000
00000000
00100000
00000000
00001000
00000000
00100000
00010000
10000000
00000000
01000000
00100000
,
00010000
00000000
01000000
00001000
00000000
00000000
00000000
00000000
00010000
00000000
00000010
00000100
00000001
00000000
00000010
00000100
,
00001000
00000000
00000001
00000100
00000000
00001000
00000000
00010000
01000000
10000000
00000000
00010000
00100000
00001000
00000000
00010000
,
00000100
00000000
00000000
00000000
00000000
00001000
00000000
00000001
00000010
00000100
00000000
00010000
00000000
00001000
00100000
00010000
,
10000000
01000000
00000000
00100000
00010000
02000000
00000000
03000000
00000000
00001000
00010000
00001000
00000000
00100000
00000000
00100000
,
00000000
01000000
00000000
00010000
00001000
00000200
00000000
00000300
00000000
00000001
00000010
00000001
00000000
00000100
00000000
00000100
,
00000000
00001000
00010000
00000000
00000000
00000000
00100000
10000000
00100000
00000000
01000000
00000000
00010000
00000000
10000000
00000000
,
00000000
01000000
00010000
00000000
00000000
00000000
00001000
00000100
00001000
00000000
00010000
00000000
01000000
00000000
10000000
00000000
,
00010000
01000000
00010000
00000000
10000000
00000000
01000000
00010000
01000000
00000000
00100000
00000000
00001000
00010000
00001000
00000000
,
00000100
00000000
00000001
00000010
00000001
00000000
00001000
00000000
00000100
00010000
00000100
00000000
00000010
00000000
00001000
00010000
,
00001000
00000000
00100000
00000000
00010000
10000000
00010000
00000000
01000000
00000000
00100000
10000000
00100000
00000000
10000000
01000000
,
00010000
00001000
00010000
00000000
00000010
00000100
00000001
00000000
00001000
00000000
00000100
00000000
00010000
00001000
00010000
00000000
,
00001000
00100000
00010000
10000000
01000000
00000000
00100000
00010000
01000000
00001000
00010000
00000000
00000010
00001000
00000100
00000000
,
00010000
00000000
00001000
00000000
00100000
00010000
01000000
00000000
00100000
10000000
01000000
00000000
00100000
00000000
00002000
00000000
,
00023000
00000000
00000000
00000000
00030200
00000000
00000000
00000000
00000320
00000000
00000000
00000000
00000032
00000000
00000000
00000000
00002003
00000000
00000000
00000000
00023000
00000000
00000000
00000000
10030000
00000000
00000000
10010000
00000000
00000000
00000000
00000000
;

//---------------dance-single - ----------------
#NOTES:
     dance-single:
     :
     Challenge:
     18:
     0.789744,1.178978,0.354675,0.283740,0.588761,1169.000000,1094.000000,75.000000,60.000000,100.000000,0.000000,0.789744,1.178978,0.354675,0.283740,0.588761,1169.000000,1094.000000,75.000000,60.000000,100.000000,0.000000:
0000
0000
0000
0000
,
0000
0000
0000
0000
,
0000
0000
0000
0000
,
0000
0000
0000
0000
,
0000
0000
0000
0000
,
1100
0000
1000
0000
0010
0000
0001
0010
0001
0000
0100
0000
0010
0000
0000
0000
,
0101
0000
0100
0000
0010
0000
1000
0100
0000
0100
0000
0010
0001
0000
1000
0000
,
1001
0000
0100
0000
0010
0001
0010
0100
0000
0000
0100
0000
1000
0001
1000
0000
,
0110
0000
0100
0000
0101
0000
1000
0100
0000
1000
0010
0000
0100
0001
0100
0000
,
0011
0000
0001
0000
0100
0000
1000
0100
1000
0000
0010
0000
0100
0000
0100
0000
,
1010
0000
0010
0000
0100
0000
0001
0010
0000
0010
0000
0100
1000
0000
0001
0000
,
1001
0000
0100
0000
0010
1000
0010
0100
0000
0000
0100
0000
0001
1000
0001
0000
,
0110
0000
0100
0000
1100
0000
0001
0100
0000
0001
0010
0000
0100
1000
0100
0000
,
0010
0000
0001
1000
0000
1000
0100
0000
0100
0010
0000
0010
0001
0000
0001
0100
,
0000
0100
0010
0000
0010
1000
0000
1000
0001
0000
0001
0100
0000
0010
0100
0000
,
1000
0100
0000
0001
0010
0000
0100
0010
0000
1000
0010
0000
1001
0000
0000
0000
,
2002
0000
0000
3003
,
0020
0100
0032
0100
2003
0100
3020
0001
,
0230
1000
0302
0010
2003
0010
3100
0100
,
0012
1000
0103
0010
2100
0001
3010
0010
,
0102
0100
1003
1000
0120
0100
0031
0002
,
2000
0000
0000
3003
,
0000
1001
1001
0010
,
0100
0000
1000
0000
0001
0000
0100
0001
,
1000
0001
0010
0100
,
1000
0010
1000
0010
0100
0010
0100
0010
,
1000
0001
0010
1000
,
0100
0010
2002
3003
,
0001
0000
0000
0000
0010
0000
0100
0000
0000
0000
0100
0000
,
1000
0000
0000
0000
1000
0000
0001
0000
0000
0000
0000
0000
,
0020
0000
0000
0000
0000
0000
0000
0000
0031
0000
0001
0000
0001
0000
0000
0100
0020
0000
0000
0000
1000
0000
0000
0000
0030
0000
0000
0000
0200
0000
0000
0000
,
0000
0310
0001
0100
0020
1000
0030
0200
,
0000
0310
0001
0100
0020
1000
0030
0200
,
0000
0310
0001
0100
0020
1000
0030
0200
,
0000
0310
0001
0100
0020
0000
1030
0000
,
0001
2000
0200
0000
3300
0000
1010
0000
,
0101
1000
0100
0001
,
0100
0000
1000
0000
0100
0000
0001
0010
,
1000
0000
0000
0000
0110
0000
0000
0000
0001
1000
0000
0100
0010
0000
0000
0000
,
0000
0000
0001
0000
0100
0000
1000
0010
,
0001
0000
0000
0000
1001
0000
0000
0000
0010
0100
0000
0001
1000
0000
0000
1000
,
0000
1000
0100
0000
0001
0000
0010
1000
,
0100
0000
0000
0000
0001
0100
0000
0010
0000
1000
0100
0010
0001
0000
0000
0000
,
0000
0000
0000
0000
0000
0000
0000
0000
0000
0000
0000
0000
0001
0000
0000
0100
0000
0000
0010
0000
0000
1000
0000
0000
0001
0000
0000
0000
0100
0000
0000
0000
0010
0000
0000
0000
1000
0000
0000
0000
0000
0000
0100
0000
0000
0000
0000
0000
,
0010
0000
0100
0000
0001
0100
0000
1000
0010
0100
1000
0000
0001
0000
0100
0000
,
0010
1000
0001
0100
0010
1000
0100
0010
,
0100
0001
0100
1000
0010
0100
0001
0010
,
0001
1000
0100
0010
0001
1000
0010
1000
,
0001
0010
0100
1000
0010
1000
0100
1000
,
0010
0100
0001
1000
0100
0010
1000
0001
,
0100
1000
0001
0100
1000
0001
0010
0100
,
0001
1000
0100
0010
0100
1000
0001
0000
,
0010
0000
1001
0000
0000
0000
0100
1000
,
0001
0100
1000
0100
0010
1000
0100
0001
,
1000
0010
0001
1000
0010
0100
0001
0010
,
0100
0010
0100
1000
0010
0100
0001
0010
,
0001
0000
0000
0100
0000
0000
0010
0000
0000
1000
0000
0000
0100
0000
0000
0010
0000
0000
0001
0000
0000
0000
0100
0000
,
0000
0001
0000
1000
0000
0100
0000
1000
0000
0001
0000
0010
,
0000
0100
0000
1000
0000
0010
0000
0100
0000
1001
0000
0000
,
0110
0000
1000
0001
,
0010
0000
0000
0000
1100
0000
0000
0000
0000
0000
0000
0000
1000
0001
1000
0001
,
1000
0001
1000
0001
1000
0001
1000
0001
1000
0001
1000
0000
MMMM
0000
0010
0000
,
0100
MMMM
1000
0100
0010
0001
MMMM
0100
,
0010
MMMM
1000
0010
0100
0001
MMMM
0100
,
0010
0000
MMMM
0000
0001
0000
1000
0000
0001
0000
0000
0000
MMMM
0000
1000
0010
,
1000
0010
1000
0000
MMMM
0000
1000
0010
1000
0010
1000
0010
0100
0000
0001
0000
,
0100
0000
0001
0000
1000
0000
0001
0000
1000
0000
0001
0000
MMMM
0000
0010
0001
,
0010
0001
0010
0000
MMMM
0000
0010
0001
0010
0001
0010
0001
1000
0000
0100
0000
,
1000
0000
0100
0000
1000
0000
0001
0000
1000
0000
0001
0000
MMMM
0000
0100
0001
,
0100
0001
0100
0000
MMMM
0000
0100
0001
0100
0001
0100
0001
1000
0000
0010
0000
,
1000
0000
0010
0000
1000
0000
0100
0000
1000
0000
0100
0000
MMMM
0000
1000
0001
,
1000
0001
1000
0000
MMMM
0000
1000
0001
1000
0001
1000
0001
0100
0000
0010
0000
,
1000
0000
0001
0000
0100
0000
0010
0000
1000
0000
0001
0000
MMMM
0000
0100
0010
,
0100
0010
0100
0000
MMMM
0000
1000
0010
1000
0010
1000
0001
1000
0000
0100
0000
,
1000
0000
0010
0000
0100
0000
0001
0000
1000
0000
0100
0000
MMMM
0000
0010
0100
,
0010
0100
0010
0000
MMMM
0000
1000
0100
1000
0100
1000
0001
1000
0000
0100
0000
,
0010
0000
0001
0000
1000
0000
0010
0000
0100
0000
0001
0000
MMMM
0000
0010
0001
,
0010
0001
0010
0000
MMMM
0000
1000
0001
1000
0001
1000
0010
1000
0000
0001
0000
,
0100
0010
1000
0001
1000
0001
2001
0000
,
0100
0000
0000
0000
0001
0000
0000
0000
3100
0000
0000
0000
MMMM
0000
0000
1000
,
0100
0000
0000
0100
0010
0000
0000
0010
0001
0000
0000
0000
1002
0000
0000
0000
,
0100
0000
0000
0000
1000
0000
0000
0000
0103
0000
0000
0000
MMMM
0000
0000
1000
,
0010
0000
0000
0010
0100
0000
0000
0100
0001
0000
0000
0000
1001
0000
0000
0100
,
0001
0000
0000
0010
0100
0000
0000
1000
0010
0000
0000
0000
MMMM
0000
0000
0001
,
0010
0000
0000
0010
0001
0000
0000
1000
0100
0000
1000
0000
0011
0000
0000
0100
,
1000
0000
0000
0010
0100
0000
0000
0001
0010
0000
0000
0000
MMMM
0000
0000
1000
,
0010
0000
0000
0010
1000
0000
0000
0001
0100
0000
0001
0000
1010
0000
0000
0100
,
0001
0000
0000
1000
0100
0000
0000
1000
0001
0000
0000
0000
MMMM
0000
0000
0100
,
1000
0000
0000
0001
0100
0000
0000
0001
1000
0000
0000
0000
1010
0000
0000
0010
,
0100
0000
0000
0100
0001
0000
1000
0001
1000
0001
1000
0000
1001
0000
0000
0000
,
1001
0000
0110
0000
,
1001
2002
0000
3003
,
1100
0000
0101
1000
,
0001
0000
0010
0100
0010
0100
0020
1000
,
0100
1000
0100
0001
0100
0001
0230
1000
,
0010
0000
0000
0001
0000
0000
0310
0000
1100
0000
0101
0000
1001
0000
0000
0100
0000
0000
1000
0000
0000
0100
0000
0000
,
0001
0100
2000
0001
3001
0010
1000
0010
,
0002
1000
1003
0010
0001
0010
1000
0100
,
0001
0100
2000
0001
3001
0100
1000
0100
,
0002
1000
1003
0100
0001
0100
1000
0100
,
0002
0100
0103
1000
0200
1000
1300
0010
,
0002
0010
0013
1000
0020
1000
1030
0100
,
0001
0010
0001
0100
1000
0010
0001
0010
,
1000
0100
0002
0000
0103
0010
0100
0010
,
0002
0000
0000
0000
0000
0000
1003
0010
,
1000
0010
0100
0010
0100
0010
0200
0000
,
0000
0000
0310
0000
,
1000
0001
1000
0001
0000
0000
0010
1000
,
0010
1000
0000
0000
0000
0000
0100
0001
,
0010
0000
2001
0001
,
0100
0100
0020
0000
,
3030
0000
0100
1000
0100
1000
0100
0010
,
0002
0000
0000
0000
0000
0000
0103
0010
,
0100
0010
1000
0001
1000
0000
0110
0000
,
0000
0000
1001
0000
,
0000
0000
0110
0000
0000
0000
1000
0001
,
1000
0010
0000
0000
0000
0000
2001
0000
,
0000
3010
0200
0002
,
0000
0300
2003
0001
,
0001
0001
0001
0000
0100
0100
0000
0100
,
0100
0000
0001
0001
3002
0000
1000
0000
,
0000
0010
0000
0000
0100
0100
0000
1000
,
0000
0100
0003
0000
1001
0000
0020
0000
,
1000
1000
2030
0000
0010
3020
0000
0100
,
0230
0000
0001
0001
0301
0000
0110
0000
,
1001
0000
0000
1001
0000
0000
1001
0000
0000
0000
0000
0000
0110
0000
0010
0000
0100
0000
0100
0000
0010
0000
0100
0000
,
0220
0000
0300
0030
0110
0000
0000
0000
,
0000
1001
1001
0000
,
0000
0011
0000
1100
,
0000
1001
1001
0000
,
0010
0001
0100
1000
,
0100
0010
1000
0001
,
0010
0000
0100
1000
0010
0000
1000
0000
,
0100
0001
0100
1000
,
0010
0100
0001
1000
0010
0000
0001
0000
,
0010
1000
0100
0010
,
1000
0010
0001
0100
,
0010
1000
0100
0010
,
0001
0000
0000
1000
0000
0000
0010
0000
0001
0000
0010
0000
,
0100
0000
1000
0000
0100
0000
0010
0000
1000
0000
0010
0000
,
0100
0000
0001
0000
0010
0000
1000
0000
0010
0000
0100
0000
,
0001
0000
0100
0000
1000
0000
0010
0000
0100
0000
0001
0000
,
0010
0000
0000
0000
0000
0000
0000
0000
0100
0000
0000
0000
0000
0000
0000
0000
1000
0000
0000
0000
0000
0000
0000
0000
0001
0000
0000
0100
0000
0000
0001
0000
0000
0000
0000
0000
1010
0000
0000
0000
0000
0000
0000
0000
0000
0000
0000
0000
,
0100
1000
0100
0000
0011
0000
1100
0000
0010
1000
0010
0000
0101
0000
0000
0000
,
0010
0001
0010
0000
1100
0000
0011
0000
0010
0100
1000
0010
1000
0001
0100
0000
,
0010
0100
0001
1000
0010
1000
0100
0000
0010
0001
1000
0010
1000
0100
0010
0000
,
0001
1000
0100
0001
0100
1000
0010
0100
0001
0100
0001
1000
0100
0000
0100
1000
,
0001
1000
0010
0100
0000
0100
0101
0000
0010
1000
0100
0010
0001
0000
0001
1000
,
0100
0010
0001
1000
0000
1000
0100
0010
0001
1000
0000
1000
0010
0100
0001
0010
,
0100
0000
0100
1000
0100
0010
0001
1000
0010
0100
0000
0001
1000
0001
0100
0010
,
1000
1000
0001
0100
0010
1000
0000
1000
0100
0010
0001
1000
0010
0000
0010
0100
,
0010
1000
0001
0010
0100
1000
0000
1000
0010
0100
0001
0010
0100
1000
0000
0101
,
0000
1000
0100
0000
0100
0010
0001
1000
0010
0100
0000
0100
0001
0100
0010
1000
,
0100
0010
0001
0000
0001
0100
1000
0100
0001
1000
0000
1000
0100
1000
0001
0000
,
0100
0000
0010
0000
1000
0000
1000
0100
1000
0000
1000
0000
0010
0000
0100
0000
,
0001
0000
0001
0010
0001
0000
0001
0000
1000
0000
0100
0000
0010
0000
0001
1000
,
0001
0000
0001
0000
0100
0000
0010
0000
1000
0000
1000
0001
1000
0000
1000
0100
,
0001
0100
1000
0001
0100
1000
0100
0001
1000
0000
0001
0100
1000
0100
0001
1000
,
0100
0010
0001
0100
1000
0000
0001
0010
1000
0010
0001
1000
0010
0001
0010
1000
,
0001
0000
1000
0010
0001
0010
1000
0001
0010
0100
1000
0010
0100
0000
0010
0000
,
1100
0000
0000
0000
0010
0000
0000
0000
0101
0000
0000
0000
1000
0000
0000
0000
0110
0000
0000
0000
0001
0000
0000
0000
0110
0000
0000
1001
0000
0000
0000
0000
;

//---------------dance-double - ----------------
#NOTES:
     dance-double:
     :
     Challenge:
     20:
     0.735022,1.178978,0.321572,0.250637,0.475265,1088.000000,1020.000000,68.000000,53.000000,248.000000,0.000000,0.735022,1.178978,0.321572,0.250637,0.475265,1088.000000,1020.000000,68.000000,53.000000,248.000000,0.000000:
00000000
00000000
00000000
00000000
,
00000000
00000000
00000000
00000000
,
00000000
00000000
00000000
00000000
,
00000000
00000000
00000000
00000000
,
00000000
00000000
00000000
00000000
,
00000011
00000000
00000001
00000000
00000100
00000000
00000010
00010000
00000010
00000000
00001000
00000000
00000100
00000000
00000000
00000000
,
00011000
00000000
00001000
00000000
01000000
00000000
00100000
10000000
00000000
00100000
00000000
01000000
00001000
00000000
00100000
00000000
,
00110000
00000000
00000100
00000000
00010000
00001000
00010000
00000100
00000000
00000000
00000010
00000000
00000001
00001000
00000001
00000000
,
00000110
00000000
00000010
00000000
00010010
00000000
00001000
00100000
00000000
00010000
01000000
00000000
00100000
10000000
00100000
00000000
,
11000000
00000000
10000000
00000000
00010000
00000000
00100000
00001000
00100000
00000000
00010000
00000000
00001000
00000000
00000010
00000000
,
00000100
00000001
00000100
00000000
00000010
00000000
00010000
00000100
00000000
00000100
00000000
00000010
00000001
00000000
00001000
00000000
,
00001000
00000000
00000010
00000000
00010000
00000100
00010000
00001000
00000000
00000000
00100000
00000000
00010000
10000000
00010000
00000000
,
01000000
00000000
00100000
00000000
10100000
00000000
00010000
00100000
00000000
00001000
00000100
00000000
00000010
00000100
00000010
00000000
,
00000001
00000000
00001000
00000100
00000000
00010000
00001000
00000000
00100000
00010000
00000000
01000000
00010000
00000000
10000000
00100000
,
00000000
01000000
00010000
00000000
00100000
00001000
00000000
00010000
00001000
00000000
00010000
00000100
00000000
00001000
00000100
00000000
,
00001000
00000010
00000000
00000100
00000001
00000000
00000010
00000100
00000000
00010000
00000100
00000000
00011000
00000000
00000000
00000000
,
00020200
00000000
00000000
00030300
,
00000010
00000000
00001000
00000000
00010000
01000000
10000000
00100000
,
00010000
00000000
00001000
00000000
00000100
00001000
00010000
00000000
,
01000000
00000000
10000000
00000000
00010000
00001000
00000010
00000001
,
00000100
00000000
00001000
00000000
01000000
00001000
00000100
00010000
,
00022000
00000000
00000000
00033000
,
00000000
01001000
00010010
00000100
,
00000010
00000000
00000001
00000000
00001000
00000000
00000010
00000100
,
00001000
00010000
01000000
00100000
,
00010000
10000000
01000000
00100000
00010000
00001000
00000100
00000010
,
00000001
00000100
00000010
00010000
,
00001000
01000000
20020000
30030000
,
10000000
00000000
00000000
00000000
10000000
00000000
00010000
00000000
00000000
00000000
00010000
00000000
,
00001000
00000000
00000000
00000000
00001000
00000000
00000001
00000000
00000000
00000000
00000000
00000000
,
00000001
00000000
00000000
00000000
00000000
00000000
00000000
00000000
00001000
00000000
00001000
00000000
00001000
00000000
00000000
00000100
00000010
00000000
00000000
00000000
00000002
00000000
00000000
00000000
00000000
00000000
00000000
00000000
00002003
00000000
00000000
00000000
,
00000000
00003100
00010000
00001000
00100000
02000000
00000000
23000000
,
00000000
30100000
01000000
00001000
00010000
00000020
00000000
00000230
,
00000000
00000301
00000010
00000100
00010000
00002000
00000000
02003000
,
00000000
03100000
10000000
01000000
00010000
00000000
00000100
00000000
,
00001000
00000002
00000020
00000000
00000033
00000000
00010100
00000000
,
00101000
01000000
10000000
00010000
,
01000000
00000000
00100000
00000000
10000000
00100000
00010000
00000000
,
00001000
00000000
00000010
00000000
00001001
00000000
00000000
00000000
00000001
00001000
00000000
00000100
00000010
00000000
00000000
00000000
,
00000000
00000000
00000100
00000000
00000001
00000100
00001000
00000000
,
00010000
00000000
01000000
00000000
10010000
00000000
00000000
00000000
00100000
01000000
00000000
00010000
10000000
00000000
00000000
10000000
,
00000000
10000000
01000000
00000000
10000000
00010000
01000000
00000000
,
00001000
00000000
00010000
00000000
00001000
00000100
00000000
00000010
00000000
00001000
00000100
00000010
00000001
00000000
00000000
00000000
,
00000000
00000000
00000000
00000000
00000000
00000000
00000000
00000000
00000000
00000000
00000000
00000000
00000001
00000000
00000000
00000100
00000000
00000000
00000010
00000000
00000000
00001000
00000000
00000000
00010000
00000000
00000000
00000000
01000000
00000000
00000000
00000000
00100000
00000000
00000000
00000000
10000000
00000000
00000000
00000000
00000000
00000000
01000000
00000000
00000000
00000000
00000000
00000000
,
00100000
00000000
01000000
00000000
00010000
00001000
00000000
00000100
00000010
00001000
00000100
00000000
00000010
00000000
00000000
00000000
,
00001000
00010000
01000000
00000000
00100000
00010000
01000000
00000000
,
00100000
10000000
00010000
00100000
00001000
00010000
00000010
00000000
,
00001000
00000100
00000010
00000000
00000001
00000100
00000010
00001000
,
00010000
01000000
00100000
10000000
01000000
00100000
01000000
00000000
,
00010000
00001000
00010000
00000000
00000100
00000010
00000001
00000000
,
00001000
00000100
00010000
00001000
00000100
00000010
00000100
00000001
,
00000100
00001000
00010000
00100000
10000000
01000000
00010000
00000000
,
00001000
00000000
00011000
00000000
00000000
00000000
00000010
00000001
,
00000010
00000001
00001000
00000100
00001000
00000100
00010000
00001000
,
00010000
00001000
01000000
00100000
01000000
00100000
10000000
00010000
,
01000000
00001000
00010000
00000010
00000100
00000001
00001000
00000100
,
00010000
00000000
00000000
00000100
00000000
00000000
00001000
00000000
00000000
00000010
00000000
00000000
00000100
00000000
00000000
00001000
00000000
00000000
00010000
00000000
00000000
00000000
00010000
00000000
,
00000000
00010000
00000000
00001000
00000000
00001000
00000000
00001000
00000000
00010000
00000000
00001000
,
00000000
00010000
00000000
00100000
00000000
10000000
00000000
01000000
00000000
10010000
00000000
00000000
,
01100000
00000000
00010000
00001000
,
00101000
00010100
00000000
00011000
,
MMMMMMMM
00022000
00000000
00000000
00033000
00000000
00000010
00001000
,
00000100
00000010
00000001
00001000
00000100
00000010
00000001
00001000
,
00000100
00010000
00001000
00100000
00010000
10000000
00100000
01000000
,
00010000
00100000
00001000
00010000
01000000
00000000
10000000
01000000
,
00010000
01000000
10000000
01000000
00010000
01000000
MMMMMMMM
00010000
,
MMMMMMMM
00100000
MMMMMMMM
00001000
MMMMMMMM
00000010
00000001
00000010
,
00001000
00000010
00000001
00000010
00001000
00000010
MMMMMMMM
00000010
,
MMMMMMMM
00000100
MMMMMMMM
00001000
MMMMMMMM
00001000
MMMMMMMM
00100000
,
10000000
00100000
00010000
00100000
10000000
00100000
MMMMMMMM
00001000
,
MMMMMMMM
00010000
MMMMMMMM
00000100
MMMMMMMM
00000001
00001000
00000010
,
00000100
00000000
00001000
00000000
00010000
00000000
00001000
00010000
00001000
00010000
00001000
00000000
00011000
00000000
00000000
00001000
,
00010000
00000000
00011000
00000000
00000000
00000000
00100000
00000000
00001000
00000000
00010000
00000000
00100000
00000000
00000000
00010000
,
00100000
00110000
00000000
00100000
00010000
00001000
MMMMMMMM
00001000
,
MMMMMMMM
00000000
00000010
00000000
MMMMMMMM
00000000
00010000
00000000
MMMMMMMM
00000000
00001000
00000000
00000010
00001000
00000100
00000000
,
00010000
00000000
00001000
00000000
01000000
00010000
00100000
00000000
00001000
00000000
00010000
00000000
MMMMMMMM
00000000
00001000
00000000
,
MMMMMMMM
00000000
00010000
00000000
MMMMMMMM
00000000
00000100
00000000
MMMMMMMM
00000000
00001000
00000000
00000100
00000000
00000000
00000001
,
00000100
00000101
00000000
00000100
00001000
00010000
MMMMMMMM
10000000
,
MMMMMMMM
01000000
MMMMMMMM
00100000
00100000
00100000
00010000
01000000
,
00001000
00100000
00010000
00100000
00001000
01000000
00100000
00010000
,
00001000
00000010
00001000
00010000
00100000
00010000
00001000
00000100
,
00000010
00001000
00000001
00000010
00000100
00001000
00000001
00000001
,
00000001
00001000
00001000
00001000
00000100
00010000
00001000
00100000
,
00010000
01000000
00001000
01000000
00010000
00100000
01000000
00010000
,
00001000
00000100
00001000
00010000
01000000
00010000
00001000
00000010
,
00000100
00001000
00000001
00000100
00000010
00001000
00000001
00000001
,
00000001
00000100
00000100
00000100
00001000
00010000
MMMMMMMM
00100000
,
00010000
01000000
MMMMMMMM
10000000
01000000
00100000
MMMMMMMM
10000000
,
01000000
00010000
MMMMMMMM
00000010
00000001
00001000
MMMMMMMM
00000100
,
00000001
00000000
00000010
00000000
MMMMMMMM
00000000
00010000
00001000
00010000
00001000
00010000
00000000
00001001
00000000
00000000
00000000
,
00001001
00000000
00011000
00000000
,
10010000
20020000
00000000
30030000
,
01100000
00000000
00101000
00010000
,
00001000
00000000
00000100
00000000
00000001
00000000
00000100
00000100
,
00000010
00000000
00000010
00000000
00010000
00000000
00010000
00000000
00001000
00001000
00100000
00100000
00010000
00000000
00010000
00000000
,
10000000
00000000
00000000
10000000
00000000
00000000
01000000
00000000
00000000
00000000
00000000
00000000
00020000
00000000
00000000
00000000
00032000
00000000
00000000
00000000
00023000
00000000
00000000
00000000
00031000
00000000
00000000
00000000
00000000
00000000
00000000
00000000
00000000
00000000
00000000
00000000
00100000
00000000
00000000
00000000
00000000
00000000
01000000
00000000
00000000
00000000
00000000
00000000
,
00010000
01000000
20000000
00000000
30010000
00100000
00001000
00000010
,
00000002
00000000
00001003
00000010
00000001
00000010
00001000
00000100
,
00010000
01000000
20000000
00000000
30010000
01000000
10000000
01000000
,
00020000
00000000
00130000
01000000
00010000
00001000
00000100
00000010
,
00020000
00000000
00030100
00001000
00000200
00000000
00001300
00000010
,
00020000
00000000
00130000
10000000
00200000
00000000
10300000
01000000
,
00010000
00001000
00010000
00000100
00000001
00000100
00000010
00000100
,
00001000
00000001
00001000
00000000
00100000
00000000
01000000
00000000
,
02200000
00000000
03300000
10000000
,
01000000
00010000
00001000
00000200
,
00000000
00000000
00000301
00000000
,
00000001
00000011
00000000
00000010
,
00000110
00000000
00000000
00001001
,
00010100
00000000
00011000
00000000
,
00110000
00000000
02020000
00000000
,
03030000
00100000
10000000
10000000
,
21000000
00000000
00000000
30010000
,
00100000
00001000
00001000
00022000
,
00000000
00033000
00000010
00000000
,
00000000
00001001
00000000
00020010
,
00030100
00000000
00000000
01010000
,
00000000
10100000
01010000
00011000
,
00000000
00000000
00020100
01030000
,
00001000
00010000
00010000
00000000
00000100
00000110
00000000
00000100
,
00010100
00000000
00001000
00010000
00102000
00000000
00003010
00000000
,
00000000
00011000
00000000
00000000
00100000
10000000
00000000
01000000
,
00000000
00011000
00000000
00000000
00102000
00000000
00003010
00000000
,
00010000
00001000
00001000
00000000
00100000
01100000
00000000
00100000
,
00101000
00000000
00010000
00000010
00020010
00000000
00130000
00000000
,
00001000
00000000
00000000
00010000
00000000
00000000
00010000
00000000
00000000
00000000
00000000
00000000
10000000
00000000
00100000
00000000
00010000
00000000
00001000
00000000
00000010
00000000
00000001
00000000
,
00000020
00000130
20010000
00000000
,
00000000
00100000
30100000
00000000
,
00000000
01001000
00000000
00110000
,
00000000
00001000
01000000
00000000
,
00001000
00010000
00000100
00000010
,
00000001
00001000
00000010
00000100
,
00001000
00000000
00100000
00010000
00100000
00000000
01000000
00000000
,
10000000
00010000
10000000
00000000
,
00100000
00010000
00001000
00000100
00000010
00000000
00001000
00000000
,
00000001
00000010
00001000
00010000
,
01000000
10000000
00100000
00010000
,
00001000
00000100
00000001
00000000
,
00000010
00000000
00000000
00000100
00000000
00000000
00001000
00000000
00000010
00000000
00000001
00000000
,
00000010
00000000
00000100
00000000
00001000
00000000
00010000
00000000
00100000
00000000
10000000
00000000
,
00100000
00000000
01000000
00000000
10000000
00000000
01000000
00000000
00010000
00000000
00001000
00000000
,
00000010
00000000
00000001
00000000
00000010
00000000
00001000
00000000
00000100
00000000
00010000
00000000
,
00001000
00000000
00000000
00000000
00000000
00000000
00000000
00000000
00100000
00000000
00000000
00000000
00000000
00000000
00000000
00000000
00010000
00000000
00000000
00000000
00000000
00000000
00000000
00000000
01000000
00000000
00000000
00100000
00000000
00000000
10000000
00000000
00000000
00000000
00000000
00000000
01000000
00000000
00000000
00100000
00000000
00000000
00010000
00000000
00000000
00000000
00000000
00000000
,
10000000
01000000
00010000
00001000
01000000
00001000
00000100
00000000
00000010
00000100
00000001
00000000
00000010
00000100
00001000
00000000
,
00000001
00000100
00001000
00010000
00000010
00010000
00100000
00000000
01000000
00010000
10000000
01000000
00000000
10010000
00000000
01000000
,
10000000
00010000
01000000
00100000
00010000
00001000
00000100
00000010
00000100
00000001
00001000
00000010
00000000
00001001
00000000
00000010
,
00001000
00000001
00000010
00001000
00010000
00100000
10000000
00000000
00100000
01000000
10000000
00100000
01000000
00000000
00010000
10000000
,
01000000
00100000
00010000
10000000
00000000
01000000
00010000
01000000
00010000
00001000
00100000
00010000
10000000
00000000
01000000
00010000
,
00001000
00000100
00000001
00001000
00000000
00000100
00010000
00001000
00100000
00010000
00000000
10000000
00100000
01000000
10000000
01000000
,
00010000
00000000
10000000
01000000
10000000
00010000
01000000
00001000
00010000
00000010
00000000
00001000
00000100
00000010
00000001
00000100
,
00001000
00010000
00001000
00000010
00000001
00001000
00000000
00000100
00010000
00001000
00100000
00010000
01000000
00000000
00100000
10000000
,
00100000
10000000
01000000
00010000
00001000
00100000
00000000
00010000
01000000
00001000
00010000
00000010
00001000
00000100
00000000
00011000
,
00000000
00100000
00010000
00000000
10000000
00100000
01000000
00010000
10000000
01000000
00000000
00100000
00010000
00100000
01000000
00010000
,
00001000
00000100
00000001
00000000
00001000
00000100
00010000
00000010
00000100
00001000
00000000
00010000
01000000
00010000
00001000
00000000
,
00100000
00000000
00010000
00000000
01000000
00000000
00001000
00010000
00001000
00000000
00100000
00000000
01000000
00000000
00010000
00000000
,
00001000
00000000
00000100
00000001
00000100
00000000
00000010
00000000
00001000
00000000
00000100
00000000
00010000
00000000
00001000
00100000
,
00001000
00000000
00010000
00000000
00000100
00000000
00000010
00000000
00001000
00000000
00010000
00100000
00010000
00000000
00001000
00000010
,
00000001
00000100
00001000
00010000
01000000
10000000
00100000
00010000
00001000
00000000
00010000
00100000
10000000
01000000
00010000
00001000
,
00000100
00000001
00000010
00001000
00010000
00000000
00001000
00000010
00000001
00000100
00001000
00010000
00100000
10000000
01000000
00010000
,
00001000
00000000
00010000
01000000
10000000
00100000
00010000
00001000
00000010
00000001
00000100
00001000
00010000
00000000
00002000
00000000
,
00003200
00000000
00000000
00000000
00000302
00000000
00000000
00000000
00000023
00000000
00000000
00000000
00002030
00000000
00000000
00000000
00023000
00000000
00000000
00000000
02030000
00000000
00000000
00000000
13000000
00000000
00000000
10010000
00000000
00000000
00000000
00000000
;

//---------------dance-single - ----------------
#NOTES:
     dance-single:
     :
     Beginner:
     7:
     0.160786,0.266221,0.033103,0.052019,0.018916,238.000000,231.000000,7.000000,11.000000,0.000000,0.000000,0.160786,0.266221,0.033103,0.052019,0.018916,238.000000,231.000000,7.000000,11.000000,0.000000,0.000000:
// measure 0
0000
0000
0000
0000
,  // measure 1
0000
0000
0000
0000
,  // measure 2
0000
0000
0000
0000
,  // measure 3
0000
0000
0000
0000
,  // measure 4
0000
0000
0000
0000
,  // measure 5
0001
0000
0001
0000
,  // measure 6
0001
0000
0000
0000
,  // measure 7
1000
0000
1000
0000
,  // measure 8
1000
0000
0000
0000
,  // measure 9
0001
0000
0001
0000
,  // measure 10
1000
0000
1000
0000
,  // measure 11
0001
0000
0001
0000
,  // measure 12
1000
0000
1000
0000
,  // measure 13
0001
0000
0000
0001
,  // measure 14
0000
0000
1000
0000
,  // measure 15
0000
1000
0000
0000
,  // measure 16
1001
0000
0000
0000
,  // measure 17
0010
0000
1000
0000
,  // measure 18
0100
0000
0001
0000
,  // measure 19
0010
0000
1000
0000
,  // measure 20
0100
0000
0010
0000
,  // measure 21
1000
0000
0000
0000
,  // measure 22
0000
0001
0001
0000
,  // measure 23
0100
0000
1000
0000
,  // measure 24
0010
0000
0010
0000
,  // measure 25
1000
0000
0001
0000
,  // measure 26
0100
0000
1000
0000
,  // measure 27
0100
0000
0010
0000
,  // measure 28
2000
0000
3002
0000
,  // measure 29
2003
0000
3002
0000
,  // measure 30
0013
0000
0100
0000
,  // measure 31
0100
0000
1000
0000
,  // measure 32
1000
0000
0010
0000
,  // measure 33
0010
0000
0001
0000
,  // measure 34
0001
0000
0100
0100
,  // measure 35
0000
0010
0000
1000
,  // measure 36
1000
2000
0000
3000
,  // measure 37
0000
0001
0000
0100
,  // measure 38
0000
1000
1000
1000
,  // measure 39
0000
1000
0000
0010
,  // measure 40
0000
0001
0001
0001
,  // measure 41
0000
0100
0000
1000
,  // measure 42
0000
0010
0010
0010
,  // measure 43
0000
0100
0000
0001
,  // measure 44
0000
0010
0010
0010
,  // measure 45
0000
0100
0000
1000
,  // measure 46
0000
0001
0000
0100
,  // measure 47
0000
1000
0000
0001
,  // measure 48
0000
0100
0000
1000
,  // measure 49
0000
0010
0000
0001
,  // measure 50
0000
0010
0000
0100
,  // measure 51
0000
1000
0000
0001
,  // measure 52
0000
1001
0000
0100
,  // measure 53
0000
1000
0000
1000
,  // measure 54
0000
0100
0000
0100
,  // measure 55
0000
0010
0000
0010
,  // measure 56
0000
1000
0000
0002
,  // measure 57
0003
2000
3000
0002
,  // measure 58
0003
2000
3000
0100
,  // measure 59
0000
0000
0000
1000
,  // measure 60
0000
1001
0000
0001
,  // measure 61
0000
0000
0000
1000
,  // measure 62
0000
0000
0000
0001
,  // measure 63
0000
0000
0000
1000
,  // measure 64
0000
0000
0000
0001
,  // measure 65
0000
0000
0000
0100
,  // measure 66
0000
0100
0000
1000
,  // measure 67
0000
0000
0000
0100
,  // measure 68
0000
0100
0000
0001
,  // measure 69
0000
0000
0000
0010
,  // measure 70
0000
0010
0000
0100
,  // measure 71
0000
0000
0000
1000
,  // measure 72
0000
0000
0000
0100
,  // measure 73
0000
0100
0000
0010
,  // measure 74
0000
0000
0000
0001
,  // measure 75
0000
0001
0000
0100
,  // measure 76
0000
0000
0000
0010
,  // measure 77
0000
0010
0000
1000
,  // measure 78
0000
0000
0000
0001
,  // measure 79
0000
0001
0000
1000
,  // measure 80
0000
1000
0000
0001
,  // measure 81
0000
0001
0000
0001
,  // measure 82
0000
0001
0000
0100
,  // measure 83
0000
0100
0000
0010
,  // measure 84
0000
0010
0000
0100
,  // measure 85
0000
0100
0000
0100
,  // measure 86
0000
0100
0000
1000
,  // measure 87
0000
1000
0000
0001
,  // measure 88
0000
0001
0000
1000
,  // measure 89
0000
0001
0000
1000
,  // measure 90
0000
0000
0000
0000
,  // measure 91
0000
0000
0000
0100
,  // measure 92
0000
0000
0000
0100
,  // measure 93
0000
0000
0000
1000
,  // measure 94
0000
1000
0000
0001
,  // measure 95
0000
0001
0000
0100
,  // measure 96
0000
0000
0000
0100
,  // measure 97
0000
0100
0000
0100
,  // measure 98
0000
0000
0000
0001
,  // measure 99
0000
0001
0000
0001
,  // measure 100
0000
0000
0000
1000
,  // measure 101
0000
1000
0000
1000
,  // measure 102
0000
0000
0000
0100
,  // measure 103
0000
0100
0000
0000
,  // measure 104
0000
1000
0000
0000
,  // measure 105
0000
0001
0000
0000
,  // measure 106
0000
0001
0000
0000
,  // measure 107
0000
0100
0000
0000
,  // measure 108
0000
0100
0000
0000
,  // measure 109
0000
0001
0000
0000
,  // measure 110
0000
1000
0000
0000
,  // measure 111
0000
0001
0000
0000
,  // measure 112
0000
1000
0000
0000
,  // measure 113
0000
0001
0000
0000
,  // measure 114
0000
0100
0000
0000
,  // measure 115
0000
0010
0000
0000
,  // measure 116
0000
0100
0000
0000
,  // measure 117
0000
0000
0000
0000
,  // measure 118
0000
0000
0100
0000
,  // measure 119
0000
0000
0100
0000
,  // measure 120
0000
0000
0100
0000
,  // measure 121
0000
0000
0001
0000
,  // measure 122
0000
0000
0001
0000
,  // measure 123
0000
0000
1000
0000
,  // measure 124
0000
0000
1000
0000
,  // measure 125
0000
0000
0100
0000
,  // measure 126
0100
0000
0010
0000
,  // measure 127
0000
0000
0000
0000
,  // measure 128
0000
0000
0000
0000
,  // measure 129
0000
0000
0000
0000
,  // measure 130
0000
0000
0100
0000
,  // measure 131
0000
0000
0000
0000
,  // measure 132
0000
0000
0000
0000
,  // measure 133
0000
0000
0000
0000
,  // measure 134
0000
0000
1000
0000
,  // measure 135
0000
0000
0000
0000
,  // measure 136
0000
0000
0000
0000
,  // measure 137
0000
0000
0000
0000
,  // measure 138
0000
0000
0001
0000
,  // measure 139
0000
0000
0000
0000
,  // measure 140
0000
0000
0000
0000
,  // measure 141
0000
0000
0000
0000
,  // measure 142
0000
0000
1001
0000
,  // measure 143
0000
0000
0010
0000
,  // measure 144
0000
0000
1000
0000
,  // measure 145
0000
0000
0001
0000
,  // measure 146
0000
0000
0000
0001
,  // measure 147
0000
1000
0000
1000
,  // measure 148
0000
0000
0000
0000
0001
1000
0000
0000
0000
0000
0000
0000
0000
0001
0000
0000
,  // measure 149
0000
0000
0000
0000
0000
0001
0000
0000
0000
0000
0000
0000
0000
1000
0000
0000
,  // measure 150
0000
1000
0000
0000
0000
0000
0000
0000
0000
0010
0000
0000
0000
0000
0000
0000
,  // measure 151
0000
0001
0000
0000
0000
0000
0000
0000
0000
0010
0000
0000
0000
0000
0000
0000
,  // measure 152
0000
1001
0000
0000
0000
0100
0000
0000
,  // measure 153
0000
1001
0000
0000
0000
0100
0000
0000
,  // measure 154
0000
0001
0000
0000
0000
0001
0000
0000
,  // measure 155
0000
0100
0000
0000
0000
1000
0000
0000
,  // measure 156
0000
1000
0000
0000
0000
0010
0000
0000
,  // measure 157
0000
0100
0000
0000
,  // measure 158
0010
0000
0000
0010
,  // measure 159
0000
0000
0000
0000
1000
0000
0000
2002
,  // measure 160
0000
0000
0000
0000
0000
0000
0000
0000
0000
0000
0000
0000
0000
0000
0000
0000
0000
0000
0000
0000
0000
0000
0000
0000
0000
0000
0000
3003
0000
0000
0000
0000
;
