#VERSION:0.83;
#TITLE:TRIUMPH;
#SUBTITLE:;
#ARTIST:AJURIKA;
#TITLETRANSLIT:;
#SUBTITLETRANSLIT:;
#ARTISTTRANSLIT:;
#GENRE:;
#ORIGIN:;
#CREDIT:;
#BANNER:TRIUMPH.png;
#BACKGROUND:TRIUMPH-bg.png;
#PREVIEWVID:;
#JACKET:TRIUMPH-jacket.png;
#CDIMAGE:;
#DISCIMAGE:;
#LYRICSPATH:;
#CDTITLE:;
#MUSIC:TRIUMPH.ogg;
#OFFSET:0.298000;
#SAMPLESTART:84.435997;
#SAMPLELENGTH:15.000000;
#SELECTABLE:YES;
#DISPLAYBPM:183.000000;
#BPMS:0.000=183.000;
#STOPS:;
#DELAYS:;
#WARPS:;
#TIMESIGNATURES:0.000=4=4;
#TICKCOUNTS:0.000=4;
#COMBOS:0.000=1;
#SPEEDS:0.000=1.000=0.000=0;
#SCROLLS:0.000=1.000;
#FAKES:;
#LABELS:0.000=Song Start;
#BGCHANGES:3.875=TRIUMPH.avi=1.000=1=0=0=StretchNoLoop==CrossFade==,
99999=-nosongbg-=1.000=0=0=0 // don't automatically add -songbackground-
;
#KEYSOUNDS:;
#ATTACKS:
;

//---------------dance-single - ----------------
#NOTEDATA:;
#CHARTNAME:;
#STEPSTYPE:dance-single;
#DESCRIPTION:;
#CHARTSTYLE:;
#DIFFICULTY:Hard;
#METER:16;
#RADARVALUES:0.783972,0.975457,0.536585,0.422764,0.378049,675.000000,609.000000,66.000000,52.000000,0.000000,0.000000,0.000000,0.000000,0.000000,0.783972,0.975457,0.536585,0.422764,0.378049,675.000000,609.000000,66.000000,52.000000,0.000000,0.000000,0.000000,0.000000,0.000000;
#CREDIT:ohaiimian;
#DISPLAYBPM:0.000000:183.000000;
#NOTES:
0000
0000
0000
0000
,
0000
0000
0000
0000
,
0000
0000
0000
0000
,
0000
0000
0000
0000
,
0000
0000
0000
0000
,
2000
3200
0302
0203
,
2300
0000
0000
3020
0000
0000
0032
0000
0000
0000
0013
0000
0100
0010
0100
0000
,
0002
0000
0000
0023
0000
0000
2030
0000
0000
0000
3010
0000
0001
1000
0001
0000
,
0100
0000
0000
0010
0000
0000
0210
0000
0000
0000
0310
0000
0100
0001
1000
0000
,
1001
0000
1010
0010
0100
0001
0010
0100
,
1000
0000
0010
0000
0100
0000
1000
0100
0001
0000
0000
0000
0101
0000
0000
0000
,
1001
0000
0011
0010
0100
1000
0010
0100
,
0001
0000
0010
0000
0100
0000
0001
0100
1000
0000
0000
0000
1100
0000
0000
0000
,
1001
0000
0101
0100
0010
1000
0100
0010
,
0100
0000
1000
0000
0010
0000
0001
0010
1000
0000
0000
0000
1010
0000
0000
0000
,
1001
0000
1100
0100
0010
0001
0100
0010
,
0100
0000
0001
0000
0010
1000
0010
0001
2000
0000
0000
3200
0000
0000
0320
0000
,
0032
0000
0103
0200
0000
0010
0000
0320
,
0000
0000
1030
0000
1000
0000
0100
0010
0001
0000
0000
0000
0011
0000
0000
0000
,
2000
0000
3010
0020
0000
0100
0000
0230
,
0000
0000
0301
0000
0001
0000
0100
0010
1000
0000
0000
0000
1010
0000
0000
0000
,
0002
0000
0013
0020
0000
0100
0000
0230
,
0000
0000
1300
0000
1000
0000
0010
0100
0001
0000
0000
0000
0101
0000
0000
0000
,
2000
0000
3010
0020
0000
0100
0000
0230
,
0000
0000
0301
0000
0001
0010
0100
1000
0001
0000
0000
0100
0000
0000
0010
0000
,
0100
0000
0010
0100
0001
1000
0100
0000
0010
0000
0000
0000
1001
0000
0000
0000
,
1000
0000
0100
0010
0001
0000
0010
0000
0100
1000
0010
1000
0100
0000
0010
0000
,
0001
0100
1000
0100
0000
0010
0000
1001
,
1000
0000
0001
0000
0010
0000
0100
0000
1000
0000
0001
0000
0100
0001
0100
0001
,
0100
0000
0010
1000
0100
0010
0001
0000
0010
0000
0000
0000
1001
0000
0000
0000
,
0001
0000
0100
0010
1000
0000
0100
0000
0010
0001
0100
0001
0010
0000
0100
0000
,
1000
0010
0001
0010
0000
0100
0000
1001
,
0000
0000
1000
0000
0000
0100
0000
0000
0010
0000
0000
0001
0000
0000
0100
0001
,
0100
0000
0010
1000
0010
0100
0001
0000
0100
0000
0000
0000
1001
0000
0000
0000
,
0001
0000
0100
0010
1000
0000
0010
0000
0100
0001
0010
0001
0100
0000
0010
0000
,
1000
0100
0001
0100
0000
0010
0000
1001
,
0000
0000
1000
0000
0010
0000
0100
0000
0001
0000
1000
0000
0100
1000
0100
1000
,
0100
0000
0010
0001
0010
0100
1000
0000
0100
0000
0000
0000
1001
0000
0000
0000
,
1000
0000
0100
0010
0001
0000
0100
0000
0010
1000
0100
1000
0010
0000
0100
0000
,
0001
0010
1000
0010
0000
0100
0000
1001
,
0000
0000
0001
0000
0000
0100
0000
0000
0010
0000
0000
1000
0000
0000
0100
1000
,
0200
0320
0130
1001
,
0001
0000
0000
0011
0000
0000
0001
0000
1000
0010
0100
0010
1000
0000
0010
0000
,
0200
0000
0301
2000
0000
3100
0000
0100
,
0010
0000
0002
0000
0000
0000
2003
0000
0000
0000
3010
0000
0100
0000
0001
0010
,
0200
0320
0130
1001
,
1000
0000
0000
1010
0000
0000
1000
0000
0001
0010
0100
0010
0001
0000
0100
0000
,
0020
0000
1030
0001
0000
2002
0000
3003
,
0100
0010
0220
0330
,
1000
0020
0001
0000
0100
0000
1030
0100
,
0010
0002
0000
2003
0000
3010
0010
0100
,
0001
0010
0000
0100
1000
0000
0001
0000
,
0100
0010
1000
0002
0000
1003
0100
0010
,
0001
0200
1000
0000
0001
0000
0310
1000
,
0100
0020
0000
0230
0000
1300
1000
0100
,
0010
0000
0001
0100
0000
0010
1000
0100
,
1000
0001
0000
2002
3003
0100
0010
1000
,
0001
0001
0010
0000
0011
0000
1001
0000
,
1000
1000
0010
0000
1010
0000
1001
1000
,
0100
0100
1000
0000
1100
0000
1001
0000
,
0001
0001
0100
0000
0101
0000
1001
0001
,
0010
0100
1000
0010
0100
0001
0010
0100
,
0010
0001
1000
0010
0100
0010
1000
0100
,
0010
0011
0000
0001
1001
0000
1000
1010
,
0000
0110
0000
1002
0000
0010
0010
0013
,
0100
0000
1000
0000
0001
0000
0100
0000
0010
0000
1000
0000
0001
0010
0100
1000
,
0100
0000
0010
0001
0010
0000
1000
0000
0010
0000
0001
1000
0001
0000
0010
0000
,
0100
1000
0010
1010
0000
0101
0000
0110
,
0010
1000
0001
1000
0010
0100
0001
0001
,
1000
0000
0100
0000
0010
0000
0001
0000
1000
0000
0010
0000
0100
0001
1000
0100
,
0010
0001
0000
1001
0000
1000
0010
0100
,
0001
0101
0000
1000
1100
0000
0010
0011
,
0000
0110
0000
2001
0000
0100
0100
3100
,
0010
0000
0010
0000
0001
0000
1000
0000
0100
0000
0010
0000
0001
0100
0010
1000
,
0100
0000
1000
0100
1000
0000
0010
0000
0001
0000
0010
0100
0010
0000
1000
0000
,
0001
1000
0100
1100
0000
0011
0000
0110
,
0010
0010
0001
1000
0100
0010
0001
0001
,
1000
0000
0001
0000
0100
0000
0010
0000
1000
0000
0100
0000
0010
0001
1000
0010
,
0100
0000
0001
0000
0000
0000
1001
0000
0000
0000
1000
0000
0001
0010
0100
1000
,
0100
1100
0000
0010
0011
0000
0001
0101
,
0000
0110
0000
2001
0000
0100
0100
3100
,
1000
0100
0010
0001
1000
0000
0001
0000
1000
0010
0100
0001
1000
0000
0010
0000
,
1000
0100
0010
0001
1000
0000
0001
0000
1000
0010
0100
0001
1000
0000
0010
0000
,
0100
0001
0010
0100
1000
0000
0001
0000
1000
0001
0100
0010
1000
0000
0001
0000
,
1000
0001
0010
0100
1000
0000
0001
0000
0100
0001
1000
0010
0100
0001
0010
0100
,
1000
1000
0001
0001
0010
0010
0100
0100
,
1000
0000
1000
0000
0001
0100
0010
1000
0100
0010
0001
0010
0100
1000
0010
0100
,
0001
0101
0000
1000
1100
0000
0010
0011
,
0000
1001
0000
0210
0000
1300
0100
0001
;

//---------------dance-single - ----------------
#NOTEDATA:;
#CHARTNAME:;
#STEPSTYPE:dance-single;
#DESCRIPTION:;
#CHARTSTYLE:;
#DIFFICULTY:Medium;
#METER:13;
#RADARVALUES:0.602787,0.650305,0.325203,0.227642,0.052846,519.000000,479.000000,40.000000,28.000000,0.000000,0.000000,0.000000,0.000000,0.000000,0.602787,0.650305,0.325203,0.227642,0.052846,519.000000,479.000000,40.000000,28.000000,0.000000,0.000000,0.000000,0.000000,0.000000;
#CREDIT:;
#DISPLAYBPM:183.000000;
#NOTES:
// measure 0
0000
0000
0000
0000
,  // measure 1
0000
0000
0000
0000
,  // measure 2
0000
0000
0000
0000
,  // measure 3
0000
0000
0000
0000
,  // measure 4
0000
0000
0000
0000
,  // measure 5
1000
0100
0010
0001
1000
0100
0010
0001
,  // measure 6
0100
0000
0000
0100
0000
0000
0100
0000
0000
0000
0001
0000
1000
0000
0000
0000
,  // measure 7
0010
0000
0000
0010
0000
0000
0010
0000
0000
0000
1000
0000
0001
0000
0100
0000
,  // measure 8
0010
0000
0000
0100
0000
0000
0220
0000
0000
0000
0000
0000
0330
0000
0000
0000
,  // measure 9
1001
0000
1010
1000
0100
0010
0001
1000
,  // measure 10
0010
0100
0001
0010
0100
0000
0110
0000
,  // measure 11
1001
0000
0011
0001
0010
0100
1000
0010
,  // measure 12
0100
0001
1000
0100
0010
0000
0110
0000
,  // measure 13
1001
0000
0101
0100
0010
1000
0001
0010
,  // measure 14
0100
1000
0010
0100
0001
0000
0011
0000
,  // measure 15
1001
0000
1100
0100
0010
0001
1000
0010
,  // measure 16
0100
0000
0001
0000
1000
0000
0100
0000
0010
0000
0000
0010
0000
0000
0010
0000
,  // measure 17
0002
0000
0013
0200
0000
2300
0000
3002
,  // measure 18
0000
0103
0010
1000
0001
0000
1001
0000
,  // measure 19
2000
0000
3100
0020
0000
0032
0000
2003
,  // measure 20
0000
3010
0100
0001
1000
0000
1001
0000
,  // measure 21
0002
0000
0103
0020
0000
2030
0000
3002
,  // measure 22
0000
0013
0100
1000
0001
0000
1001
0000
,  // measure 23
2000
0000
3010
0200
0000
0302
0000
2003
,  // measure 24
0000
0000
3100
0000
0010
0000
0001
0000
1000
0000
0000
0001
0000
0000
1000
0000
,  // measure 25
0010
0100
0001
0000
0101
0000
0101
0000
,  // measure 26
0100
0000
0000
0100
0000
0000
0100
0000
0010
0000
1000
0000
0010
0000
0000
0000
,  // measure 27
1000
0000
0100
0010
0000
0100
0000
1000
,  // measure 28
0001
0100
0000
0101
0000
0100
0010
0010
,  // measure 29
1000
0100
0010
0000
0011
0000
0011
0000
,  // measure 30
0010
0000
0000
0010
0000
0000
0010
0000
0100
0000
1000
0000
0100
0000
0000
0000
,  // measure 31
0010
0000
0001
0100
0000
0010
0000
0100
,  // measure 32
0000
0000
0010
0000
0000
0010
0000
0000
0010
0000
0000
0000
0100
0000
0001
0000
,  // measure 33
0100
0010
1000
0000
1010
0000
1010
0000
,  // measure 34
0010
0000
0000
0010
0000
0000
0010
0000
0100
0000
0001
0000
0100
0000
0000
0000
,  // measure 35
0001
0000
0100
0010
0000
0100
0000
0001
,  // measure 36
1000
0100
0000
1100
0000
0100
0010
0010
,  // measure 37
0001
0010
0100
0000
1100
0000
1100
0000
,  // measure 38
0100
0000
0000
0100
0000
0000
0100
0000
0010
0000
0001
0000
0010
0000
0000
0000
,  // measure 39
0100
0000
1000
0010
0000
0100
0000
0010
,  // measure 40
0000
0000
0100
0000
0000
0100
0000
0000
0100
0000
0000
0000
0010
0000
0000
0000
,  // measure 41
2000
0100
3001
1001
,  // measure 42
0002
0000
0000
0100
0000
0000
0103
0000
0001
0000
0000
0000
0101
0000
0000
0000
,  // measure 43
2000
0000
3100
0010
0000
1001
0000
0000
,  // measure 44
0001
0000
0100
0000
0010
1000
0000
1000
,  // measure 45
0002
0010
1003
1001
,  // measure 46
2000
0000
0000
0010
0000
0000
3010
0000
1000
0000
0000
0000
1001
0000
0000
0000
,  // measure 47
0002
0000
0103
0010
0000
0220
0000
0330
,  // measure 48
1000
0001
2002
3003
,  // measure 49
1000
0100
1000
0000
0100
0000
0100
0000
,  // measure 50
0010
0010
0001
0001
,  // measure 51
0100
0100
0010
0010
,  // measure 52
1000
1000
0001
0001
,  // measure 53
0010
0100
0010
0000
0001
0000
0001
0000
,  // measure 54
1000
1000
0010
0010
,  // measure 55
0100
0000
0100
0000
0001
0000
0001
0010
,  // measure 56
0100
0010
0100
1000
0001
0000
0001
0000
,  // measure 57
1000
0010
1000
0000
0001
0000
0001
0000
,  // measure 58
0010
0001
0010
0000
0100
0000
0100
0000
,  // measure 59
1000
0100
1000
0000
0010
0000
0010
0000
,  // measure 60
0100
0001
0100
0000
0010
0000
0010
1000
,  // measure 61
0001
0010
0001
0010
0100
1000
0100
1000
,  // measure 62
0010
0100
0010
0100
0001
1000
0001
1000
,  // measure 63
0100
0010
0000
0001
1000
0000
0010
0100
,  // measure 64
0000
0110
0000
1001
0000
1000
0001
1000
,  // measure 65
0010
0100
0001
0000
0101
0000
0001
0100
,  // measure 66
1000
0100
0010
1000
0000
0100
0010
0001
,  // measure 67
1000
0010
0100
0010
0001
0010
1000
0100
,  // measure 68
0010
0001
0100
0010
0100
1000
0100
0001
,  // measure 69
1000
0100
0010
0000
0011
0000
0001
1000
,  // measure 70
0010
1000
0010
0100
0000
0001
0010
0100
,  // measure 71
1000
0100
0000
0010
0001
0000
0100
0010
,  // measure 72
0000
1000
0000
0001
0000
1000
0001
0100
,  // measure 73
0010
0010
1000
0000
1010
0000
1000
0010
,  // measure 74
0001
0010
0100
0001
0000
0010
0100
1000
,  // measure 75
0001
0100
0010
0100
1000
0100
0001
0010
,  // measure 76
0100
1000
0010
0100
0010
0001
0010
1000
,  // measure 77
0001
0010
0100
0000
1100
0000
1000
0001
,  // measure 78
0100
0001
0100
0010
0000
1000
0100
0010
,  // measure 79
0001
0010
0000
0100
1000
0000
0010
0100
,  // measure 80
0000
0001
0000
1000
0000
0100
0010
0100
,  // measure 81
0010
0001
0100
0000
0010
1000
0100
0000
,  // measure 82
1000
0100
0001
0000
0001
0100
1000
0000
,  // measure 83
1000
0010
0001
0000
0001
0010
1000
0000
,  // measure 84
0001
0010
1000
0010
0001
0100
0010
0010
,  // measure 85
1000
0100
0010
0001
0010
0100
1000
0001
,  // measure 86
0100
0010
1000
0010
0100
0001
1000
0100
,  // measure 87
0010
0001
0000
1000
0010
0000
0100
0010
,  // measure 88
0000
0110
0000
1001
0000
0001
0010
0100
;

//---------------dance-single - ----------------
#NOTEDATA:;
#CHARTNAME:;
#STEPSTYPE:dance-single;
#DESCRIPTION:;
#CHARTSTYLE:;
#DIFFICULTY:Easy;
#METER:7;
#RADARVALUES:0.267131,0.397409,0.048780,0.178862,0.000000,230.000000,224.000000,6.000000,22.000000,0.000000,0.000000,0.000000,0.000000,0.000000,0.267131,0.397409,0.048780,0.178862,0.000000,230.000000,224.000000,6.000000,22.000000,0.000000,0.000000,0.000000,0.000000,0.000000;
#CREDIT:;
#DISPLAYBPM:183.000000;
#NOTES:
0000
0000
0000
0000
,
0000
0000
0000
0000
,
0000
0000
0000
0000
,
0000
0000
0000
0000
,
0000
0000
0000
0000
,
1000
0100
0010
0001
,
0100
0000
0000
0100
0000
0000
0010
0000
,
1000
0000
0000
1000
0000
0000
0001
0000
,
0001
0000
0000
0001
0000
0000
0000
0000
,
1001
0001
0010
0100
,
1000
0010
0100
0100
,
0110
0010
1000
0100
,
0010
0001
0100
0100
,
0110
0010
1000
0100
,
0010
0001
1000
1001
,
0001
0010
0100
1000
,
0001
0100
0010
1000
,
0002
0000
0000
0000
,
2003
0000
0000
0000
,
3020
0000
0000
0000
,
0230
0000
0000
0000
,
0302
0000
0010
0000
,
2003
0000
0010
0000
,
3200
0000
0010
0000
,
2300
0000
0001
0000
,
3001
0000
1000
0000
,
0100
0100
0100
0000
,
0010
0000
0001
0000
,
1000
0000
0010
0000
,
0100
0000
0001
0000
,
0010
0010
0010
0000
,
0100
0000
1000
0000
,
0001
0000
0100
0000
,
0110
0000
1000
0000
,
0001
0001
0001
0000
,
1000
1000
1000
0000
,
0010
0010
0010
0100
,
0001
0000
0010
0000
,
0100
0100
0100
0000
,
0010
0010
0010
0000
,
0100
0100
0100
0010
,
0002
0000
0103
0000
,
2000
0000
3100
0000
,
0020
0000
0130
0000
,
0100
0000
0010
0000
,
0002
0000
0013
0000
,
2000
0000
3010
0000
,
0200
0000
0310
0000
,
0100
0000
0110
0000
,
0001
0000
1000
0000
,
0001
0000
1000
0000
,
0010
0000
0100
0000
,
0010
0000
0100
0000
,
0001
0000
0010
0000
,
0100
0000
0010
0000
,
0001
0000
1000
0000
,
0010
0000
0100
0000
,
0010
0010
1000
0000
,
1000
1000
0001
0000
,
0001
0001
0100
0000
,
0100
0100
0010
0000
,
1000
1000
0100
0000
,
0100
0100
0010
0000
,
0010
0000
0000
0010
0000
0000
0010
0000
,
0000
0020
0000
0200
0000
0000
0330
0000
,
0001
0100
0001
0000
,
1000
0100
1000
0100
,
0010
0000
0010
0000
,
0001
0001
0001
0000
,
1000
0010
1000
0000
,
0001
0010
0001
0010
,
0100
0000
0100
0000
,
1000
1000
1000
0010
,
0100
0100
0100
0000
,
0001
0001
0001
0000
,
0010
0010
0010
0000
,
1000
1000
1000
0000
,
0100
0010
0100
0000
,
1000
0001
1000
0000
,
0100
0000
0000
0100
0000
0000
0100
0000
,
0000
0200
0000
0020
0000
0000
0330
0000
,
0001
0100
0010
1000
,
0001
0100
0010
1000
,
1000
0100
0010
0001
,
1000
0100
0010
0001
,
2000
0000
3000
0000
,
0002
0000
0003
0000
,
1000
0000
0000
0001
0000
0000
1000
0000
,
0000
0002
0000
2000
0000
0000
0000
3003
;

//---------------dance-single - ----------------
#NOTEDATA:;
#CHARTNAME:;
#STEPSTYPE:dance-single;
#DESCRIPTION:;
#CHARTSTYLE:;
#DIFFICULTY:Beginner;
#METER:3;
#RADARVALUES:0.111498,0.215854,0.040650,0.056911,0.000000,96.000000,91.000000,5.000000,7.000000,0.000000,0.000000,0.000000,0.000000,0.000000,0.111498,0.215854,0.040650,0.056911,0.000000,96.000000,91.000000,5.000000,7.000000,0.000000,0.000000,0.000000,0.000000,0.000000;
#CREDIT:;
#DISPLAYBPM:183.000000;
#NOTES:
0000
0000
0000
0000
,
0000
0000
0000
0000
,
0000
0000
0000
0000
,
0000
0000
0000
0000
,
0000
0000
0000
0000
,
0000
0000
0000
0000
,
0000
0000
0000
0000
,
0000
0000
0000
0000
,
0000
0000
0000
0000
,
1000
0000
1000
0000
,
1000
0000
0000
0000
,
0001
0000
0001
0000
,
0001
0000
0000
0000
,
0100
0000
0100
0000
,
0100
0000
0000
0000
,
0010
0000
0010
0000
,
0010
0000
0000
0000
,
2000
0000
0000
0000
,
3000
0000
0000
0000
,
0002
0000
0000
0000
,
0003
0000
0000
0000
,
0020
0000
0000
0000
,
0030
0000
0000
0000
,
0200
0000
0000
0000
,
0300
0000
0000
0000
,
0010
0000
0000
0000
,
0010
0000
0000
0000
,
0010
0000
0000
0000
,
0000
0000
0000
0000
,
0001
0000
0000
0000
,
0001
0000
0000
0000
,
0001
0000
0000
0000
,
0000
0000
0000
0000
,
1000
0000
0000
0000
,
1000
0000
0000
0000
,
1000
0000
0000
0000
,
0000
0000
0000
0000
,
0100
0000
0000
0000
,
0100
0000
0000
0000
,
0100
0000
0000
0000
,
0200
0000
0300
0000
,
0001
0000
0000
0000
,
1000
0000
0000
0000
,
0001
0000
0000
0000
,
1000
0000
0000
0000
,
0010
0000
0000
0000
,
0100
0000
0000
0000
,
0010
0000
0000
0000
,
0100
0000
0000
0000
,
0001
0000
0000
0000
,
1000
0000
1000
0000
,
1000
0000
0000
0000
,
0010
0000
0000
0000
,
0100
0000
0000
0000
,
0001
0000
0001
0000
,
0001
0000
0000
0000
,
0010
0000
0000
0000
,
0100
0000
0000
0000
,
1000
0000
0000
0000
,
0001
0000
0000
0000
,
0100
0000
0000
0000
,
0010
0000
0000
0000
,
0100
0000
0000
0000
,
0001
0000
0000
0000
,
1000
0000
0000
0000
,
1001
0000
0000
0000
,
0001
0000
1000
0000
,
1001
0000
0000
0000
,
0100
0000
0010
0000
,
0110
0000
0000
0000
,
0010
0000
0100
0000
,
0110
0000
0000
0000
,
0000
0000
0000
0000
,
1000
0000
0100
0000
,
0010
0000
0000
0000
,
0001
0000
0100
0000
,
0010
0000
0000
0000
,
1000
0000
0010
0000
,
0100
0000
0000
0000
,
0001
0000
0010
0000
,
0100
0000
0000
0000
,
1000
0000
1000
0000
,
0001
0000
0001
0000
,
0010
0000
0010
0000
,
0100
0000
0100
0000
,
2000
0000
3000
0000
,
0002
0000
0003
0000
,
1000
0000
0001
0000
,
1000
0000
1001
0000
;
