#TITLE:One Kiss;
#SUBTITLE:;
#ARTIST:Calvin Harris & Dua Lipa;
#TITLETRANSLIT:;
#SUBTITLETRANSLIT:;
#ARTISTTRANSLIT:;
#GENRE:;
#CREDIT:;
#BANNER:One Kiss.png;
#BACKGROUND:One Kiss-bg.png;
#LYRICSPATH:;
#CDTITLE:;
#MUSIC:One Kiss.ogg;
#OFFSET:1.856000;
#SAMPLESTART:54.271000;
#SAMPLELENGTH:15.484000;
#LASTBEATHINT:1.767424;
#SELECTABLE:YES;
#DISPLAYBPM:124.000000;
#BPMS:0.000000=124.000000
;
#STOPS:180.000000=1.452000
;
#BGCHANGES:;
#KEYSOUNDS:;
#ATTACKS:;

//---------------dance-single - ----------------
#NOTES:
     dance-single:
     :
     Hard:
     11:
     0.387658,0.419415,0.049189,0.016396,0.131171,331.000000,325.000000,6.000000,2.000000,0.000000,0.000000,0.387658,0.419415,0.049189,0.016396,0.131171,331.000000,325.000000,6.000000,2.000000,0.000000,0.000000:
0000
0000
0000
0000
,
0000
0000
0000
0000
,
0000
0000
0000
0000
,
0000
0000
0000
0000
,
0000
0000
0000
0000
,
0001
0000
0100
0000
0010
0000
1000
0100
,
0010
0000
0001
0000
1000
0000
0100
1000
,
0001
0000
0100
0000
0010
0000
1000
0001
,
0100
0000
0001
0100
0010
0000
1000
0100
,
0010
0000
0001
0000
1000
0000
0010
0100
,
0001
0000
0100
0000
0010
0000
1000
0001
,
0010
0000
0100
0000
1000
0000
0001
0010
,
0100
0000
1000
0010
0100
0000
0001
0010
,
0100
0010
0001
1000
0001
0100
0010
0100
,
0001
0000
0100
0000
0010
0000
0100
0001
,
0010
0100
1000
0010
0100
0001
1000
0100
,
0010
0000
0001
1000
0100
0000
0010
0001
,
0100
0010
1000
0001
0010
0100
1000
0100
,
0010
0000
0001
0000
0100
0000
0010
1000
,
0100
0010
0001
0100
0010
1000
0001
0010
,
0100
0000
0010
0001
0100
0000
0010
1000
,
0100
0100
0100
0100
,
1000
1000
1000
1000
,
0010
0010
0010
0010
,
0100
0100
0100
0100
,
0001
0010
0100
2000
,
0002
0000
0000
0000
3003
0000
0001
0100
,
0010
0000
0000
0000
0100
0000
0000
0000
0000
0000
0000
0001
0010
0000
0010
0100
,
0000
0000
0000
1000
0010
0000
0010
0100
0000
0000
0001
0000
1000
0000
0000
0000
,
1001
0000
0000
0001
0000
0000
0100
0000
0010
0000
1000
0000
0100
0000
1000
0000
,
0100
0000
0000
1000
0000
0100
0010
0000
0100
0000
1000
0000
0100
0000
0010
0000
,
0001
0000
0000
0001
0000
0000
0100
0000
0010
0000
0100
0000
0001
0000
0000
0000
,
0010
0000
0000
0100
0000
0000
1000
0000
0001
0000
0000
0100
0000
0000
0010
0000
,
1000
0000
0000
1000
0000
0000
0100
0000
0010
0000
0001
0000
0010
0000
0001
0000
,
0100
0000
0000
0001
0000
0100
0010
0000
0100
0000
0001
0000
0010
0000
0100
0000
,
1000
0000
0000
1000
0000
0000
0100
0000
0010
0000
0100
0000
1000
0000
0000
0000
,
0010
0000
0000
0100
0000
0000
0001
0000
1000
0000
0000
0100
0000
0000
1000
0000
,
1001
1000
0100
0010
,
0001
0100
0010
1000
0100
0010
0001
0001
,
0100
0010
1000
0001
,
1000
0000
0000
0100
0000
0000
0010
0000
0001
0000
0100
0000
1000
0000
0000
0000
,
1001
0001
0100
0010
,
1000
0100
0010
0001
0100
0010
1000
1000
,
0100
0010
0001
1000
,
0001
0000
0000
0100
0000
0000
0010
0000
1000
0000
0100
0000
0001
0000
0000
0000
,
1001
0000
1000
0000
0001
0000
0000
0001
0000
0001
1000
0000
0100
0000
0010
0000
,
0001
0000
0100
0000
0010
0000
0000
1000
0000
0000
0001
0000
0100
0000
0010
0000
,
1000
0000
0000
0000
0001
0000
0000
0010
0000
0000
0010
0000
0100
0000
0000
0100
,
0000
0000
1000
0000
0001
0000
0000
1000
0000
0000
1000
0000
0100
0000
0010
0000
,
0001
0000
1000
0000
0001
0000
0000
1000
0000
1000
0001
0000
0100
0000
0010
0000
,
1000
0000
0100
0000
0010
0000
0000
0100
0000
0000
1000
0000
0010
0000
0100
0000
,
0001
0000
0000
0000
1000
0000
0000
0100
0000
0000
0100
0000
0010
0000
0000
0010
,
0000
0001
1001
0000
1000
0000
0001
0000
,
0100
0000
0010
1000
0100
0010
0001
0100
,
0010
0010
0100
0000
0001
0000
1000
0000
,
0100
0000
0000
0000
0010
0000
0000
0001
0000
0000
1000
0000
0010
0000
1000
0000
,
0001
1000
1001
0000
0001
0000
1000
0000
,
0100
0000
0010
0001
0100
0010
1000
0010
,
0100
0100
0010
0000
1000
0000
0100
0000
,
0010
0000
0000
0000
0100
0000
0000
1000
0000
0000
0001
0000
1000
0000
0001
0000
,
0100
0000
0010
0100
0000
0000
0000
0000
0000
0000
0000
0000
0000
0000
0000
0000
;

//---------------dance-single - ----------------
#NOTES:
     dance-single:
     :
     Medium:
     9:
     0.326757,0.344324,0.049189,0.000000,0.000000,279.000000,273.000000,6.000000,0.000000,0.000000,0.000000,0.326757,0.344324,0.049189,0.000000,0.000000,279.000000,273.000000,6.000000,0.000000,0.000000,0.000000:
// measure 0
0000
0000
0000
0000
,  // measure 1
0000
0000
0000
0000
,  // measure 2
0000
0000
0000
0000
,  // measure 3
0000
0000
0000
0000
,  // measure 4
0000
0000
0000
0000
,  // measure 5
1000
0000
0001
0000
1000
0000
0001
1000
,  // measure 6
0001
0000
1000
0000
0001
0000
1000
0010
,  // measure 7
0100
0000
0010
0000
0100
0000
0010
0100
,  // measure 8
0010
0000
0100
0010
1000
0000
0100
0010
,  // measure 9
0001
0000
0100
0000
0001
0000
0100
0001
,  // measure 10
0100
0000
0010
0000
1000
0000
0010
0100
,  // measure 11
0010
0000
0100
0000
0010
0000
0100
0001
,  // measure 12
1000
0000
0100
0010
0001
0000
1000
0001
,  // measure 13
1000
0000
0100
0000
0010
0000
0001
0010
,  // measure 14
0001
0000
0100
0000
0010
0000
1000
0010
,  // measure 15
1000
0000
0100
0000
0010
0000
0100
1000
,  // measure 16
0100
0000
0010
0001
0010
0000
0001
0100
,  // measure 17
0001
0000
0010
0000
0100
0000
1000
0100
,  // measure 18
1000
0000
0010
0000
0100
0000
0001
0100
,  // measure 19
0001
0000
0010
0000
0100
0000
0010
0001
,  // measure 20
0010
0000
0001
0100
0001
0000
1000
0010
,  // measure 21
1000
0001
1000
0001
,  // measure 22
0100
0010
0100
0010
,  // measure 23
1000
0100
0010
0100
,  // measure 24
1000
0001
0100
0010
,  // measure 25
0100
0001
0010
0100
,  // measure 26
1000
0100
0010
0001
,  // measure 27
1000
0000
1000
0000
0001
0000
0001
1000
,  // measure 28
0100
0000
1000
0001
0100
0000
1001
0000
,  // measure 29
0001
0000
1000
0000
0100
1000
0100
0000
,  // measure 30
0010
0000
0001
0000
0100
0001
0100
0000
,  // measure 31
0010
0000
1000
0000
0001
1000
0001
0000
,  // measure 32
1000
1000
0001
0001
,  // measure 33
1000
0000
0001
0000
0010
0001
0010
0000
,  // measure 34
0100
0000
1000
0000
0010
1000
0010
0000
,  // measure 35
0100
0000
0001
0000
1000
0001
1000
0000
,  // measure 36
0100
0100
0010
0010
,  // measure 37
0110
0010
0001
1000
,  // measure 38
0010
0100
0001
0000
0010
0100
1000
0000
,  // measure 39
0001
0100
0010
1000
,  // measure 40
0001
0000
0001
0000
1000
0100
1000
0000
,  // measure 41
0100
1000
0001
0010
,  // measure 42
0100
0010
0001
0000
0100
0010
1000
0000
,  // measure 43
0100
0010
0001
1000
,  // measure 44
0010
0000
0010
0000
0100
0001
1000
0000
,  // measure 45
0001
0000
1001
0000
0001
0010
0100
1000
,  // measure 46
0100
0000
0010
0000
0001
1000
0001
1000
,  // measure 47
0001
0100
0100
0010
,  // measure 48
0010
0000
1001
0000
0001
0000
0010
0001
,  // measure 49
1000
0000
0100
0000
0010
0001
1000
0010
,  // measure 50
0100
0000
0001
0000
1000
0001
1000
0001
,  // measure 51
1000
0010
0010
0100
,  // measure 52
0100
0110
0010
1000
,  // measure 53
0100
0000
0010
0001
0100
0010
1000
0001
,  // measure 54
1000
0100
0010
0001
,  // measure 55
0100
0000
0010
0000
0010
0000
0100
0001
,  // measure 56
0010
0110
0100
1000
,  // measure 57
0010
0000
0100
0010
1000
0001
0010
0100
,  // measure 58
1000
0001
1000
0000
0010
0000
0100
0000
,  // measure 59
0001
0000
1000
0000
1000
0000
0100
0010
,  // measure 60
0001
0000
0000
0000
;

//---------------dance-single - ----------------
#NOTES:
     dance-single:
     :
     Easy:
     4:
     0.214324,0.221351,0.000000,0.000000,0.000000,183.000000,183.000000,0.000000,0.000000,0.000000,0.000000,0.214324,0.221351,0.000000,0.000000,0.000000,183.000000,183.000000,0.000000,0.000000,0.000000,0.000000:
0000
0000
0000
0000
,
0000
0000
0000
0000
,
0000
0000
0000
0000
,
0000
0000
0000
0000
,
0000
0000
0000
0000
,
1000
1000
1000
0000
,
0001
0001
0001
0000
,
0100
0100
0100
0000
,
0010
0000
0010
0000
,
1000
0100
1000
0000
,
0001
0100
0001
0000
,
0100
0010
0100
0000
,
0010
0000
0010
0000
,
1000
0100
0010
0001
,
0100
0010
1000
0001
,
0010
0010
0100
0100
,
1000
0000
0001
0000
,
0100
0010
1000
0001
,
1000
0100
0010
0001
,
0100
0100
0010
0010
,
0100
0000
0010
0000
,
1000
0000
0001
0000
,
1000
0000
0010
0000
,
0100
0000
0001
0000
,
1000
0000
0100
0000
,
0010
0001
0100
0000
,
0010
1000
0100
0000
,
0010
0000
0010
0000
,
1000
1000
0001
0001
,
1000
0100
1000
0100
,
0010
0001
0010
0001
,
0100
0001
0100
0001
,
1000
0010
1000
0010
,
0100
0100
0010
0010
,
1000
1000
0001
0001
,
0010
0100
1000
0001
,
0100
0100
0010
0010
,
1000
0000
1000
0000
,
0001
0001
0001
0000
,
0010
0000
0010
0000
,
0100
0100
0100
0000
,
0001
0000
0001
0000
,
1000
1000
1000
0000
,
0100
0000
0100
0000
,
0010
0010
0010
0000
,
0001
0001
0100
0010
,
0010
1000
0100
0010
,
0001
1000
1000
0001
,
0001
0100
0010
1000
,
1000
0100
0010
0001
,
0001
0100
0010
0100
,
0010
0100
0100
0010
,
0010
1000
0100
1000
,
0010
1000
0100
0100
,
0010
0010
0001
0100
,
0001
0010
0001
0010
,
0010
0100
1000
0100
,
0010
0100
1000
1000
,
0001
0001
0100
0010
,
0100
0001
0010
0100
,
1000
0000
0000
0000
;

//---------------dance-single - ----------------
#NOTES:
     dance-single:
     :
     Beginner:
     2:
     0.101892,0.122461,0.000000,0.000000,0.000000,87.000000,87.000000,0.000000,0.000000,0.000000,0.000000,0.101892,0.122461,0.000000,0.000000,0.000000,87.000000,87.000000,0.000000,0.000000,0.000000,0.000000:
0000
0000
0000
0000
,
0000
0000
0000
0000
,
0000
0000
0000
0000
,
0000
0000
0000
0000
,
0000
0000
0000
0000
,
1000
0000
0000
0000
,
0001
0000
0000
0000
,
0100
0000
0000
0000
,
0010
0000
1000
0000
,
0001
0000
0000
0000
,
1000
0000
0000
0000
,
0010
0000
0000
0000
,
0100
0000
0001
0000
,
1000
0000
1000
0000
,
1000
0000
0000
0000
,
0001
0000
0001
0000
,
0001
0000
1000
0000
,
0010
0000
0010
0000
,
0010
0000
0000
0000
,
0100
0000
0100
0000
,
0100
0000
0001
0000
,
1000
0000
0000
0000
,
1000
0000
0000
0000
,
0001
0000
0000
0000
,
0001
0000
0000
0000
,
0100
0000
0000
0000
,
0100
0000
0000
0000
,
0010
0000
0000
0000
,
0010
0000
0010
0000
,
1000
0000
0100
0000
,
1000
0000
0001
0000
,
0100
0000
0001
0000
,
0010
0000
0010
0000
,
0100
0000
1000
0000
,
0010
0000
0100
0000
,
0001
0000
0010
0000
,
0100
0000
0100
0000
,
1000
0000
0000
0000
,
0001
0000
0010
0000
,
0001
0000
0000
0000
,
1000
0000
0010
0000
,
0100
0000
0000
0000
,
0100
0000
0001
0000
,
0010
0000
0000
0000
,
0010
0000
0100
0000
,
1000
0000
0000
0001
,
0000
1000
0000
0001
,
0000
0100
0000
0100
,
0000
0010
0000
0010
,
0000
1000
0000
1000
,
0000
0001
0000
0001
,
0000
0010
0000
0100
,
0000
1000
0000
0000
,
0000
1000
0000
0001
,
0000
0100
0000
0000
,
0000
0100
0000
0010
,
0000
1000
0000
0000
,
0000
1000
0000
0001
,
0000
0010
0000
0000
,
0000
0010
0000
0100
;
