#VERSION:0.83;
#TITLE:みたらしプラトニック;
#SUBTITLE:;
#ARTIST:Yunomi feat. nicamoq;
#TITLETRANSLIT:Mitarashi platonic;
#SUBTITLETRANSLIT:;
#ARTISTTRANSLIT:;
#GENRE:;
#ORIGIN:;
#CREDIT:;
#BANNER:Mitarashi platonic.png;
#BACKGROUND:Mitarashi platonic-bg.png;
#PREVIEWVID:;
#JACKET:Mitarashi platonic-jacket.png;
#CDIMAGE:;
#DISCIMAGE:;
#LYRICSPATH:;
#CDTITLE:;
#MUSIC:Mitarashi platonic.ogg;
#OFFSET:-0.061000;
#SAMPLESTART:79.555885;
#SAMPLELENGTH:12.000000;
#SELECTABLE:YES;
#DISPLAYBPM:80.000000:160.000000;
#BPMS:0.000=160.000,
52.000=80.000,
68.000=160.000,
260.000=80.000;
#STOPS:;
#DELAYS:;
#WARPS:;
#TIMESIGNATURES:0.000=4=4;
#TICKCOUNTS:0.000=4;
#COMBOS:0.000=1;
#SPEEDS:0.000=1.000=0.000=0;
#SCROLLS:0.000=1.000;
#FAKES:;
#LABELS:0.000=Song Start;
#BGCHANGES:;
#KEYSOUNDS:;
#ATTACKS:
;

//---------------dance-single - ----------------
#NOTEDATA:;
#CHARTNAME:;
#STEPSTYPE:dance-single;
#DESCRIPTION:;
#CHARTSTYLE:;
#DIFFICULTY:Hard;
#METER:11;
#RADARVALUES:0.516917,0.782831,0.261471,0.430162,0.210864,429.000000,398.000000,31.000000,51.000000,0.000000,0.000000,0.000000,0.000000,0.000000,0.516917,0.782831,0.261471,0.430162,0.210864,429.000000,398.000000,31.000000,51.000000,0.000000,0.000000,0.000000,0.000000,0.000000;
#CREDIT:ohaiimian;
#DISPLAYBPM:80.000000:160.000000;
#NOTES:
0000
0000
0000
0000
,
0000
0000
0000
0000
,
0000
0000
0000
0000
,
0000
0000
0000
0000
,
0000
0000
0000
0000
,
2000
0010
0001
0100
,
3002
0010
1000
0103
,
0020
1000
0100
0001
,
0230
1000
0010
0001
,
1300
0000
0000
0100
0000
0000
1000
0000
0100
0000
0000
0010
0000
0000
0010
0000
,
0001
0000
0000
0100
0000
0000
0001
0000
0100
0000
0000
0010
0000
0000
0010
0000
,
1000
0100
0010
0001
0100
0010
1000
0001
,
0020
0000
0000
0000
0000
0031
1001
0000
,
2100
0000
0000
0001
3200
0000
0000
0310
0001
0100
0010
0100
0001
0010
0100
1000
,
1020
0000
0000
0130
2000
0000
0000
3010
0100
0001
0010
0100
1000
0000
0110
0000
,
0012
0000
0000
1000
0023
0000
0000
0031
1000
0100
0010
0100
1000
0010
0100
0001
,
0201
0000
0000
0010
0302
0000
0000
0013
0100
1000
0010
0100
0001
0000
1001
0000
,
2000
0000
3001
0100
0002
0000
1003
0100
,
1000
0001
0100
0001
1000
0001
0001
0100
,
0002
0000
1003
0010
2000
0000
3001
0100
,
0010
1000
0100
0010
0001
0000
1100
0000
,
0002
0000
1003
0100
2000
0000
3001
0100
,
0001
1000
0100
1000
0001
1000
1000
0100
,
2000
0000
3001
0010
0002
0000
1003
0100
,
0110
0011
1010
0020
,
0030
0000
0000
0000
,
0100
0000
0000
0100
0000
0000
0100
0000
0001
0000
1000
0000
0100
0000
0000
0000
,
0010
0010
0001
0001
,
1000
0010
1000
0010
0200
0000
0300
0000
,
0001
0010
0100
0000
0010
0100
1000
0000
,
0010
0000
0000
0010
0000
0000
0010
0000
0100
0000
0001
0000
1000
0000
0000
0000
,
0100
0100
1000
1000
,
0001
0100
0001
0100
0020
0000
0130
0000
,
0001
0100
0010
0000
1000
0100
0010
0000
,
0010
0001
1000
0100
0010
0100
1000
0000
,
0010
0100
0001
0000
0010
0100
1000
0000
,
0001
1000
0100
1000
0010
0100
0001
0000
,
1000
0100
0010
0000
0001
0100
0010
0000
,
0010
1000
0001
0010
0100
0010
0001
0000
,
0100
0010
1000
0000
0100
0010
0001
0000
,
1000
0001
0100
0001
0010
0000
0000
0000
,
1002
0000
0203
0000
0320
0000
0130
0010
,
2000
3200
0310
0000
,
2001
0000
3020
0000
0230
0000
0310
0100
,
0002
0000
0023
0000
0130
1000
0100
0010
,
0001
0000
0000
0001
0000
0000
0001
0000
0100
0000
0000
0100
0000
0000
0100
0000
,
0010
0000
0000
0010
0000
0000
0010
0000
1000
0000
0000
1000
0000
0000
1000
0000
,
0100
0010
0001
1000
0010
0100
0001
1000
,
0200
0001
1300
0110
,
0010
0001
0010
0000
0001
0100
0001
0000
,
0100
1000
0100
0000
1000
0010
1000
0000
,
1000
0010
0001
0000
0001
0100
1000
0000
,
0110
1001
0220
0330
,
0010
1000
0010
0000
1000
0100
1000
0000
,
0100
0001
0100
0000
0001
0010
0001
0000
,
0001
0010
1000
0000
1000
0100
0001
0000
,
1001
0110
2002
3003
,
0001
0010
0100
0001
0010
0100
0001
0010
,
1000
0100
0010
1000
0100
0010
1000
0100
,
0010
1000
0100
0000
0100
0001
0010
0000
,
0110
1001
0220
0330
,
1000
0010
0100
1000
0010
0100
1000
0010
,
0001
0100
0010
0001
0100
0010
0001
0100
,
0010
0001
0100
0000
0100
1000
0010
0000
,
0110
1001
0220
0330
,
2010
0000
0000
0001
3020
0000
0000
0130
0001
0010
0100
0010
0001
1000
0010
0100
,
0102
0000
0000
1000
0203
0000
0000
0310
1000
0100
0010
0100
1000
0000
1001
0000
,
0012
0000
0000
1000
0023
0000
0000
0130
1000
0010
0100
0010
1000
0100
0010
0100
,
2100
0000
0000
0001
3200
0000
0000
0310
0001
0100
1000
0010
0001
0000
0000
0000
;

//---------------dance-single - ----------------
#NOTEDATA:;
#CHARTNAME:;
#STEPSTYPE:dance-single;
#DESCRIPTION:;
#CHARTSTYLE:;
#DIFFICULTY:Challenge;
#METER:15;
#RADARVALUES:0.698863,1.014782,0.227733,0.379555,0.510290,580.000000,553.000000,27.000000,45.000000,0.000000,0.000000,0.000000,0.000000,0.000000,0.698863,1.014782,0.227733,0.379555,0.510290,580.000000,553.000000,27.000000,45.000000,0.000000,0.000000,0.000000,0.000000,0.000000;
#CREDIT:ohaiimian;
#DISPLAYBPM:80.000000:160.000000;
#NOTES:
0000
0000
0000
0000
,
0000
0000
0000
0000
,
0000
0000
0000
0000
,
0000
0000
0000
0000
,
0001
0000
1000
0010
1000
0000
0001
0010
0001
0000
0000
0000
1100
0000
0000
0000
,
0100
0000
0000
0100
1000
0000
0000
1000
0010
0000
0000
0010
0100
0000
0000
0100
,
0001
0010
0100
0010
0001
0100
0010
0100
,
0001
0000
0000
0001
0010
0000
0000
0010
0100
0000
0000
0100
1000
0000
0000
1000
,
0100
0010
0100
1000
0010
0100
0010
1000
,
0001
0000
0000
0010
0100
0000
1000
0000
0010
0000
0000
0010
0100
0000
0001
0000
,
0010
0000
0000
0010
0100
0000
1000
0000
0001
0000
0000
0100
0010
0000
1000
0000
,
0001
0010
0001
0010
0100
1000
0100
1000
0010
0100
0010
0100
0001
1000
0001
1000
,
0100
0010
0001
1000
0010
0100
2002
3003
,
0201
0000
0000
0000
0310
0000
0200
0000
0001
0000
0000
0000
1300
0000
0100
0000
0001
0000
0100
0000
0010
0000
1000
0000
0001
0000
1000
0100
0010
0000
0100
0000
,
1200
0000
0310
0200
1000
0000
0310
0001
0100
1000
0100
0001
1000
0000
1001
0000
,
0021
0000
0000
0000
0130
0000
0020
0000
0001
0000
0000
0000
1030
0000
0010
0000
0001
0000
0010
0000
0100
0000
1000
0000
0001
0000
0100
0010
1000
0000
0010
0000
,
1020
0000
0130
0020
1000
0000
0031
0010
1000
0100
0001
0100
1000
0000
1001
0000
,
0200
0000
0000
0301
0100
0000
0010
0000
0200
0000
0000
0301
0100
0000
0010
0000
,
1000
0000
0100
1000
0100
0000
0010
0000
0001
0000
0100
0010
1000
0000
0100
0000
,
0200
0000
0000
1300
0100
0000
0010
0000
0200
0000
0000
1300
0100
0000
0010
0000
,
0001
0000
1000
0001
0000
1000
0001
0000
0100
0000
0010
0100
0010
0000
0100
0000
,
0002
0000
0000
1003
0100
0000
0010
0000
0002
0000
0000
1003
0100
0000
0010
0000
,
0100
0000
1000
0010
1000
0000
0010
0000
0100
0000
0001
0010
0001
0000
0100
0000
,
0020
0000
0000
1030
0010
0000
0100
0000
0020
0000
0000
1030
0010
0000
0100
0000
,
0201
0000
1000
0000
0301
0000
2002
3003
,
1000
0001
0100
0001
0100
0000
0010
0000
,
1000
0000
0100
0010
0100
0000
1000
0000
0001
0000
0100
0000
0100
0000
0000
0000
,
0010
1000
0100
0000
0010
0001
0100
0000
,
0010
0000
1000
0000
0100
0000
0010
0000
0001
0000
0000
1000
0001
0000
0100
0000
,
0001
1000
0100
1000
0100
0000
0010
0000
,
0001
0000
0100
0010
0100
0000
0001
0000
1000
0000
0100
0000
0100
0000
0000
0000
,
0010
0001
0100
0000
0010
1000
0100
0000
,
0010
0000
0001
0010
0000
0100
1000
0000
0001
0000
0001
0000
0010
0100
0010
0100
,
1000
0100
0010
0001
1000
0100
0010
0001
,
0010
0000
0100
1000
0100
0000
1000
0000
0010
0000
0100
0000
0001
0000
1000
0000
,
0200
0000
0310
0001
2000
0000
3100
0010
,
0001
0000
1000
0000
0010
0000
0100
0000
0001
0000
1000
0100
0010
0000
0001
0100
,
0010
1000
0001
0100
0010
1000
0001
1000
,
0100
0000
0010
0001
0010
0000
0100
0000
1000
0000
0001
0000
1000
0000
0000
0000
,
0002
0000
0103
0010
2000
0000
3100
0010
,
0001
0000
0100
0000
0010
0000
1000
0000
0001
0000
0010
0100
1000
0000
0010
0100
,
0002
0100
0100
0100
,
2003
0100
0200
3300
,
0020
0001
0001
0001
,
0230
0000
1000
0000
1300
0100
0010
0001
,
0100
0000
0000
0100
0010
0000
1000
0000
0001
0000
0000
0010
0100
0000
0010
0000
,
0001
0000
0000
1000
0010
0000
1000
0000
0100
0000
0000
0010
0001
0000
0100
0000
,
0010
1000
0010
1000
0001
0010
0001
0010
0100
1000
0100
1000
0001
0100
0001
0100
,
0020
0000
0001
0000
1030
0001
2002
3003
,
0001
0000
0010
0000
1000
0000
0001
0100
1000
0000
0010
0000
0001
0000
1000
0100
,
0001
1000
0100
1000
0010
0001
0010
1000
,
1100
0000
0100
0010
0011
0000
0001
1000
,
0100
1000
0010
0100
0110
0000
1001
0000
,
1000
0000
0100
0000
0001
0000
1000
0010
0001
0000
0100
0000
1000
0000
0001
0010
,
1000
0100
1000
0010
0001
0010
1000
0010
,
1010
0000
0001
0010
0011
0000
0100
1000
,
1010
0101
2002
3003
,
0001
0000
0010
0000
1000
0000
0001
0100
1000
0000
0010
0000
0001
0000
1000
0100
,
0001
1000
0100
1000
0001
0010
1000
0010
,
0011
0000
0010
0100
1100
0000
1000
0010
,
0100
0001
0010
0100
1000
0000
0011
0000
,
0001
0000
0100
0000
1000
0000
0001
0010
1000
0000
0100
0000
0001
0000
1000
0010
,
0001
0100
0010
0100
1000
0100
0001
1000
,
2200
0000
0000
0300
0000
0000
3001
0000
0202
0000
0000
0300
0000
0000
0013
0000
,
0100
1000
0010
0100
0001
0000
1100
0101
,
0200
0000
0000
0000
0310
0000
1000
0000
0200
0000
0000
0000
0310
0000
0001
0000
1000
0000
0001
0000
1000
0000
0100
0000
0001
0000
1000
0010
0001
0000
0100
0000
,
0020
0000
0130
0001
0020
0000
0130
1000
0010
0100
1000
0100
0001
1000
0100
0010
,
0002
0000
0000
0000
1003
0000
0100
0000
0002
0000
0000
0000
1003
0000
0010
0000
0001
0000
1000
0000
0001
0000
0100
0000
1000
0000
0001
0010
1000
0000
0100
0000
,
0010
0000
0001
1000
0100
0000
0010
0001
1000
0000
0010
0100
0001
0000
0010
0000
0100
0000
1000
0000
0010
0000
0100
0000
0001
0000
0000
0000
0000
0000
0000
0000
;

//---------------dance-single - ----------------
#NOTEDATA:;
#CHARTNAME:;
#STEPSTYPE:dance-single;
#DESCRIPTION:;
#CHARTSTYLE:;
#DIFFICULTY:Medium;
#METER:9;
#RADARVALUES:0.418113,0.695850,0.151822,0.185560,0.084345,347.000000,329.000000,18.000000,22.000000,0.000000,0.000000,0.000000,0.000000,0.000000,0.418113,0.695850,0.151822,0.185560,0.084345,347.000000,329.000000,18.000000,22.000000,0.000000,0.000000,0.000000,0.000000,0.000000;
#CREDIT:ohaiimian;
#DISPLAYBPM:80.000000:160.000000;
#NOTES:
// measure 0
0000
0000
0000
0000
,  // measure 1
0000
0000
0000
0000
,  // measure 2
0000
0000
0000
0000
,  // measure 3
0000
0000
0000
0000
,  // measure 4
0000
0000
0000
0000
,  // measure 5
1000
1000
1000
1000
,  // measure 6
1000
0010
0100
0000
0100
0001
0010
0000
,  // measure 7
0001
0001
0001
0001
,  // measure 8
0010
0100
0010
0000
0100
0010
0100
0000
,  // measure 9
1000
0000
0000
1000
0000
0000
1000
0000
0010
0000
0000
0100
0000
0000
0100
0000
,  // measure 10
0001
0000
0000
0001
0000
0000
0001
0000
0010
0000
0000
0100
0000
0000
0100
0000
,  // measure 11
1000
0100
1000
0000
0001
0100
0001
0000
,  // measure 12
2002
0000
0000
3003
,  // measure 13
0101
0000
0100
0001
0100
0000
0001
0000
0101
0000
0100
0000
0010
0000
1000
0000
,  // measure 14
1100
0000
0100
1000
0100
0000
1000
0000
1100
0000
0100
0000
0010
0000
0000
0000
,  // measure 15
0011
0000
0001
0010
0100
0000
0010
0000
0011
0000
0001
0000
0100
0000
0010
0000
,  // measure 16
1010
0000
1000
0010
0100
0000
0010
0000
1010
0000
1000
0000
0001
0000
1001
0000
,  // measure 17
0001
0000
0100
0010
0100
0000
0010
0000
,  // measure 18
1000
0000
0100
0000
0010
0001
0010
0000
,  // measure 19
0100
0000
1000
0100
1000
0000
0010
0000
,  // measure 20
0100
0001
1000
1001
,  // measure 21
1000
0000
0001
0100
0001
0000
1000
0100
,  // measure 22
1000
0000
0010
0000
0100
0010
0100
0000
,  // measure 23
0020
0030
0200
0300
,  // measure 24
1001
0110
1001
0200
,  // measure 25
0300
0000
0000
0000
,  // measure 26
0001
0000
0000
1000
0000
0000
0001
0000
1000
0000
0000
0000
0010
0000
0000
0000
,  // measure 27
0100
0100
0001
0001
,  // measure 28
1000
0100
0020
0030
,  // measure 29
0001
0010
0001
0000
0010
0000
0010
0000
,  // measure 30
0001
0000
0000
1000
0000
0000
0001
0000
1000
0000
0000
0000
0100
0000
0000
0000
,  // measure 31
0010
0010
0001
0001
,  // measure 32
0100
0010
2000
3100
,  // measure 33
0001
0010
0001
0000
0010
0001
0010
0000
,  // measure 34
0100
0100
0100
0000
,  // measure 35
0200
0000
0300
1000
0001
0000
0000
0000
,  // measure 36
0010
0100
2000
3001
,  // measure 37
1000
0010
1000
0000
0010
1000
0010
0000
,  // measure 38
0100
0100
0100
0001
,  // measure 39
0020
0000
0030
0001
1000
0000
0000
0100
,  // measure 40
0010
0100
0010
0100
0020
0000
0030
0000
,  // measure 41
1000
1000
1000
0010
,  // measure 42
0100
0100
0200
0300
,  // measure 43
0001
0001
0001
1000
,  // measure 44
0010
0000
0010
0000
0010
0100
0002
0000
,  // measure 45
1003
0000
0000
1000
0000
0000
1000
0000
0100
0000
0000
0100
0000
0000
0010
0000
,  // measure 46
0001
0000
0000
0001
0000
0000
0001
0000
0100
0000
0000
0100
0000
0000
0010
0000
,  // measure 47
1000
0100
1000
0100
0010
0001
0010
0001
,  // measure 48
1000
0001
2002
3003
,  // measure 49
0001
0100
0001
0000
1000
0100
1000
0000
,  // measure 50
0010
0100
0010
0100
0001
0000
0100
0000
,  // measure 51
0010
0010
1000
1000
,  // measure 52
0001
0010
0100
1000
0001
0000
1001
0000
,  // measure 53
1000
0100
1000
0000
0001
0100
0001
0000
,  // measure 54
0010
0100
0010
0100
1000
0000
0001
0000
,  // measure 55
0100
0100
0010
0010
,  // measure 56
1000
0001
2002
3003
,  // measure 57
0001
0010
0001
0000
0010
0100
0010
0000
,  // measure 58
0100
1000
0100
1000
0001
0000
0100
0000
,  // measure 59
0010
0010
1000
1000
,  // measure 60
0100
0010
0001
0010
0100
0000
1000
0000
,  // measure 61
0010
1000
0010
0000
0100
0010
0100
0000
,  // measure 62
0001
0100
0001
0100
0010
0000
0010
0000
,  // measure 63
2000
3000
0002
0003
,  // measure 64
1000
0010
0100
0010
1000
0000
0001
0001
,  // measure 65
2000
0000
0000
0000
3100
0000
0000
0000
0010
0000
0001
0000
0100
0001
0100
0000
,  // measure 66
0002
0000
0000
0000
0103
0000
0000
0000
0010
1000
0010
1000
0100
0000
0100
0000
,  // measure 67
0020
0000
0000
0000
0130
0000
0000
0000
1000
0000
0001
0000
0100
0010
0100
0000
,  // measure 68
0001
0100
0010
1000
0010
0000
0010
0000
1000
0000
0001
0000
1001
0000
0000
0000
;

//---------------dance-single - ----------------
#NOTEDATA:;
#CHARTNAME:;
#STEPSTYPE:dance-single;
#DESCRIPTION:;
#CHARTSTYLE:;
#DIFFICULTY:Easy;
#METER:5;
#RADARVALUES:0.261471,0.318931,0.042173,0.193995,0.000000,217.000000,212.000000,5.000000,23.000000,0.000000,0.000000,0.000000,0.000000,0.000000,0.261471,0.318931,0.042173,0.193995,0.000000,217.000000,212.000000,5.000000,23.000000,0.000000,0.000000,0.000000,0.000000,0.000000;
#CREDIT:ohaiimian;
#DISPLAYBPM:80.000000:160.000000;
#NOTES:
0000
0000
0000
0000
,
0000
0000
0000
0000
,
0000
0000
0000
0000
,
0000
0000
0000
0000
,
0000
0000
0000
0000
,
1000
0000
1000
0000
,
0010
0010
0010
0000
,
0100
0000
0100
0000
,
0001
0001
0001
0000
,
0010
0000
0010
0000
,
0100
0000
0100
0000
,
1000
0001
1000
0001
,
0200
0000
0000
0300
,
0010
0000
0010
0000
1000
1000
1000
0000
,
0001
0000
0001
0000
0010
0010
0010
0000
,
1000
0000
1000
0000
0001
0001
0001
0000
,
0010
0000
0010
0000
0100
0100
0100
0000
,
1000
0100
1000
0000
,
0001
0100
0001
0001
,
0010
0100
0010
0000
,
0100
1000
0200
0300
,
0010
0010
0001
0001
,
0100
0001
0100
0010
,
2000
3000
0002
0003
,
1000
0001
2002
3003
,
1000
0000
0010
0000
,
0100
0100
0100
0000
,
0001
0000
1000
0000
,
0010
0100
0010
0000
,
0001
0000
0100
0000
,
0010
0010
0010
0000
,
1000
0000
0001
0000
,
0100
0010
0100
0110
,
1000
0010
1000
0010
,
0100
0001
0010
0001
,
1000
1000
0001
0001
,
0100
0010
0100
0010
,
0100
0001
0100
0010
,
1000
0010
1000
0100
,
0010
0000
0001
0000
,
1000
1000
2000
3000
,
0001
0010
0001
0010
,
0100
0100
0100
0000
,
1000
0010
1000
0010
,
0100
0100
0100
0000
,
0002
0003
2000
3000
,
0020
0030
0200
0300
,
0001
0010
0100
1000
,
0001
1000
2002
3003
,
0100
0100
0010
0010
,
1000
0001
1000
0001
,
0100
0000
0010
0000
,
1000
0100
0020
0030
,
0001
0001
1000
1000
,
0010
0100
0010
0100
,
0001
0000
1000
0000
,
0001
0010
0200
0300
,
1000
1000
0100
0100
,
0010
0001
0100
0010
,
1000
0000
0001
0000
,
0100
0010
0110
0000
,
0001
0001
0010
0010
,
0100
1000
0010
0100
,
0002
0003
2000
3000
,
0001
1000
2002
3003
,
0002
0000
0013
0000
0100
1000
0100
0000
,
2000
0000
3010
0000
0100
0001
0100
0000
,
0020
0000
0130
0000
1000
0100
0010
0000
,
0200
0000
0310
0000
0001
0100
0010
0000
;

//---------------dance-single - ----------------
#NOTEDATA:;
#CHARTNAME:;
#STEPSTYPE:dance-single;
#DESCRIPTION:;
#CHARTSTYLE:;
#DIFFICULTY:Beginner;
#METER:3;
#RADARVALUES:0.160256,0.231950,0.059042,0.075911,0.000000,133.000000,126.000000,7.000000,9.000000,0.000000,0.000000,0.000000,0.000000,0.000000,0.160256,0.231950,0.059042,0.075911,0.000000,133.000000,126.000000,7.000000,9.000000,0.000000,0.000000,0.000000,0.000000,0.000000;
#CREDIT:ohaiimian;
#DISPLAYBPM:80.000000:160.000000;
#NOTES:
0000
0000
0000
0000
,
0000
0000
0000
0000
,
0000
0000
0000
0000
,
0000
0000
0000
0000
,
0000
0000
0000
0000
,
1000
0000
1000
0000
,
0001
0000
0001
0000
,
0010
0000
0010
0000
,
0100
0000
0100
0000
,
1000
0000
0000
0000
,
0001
0000
0000
0000
,
1000
0000
0001
0000
,
2002
0000
3003
0000
,
1000
0000
0001
0000
,
0100
0000
0010
0000
,
1000
0000
1000
0000
,
0001
0000
0001
0000
,
0010
0000
0000
0000
,
0100
0000
0000
0000
,
1000
0000
1000
0000
,
0001
0000
0001
0000
,
0100
0000
0100
0000
,
0010
0000
0010
0000
,
1000
0000
0100
0000
,
0010
0000
0002
0003
,
0000
0000
0000
0000
,
0000
0000
0000
0000
,
0001
0000
0001
0000
,
1000
0000
1000
0000
,
0010
0000
0100
0000
,
0001
0000
1000
0000
,
0001
0000
0010
0000
,
0100
0000
1000
0000
,
0010
0000
0010
0000
,
0100
0000
0100
0000
,
0001
0000
0001
0000
,
1000
0000
1000
0000
,
0100
0000
0010
0000
,
0100
0000
0000
0000
,
0001
0000
1000
0000
,
0001
0000
1000
0000
,
2002
0000
3003
0000
,
1000
0001
1000
0000
,
0220
0000
0330
0000
,
0010
0100
0010
0000
,
1000
0000
0100
0000
,
0010
0000
0001
0000
,
0100
0000
0010
0000
,
0220
0000
0330
0000
,
1000
0000
1000
0000
,
0001
1000
0001
0000
,
0001
0000
0001
0000
,
1000
0001
1000
0000
,
0010
0000
0010
0000
,
0100
0010
0100
0000
,
0100
0000
0100
0000
,
0010
0100
0010
0000
,
1000
0000
0100
0000
,
0010
0100
0010
0000
,
0001
0000
0100
0000
,
0010
1000
0010
0000
,
1000
0000
1000
0000
,
0001
0100
0001
0000
,
0001
0000
0001
0000
,
1000
0010
1000
0000
,
0001
0000
0100
0000
,
0010
0000
1000
0000
,
1001
0000
0110
0000
,
1001
0000
1000
0001
;

//---------------dance-double - ----------------
#NOTEDATA:;
#CHARTNAME:;
#STEPSTYPE:dance-double;
#DESCRIPTION:;
#CHARTSTYLE:;
#DIFFICULTY:Easy;
#METER:6;
#RADARVALUES:0.278340,0.405913,0.109649,0.337382,0.000000,231.000000,218.000000,13.000000,40.000000,0.000000,0.000000,0.000000,0.000000,0.000000,0.278340,0.405913,0.109649,0.337382,0.000000,231.000000,218.000000,13.000000,40.000000,0.000000,0.000000,0.000000,0.000000,0.000000;
#CREDIT:ohaiimian;
#DISPLAYBPM:80.000000:160.000000;
#NOTES:
00000000
00000000
00000000
00000000
,
00000000
00000000
00000000
00000000
,
00000000
00000000
00000000
00000000
,
00000000
00000000
00000000
00000000
,
00000000
00000000
00000000
00000000
,
00010000
00010000
00001000
00001000
,
00100000
00100000
00100000
00000000
,
00001000
00001000
00010000
00010000
,
00000010
00000010
00000010
00000000
,
00000200
00000000
00000320
00000000
,
00002030
00000000
00003002
00000000
,
00000013
00000100
00010000
00001000
,
00022000
00000000
00000000
00033000
,
00010000
00000000
00100000
00000000
10000000
10000000
10000000
00000000
,
01000000
00000000
00010000
00000000
00001000
00001000
00001000
00000000
,
00000100
00000000
00000001
00000000
00000010
00000010
00000010
00000000
,
00000001
00000000
00000100
00000000
00001000
00001000
00001000
00000000
,
00001000
00000100
00000001
00000000
,
00000010
00000010
00000100
00001000
,
00000001
00000100
00000010
00000000
,
00001000
00000100
00000010
00000100
,
00010000
00001000
01000000
00000000
,
00100000
00100000
10000000
01000000
,
00200000
00000000
00320000
00000000
,
10030000
00010000
20020000
30030000
,
00000000
00000000
00000000
00000000
,
10000000
00010000
10010000
00000000
,
00001000
00001000
00010000
00010000
,
00001000
00000010
00000001
00000000
,
00000010
00000001
00000100
00000100
,
00000010
00000100
00000110
00000000
,
00000100
00000100
00000010
00000010
,
00001000
00001000
00000100
00010000
,
00001000
00001000
00010000
00010000
,
00100000
10000000
01000000
00000000
,
00100000
00000000
00010000
00000000
,
10000000
00010000
10010000
00000000
,
10000000
00100000
01000000
00001000
,
00010000
00000010
00000100
00000001
,
00000020
00000030
00000200
00000300
,
00000100
00010000
00022000
00033000
,
00010000
00010000
00010000
00010000
,
00001000
00001000
00002000
00003000
,
00001000
00001000
00001000
00001000
,
00010000
00010000
00020000
00030000
,
00020000
00030000
00200000
00300000
,
20000000
30000000
02000000
03000000
,
00020000
00030000
00002000
00003000
,
00010000
00000100
00000010
00000001
,
00001000
00001000
00000001
00000001
,
00000100
00000010
00001000
00000100
,
00020000
00030000
00002000
00003000
,
00010000
00001000
00022000
00033000
,
00010000
00010000
00100000
00100000
,
10000000
01000000
00100000
00001000
,
00020000
00030000
00002000
00003000
,
00010000
00001000
00022000
00033000
,
00001000
00010000
00000100
00010000
,
00001000
01000000
00010000
00100000
,
00002000
00003000
00020000
00030000
,
00001000
00010000
00022000
00033000
,
00010000
00001000
00100000
00001000
,
00010000
00000010
00001000
00000100
,
00000220
00000330
00002002
00003003
,
00001000
00010000
00022000
00033000
,
00010000
00000000
00100000
00000000
10000000
01000000
00100000
00001000
,
00010000
00000000
00000100
00000000
00000010
00000001
00001000
00000010
,
00000100
00000000
00000001
00000000
00000010
00000100
00010000
00001000
,
00010000
00000000
00100000
00000000
10000000
00010000
10010000
00000000
;

//---------------dance-double - ----------------
#NOTEDATA:;
#CHARTNAME:;
#STEPSTYPE:dance-double;
#DESCRIPTION:;
#CHARTSTYLE:;
#DIFFICULTY:Medium;
#METER:10;
#RADARVALUES:0.381965,0.493421,0.143387,0.168691,0.042173,317.000000,300.000000,17.000000,20.000000,0.000000,0.000000,0.000000,0.000000,0.000000,0.381965,0.493421,0.143387,0.168691,0.042173,317.000000,300.000000,17.000000,20.000000,0.000000,0.000000,0.000000,0.000000,0.000000;
#CREDIT:;
#DISPLAYBPM:80.000000:160.000000;
#NOTES:
00000000
00000000
00000000
00000000
,
00000000
00000000
00000000
00000000
,
00000000
00000000
00000000
00000000
,
00000000
00000000
00000000
00000000
,
00000000
00000000
00000000
00000000
,
10000000
10000000
01000000
01000000
,
00100000
00001000
00010000
00000000
00001000
00010000
00000100
00000000
,
00000010
00000010
00000001
00000001
,
00000100
00000010
00001000
00000000
00000100
00010000
00001000
00000000
,
00020000
00000000
00032000
00000000
,
00013000
00010000
00001000
00001000
,
00010000
00001000
00010000
00001000
00010000
00001000
00010000
00001000
,
00022000
00000000
00000000
00033000
,
00011000
00000000
00000000
00010000
00100000
00000000
00000000
00000000
10000000
00000000
01000000
00000000
00100000
00000000
00001000
00000000
,
00011000
00000000
00000000
00001000
00000010
00000000
00000000
00000000
00000001
00000000
00000100
00000000
00001000
00000000
00010000
00000000
,
00011000
00000000
00000000
00010000
01000000
00000000
00000000
00000000
10000000
00000000
00100000
00000000
01000000
00000000
00001000
00000000
,
00011000
00000000
00000000
00001000
00000100
00000000
00000000
00000000
00000001
00000000
00000010
00000000
00001000
00000000
00011000
00000000
,
00010000
00010000
00100000
00100000
,
10000000
00100000
10000000
00000000
01000000
10000000
01000000
00000000
,
00100000
00100000
00001000
00001000
,
00010000
00001000
00010000
00001000
00010000
00000000
00011000
00000000
,
00001000
00001000
00000010
00000010
,
00000001
00000010
00000001
00000000
00000100
00000001
00000100
00000000
,
00000020
00000000
00000230
00000000
,
00001300
00010000
00022000
00033000
,
00020000
00000000
00000000
01030000
20000000
00000000
00000000
00000000
,
30100000
00000000
00000000
00100000
00000000
00000000
00100000
00000000
01000000
00000000
00000000
00000000
00100000
00000000
00000000
00000000
,
10000000
10000000
01000000
01000000
,
00100000
00010000
00100000
00001000
00010000
00000000
00011000
00000000
,
00001000
00001000
00000010
00000010
,
00000100
00000000
00000000
00000100
00000000
00000000
00000100
00000000
00000010
00000000
00000000
00000000
00000001
00000000
00000000
00000000
,
00000100
00000100
00000010
00000010
,
00001000
00000100
00010000
00000000
00001000
00000000
00011000
00000000
,
00010000
00001000
00010000
00000000
01000000
00010000
01000000
00000000
,
00020000
00032000
00003200
00000300
,
00000020
00000000
00000030
00000100
00000010
00000000
00000001
00000000
,
00000100
00000010
00001000
00000100
00010000
00000000
00011000
00000000
,
00001000
00010000
00001000
00000000
00010000
00000100
00010000
00000000
,
00002000
00023000
02030000
03000000
,
00200000
00000000
00300000
01000000
00100000
00000000
10000000
00000000
,
00100000
01000000
00010000
00100000
00001000
00000000
00011000
00000000
,
00001000
00010000
00001000
00010000
,
00100000
00100000
00100000
01000000
,
00001000
00010000
00001000
00010000
,
00000100
00000000
00000100
00000000
00000100
00000010
00000001
00000000
,
00000100
00000000
00000000
00000100
00000000
00000000
00000100
00000000
00000010
00000000
00000000
00000010
00000000
00000000
00000010
00000000
,
00001000
00000000
00000000
00001000
00000000
00000000
00001000
00000000
00000100
00000000
00000000
00000100
00000000
00000000
00000100
00000000
,
00010000
00001000
00010000
00001000
00010000
00001000
00010000
00000000
,
00022000
00000000
00000000
00033000
,
00001000
00010000
00001000
00000000
01000000
00010000
01000000
00000000
,
00100000
01000000
00100000
01000000
00100000
01000000
00100000
10000000
,
01000000
01000000
00100000
00100000
,
00010000
10000000
00100000
00010000
00001000
00000000
00011000
00000000
,
00010000
00001000
00010000
00000000
00000100
00001000
00000100
00000000
,
00000010
00000100
00000010
00000100
00000010
00000100
00000010
00000001
,
00000100
00000100
00000010
00000010
,
00000001
00000010
00001000
00000100
00010000
00000000
00011000
00000000
,
00010000
00100000
00010000
00000000
00100000
10000000
00100000
00000000
,
10000000
01000000
10000000
01000000
00100000
00000000
00010000
00000000
,
10000000
10000000
00100000
00100000
,
01000000
00100000
00010000
00000000
00001000
00000000
00011000
00000000
,
00001000
00000100
00001000
00000000
00000100
00000001
00000100
00000000
,
00000001
00000010
00000001
00000010
00000100
00000000
00000010
00000000
,
00000001
00000001
00000100
00000100
,
00000010
00000100
00001000
00000000
00010000
00000000
00011000
00000000
,
00010000
00000000
00000000
00000000
;
