#VERSION:0.83;
#TITLE:神よ、ニャンコを与えたまえ!;
#SUBTITLE:;
#ARTIST:かめりあ feat. ななひら & 謎の黒猫神 W;
#TITLETRANSLIT:Kamiyo, nyanko wo ataetamae!;
#SUBTITLETRANSLIT:;
#ARTISTTRANSLIT:Camellia feat. nanahira & Nazo no Kuroneko Kami W;
#GENRE:;
#ORIGIN:;
#CREDIT:;
#BANNER:Kamiyo, nyanko wo ataetamae!.png;
#BACKGROUND:Kamiyo, nyanko wo ataetamae!-bg.png;
#PREVIEWVID:;
#JACKET:Kamiyo, nyanko wo ataetamae!-jacket.png;
#CDIMAGE:;
#DISCIMAGE:;
#LYRICSPATH:;
#CDTITLE:;
#MUSIC:Kamiyo, nyanko wo ataetamae!.ogg;
#OFFSET:-0.028000;
#SAMPLESTART:62.699001;
#SAMPLELENGTH:13.038000;
#SELECTABLE:YES;
#DISPLAYBPM:222.000000;
#BPMS:0.000=222.000;
#STOPS:;
#DELAYS:;
#WARPS:;
#TIMESIGNATURES:0.000=4=4;
#TICKCOUNTS:0.000=4;
#COMBOS:0.000=1;
#SPEEDS:0.000=1.000=0.000=0;
#SCROLLS:0.000=1.000;
#FAKES:;
#LABELS:0.000=Song Start;
#BGCHANGES:;
#KEYSOUNDS:;
#ATTACKS:
;

//---------------dance-single - ----------------
#NOTEDATA:;
#CHARTNAME:;
#STEPSTYPE:dance-single;
#DESCRIPTION:;
#CHARTSTYLE:;
#DIFFICULTY:Hard;
#METER:14;
#RADARVALUES:0.673426,0.886452,0.495340,0.148602,0.094940,571.000000,511.000000,60.000000,18.000000,0.000000,0.000000,0.000000,0.000000,0.000000,0.673426,0.886452,0.495340,0.148602,0.094940,571.000000,511.000000,60.000000,18.000000,0.000000,0.000000,0.000000,0.000000,0.000000;
#CREDIT:;
#DISPLAYBPM:222.000000;
#NOTES:
// measure 0
0000
0000
0000
0000
,  // measure 1
0000
0000
0000
0000
,  // measure 2
0000
0000
0000
0000
,  // measure 3
0000
0000
0000
0000
0000
0001
0010
0100
,  // measure 4
1000
0000
0010
0100
0000
0110
0000
0010
,  // measure 5
1000
0100
0010
0001
0010
0000
0001
0000
,  // measure 6
0101
0000
0101
0000
0001
0100
0010
0000
,  // measure 7
1000
0100
0010
0100
0000
1000
1000
0000
,  // measure 8
1010
0000
1010
0000
0010
0100
0001
0000
,  // measure 9
1000
0100
0010
0001
0010
0000
0011
0000
,  // measure 10
1100
0000
1100
0000
1000
0010
0100
0000
,  // measure 11
0001
0010
0100
0010
0000
0001
0001
0000
,  // measure 12
0011
0000
0011
0000
0001
0010
0100
0000
,  // measure 13
1000
0010
0100
0010
1000
0000
0001
0000
,  // measure 14
1000
0100
0010
0001
1000
1000
0000
0001
,  // measure 15
0010
0100
1000
0001
0100
0100
0000
0010
,  // measure 16
1000
0100
0010
0001
1000
1000
0000
1000
,  // measure 17
0000
1000
0010
0100
0001
0000
1000
0100
,  // measure 18
0010
0000
0100
0000
1000
0001
0100
0010
,  // measure 19
1000
0001
0000
1000
0000
0001
0000
0100
,  // measure 20
0000
0010
2000
0000
0100
0000
0001
0000
,  // measure 21
3010
0100
0001
0000
1000
0000
0100
0000
,  // measure 22
0010
0100
1000
0001
0100
0100
0000
0010
,  // measure 23
0100
0001
0010
0100
0010
0010
0000
0001
,  // measure 24
0100
0010
1000
0100
1000
1000
0000
0010
,  // measure 25
0000
0100
0001
0100
0010
0000
1000
0100
,  // measure 26
0010
0001
0010
0100
1000
0000
0001
0100
,  // measure 27
0010
1000
0010
0100
0001
1000
0000
1001
,  // measure 28
0000
0001
1000
0001
0100
0000
0001
1000
,  // measure 29
0200
2300
3020
0230
,  // measure 30
0301
0010
0001
0010
0001
0010
0001
0010
,  // measure 31
0100
0010
0100
0010
0100
0010
0100
0010
,  // measure 32
0100
1000
0100
1000
0100
1000
0100
1000
,  // measure 33
0001
1000
0001
1000
0001
1000
0001
1000
,  // measure 34
0020
0000
0000
0000
,  // measure 35
0000
0000
0000
0130
,  // measure 36
0000
0000
0001
0001
,  // measure 37
0000
0000
0000
0000
0100
0000
0000
0000
0010
0000
0000
0000
0000
0000
0000
0010
,  // measure 38
1000
0000
0100
0100
,  // measure 39
0000
0000
0000
0000
0010
0000
0000
0001
0000
0000
1000
0000
0000
0001
0000
0000
,  // measure 40
0100
0000
0010
1000
,  // measure 41
0000
0000
0000
0000
0001
0000
0000
0000
0001
0000
0000
0000
0010
0000
0000
0010
,  // measure 42
0001
0000
1000
1000
,  // measure 43
0000
0000
0000
0000
,  // measure 44
0001
0000
0001
0100
0000
0000
0100
0000
0100
0010
0000
0000
,  // measure 45
0010
0000
0010
1000
0000
0000
1000
0000
1000
0100
0000
0000
,  // measure 46
0100
0000
0100
0010
0000
0000
0010
0000
0010
0001
0000
0000
,  // measure 47
0001
0000
0001
1000
0000
0000
1000
0000
0001
0000
1000
0000
,  // measure 48
0001
0100
0010
1000
,  // measure 49
1000
0100
0010
0000
0100
0020
0000
0030
,  // measure 50
0001
0010
0001
0000
1000
0000
0010
0000
,  // measure 51
0110
0000
1001
0000
0001
0010
0200
0000
,  // measure 52
1300
0000
0001
0000
,  // measure 53
0100
0010
0100
0000
0100
0020
0000
0030
,  // measure 54
0100
0001
1000
0000
0100
0000
0010
0000
,  // measure 55
0011
1001
2100
0000
,  // measure 56
3001
0000
0000
0000
,  // measure 57
0000
0000
0000
0000
0000
1000
0001
0000
,  // measure 58
1001
0000
0110
0000
1001
0000
0001
0010
,  // measure 59
1000
0001
0100
1000
0010
0100
0001
1000
,  // measure 60
1100
0000
0101
0000
1100
0000
1000
0100
,  // measure 61
0010
0001
0100
0010
1000
0100
0010
0011
,  // measure 62
0000
0010
0000
0110
0000
0100
0000
1100
,  // measure 63
0000
1000
0000
0001
0100
0001
0100
0000
,  // measure 64
0010
1000
0100
0010
,  // measure 65
0001
0000
0000
0000
0000
2002
0000
3003
,  // measure 66
1001
0000
0110
0000
1001
0000
1000
0100
,  // measure 67
0001
1000
0010
0001
0010
0100
1000
0001
,  // measure 68
0011
0000
1010
0000
0011
0000
0001
0010
,  // measure 69
0100
1000
0001
0100
0010
1000
0100
1100
,  // measure 70
0000
0100
0000
0110
0000
0010
0000
0011
,  // measure 71
0000
0001
0000
1000
0100
1000
0100
0010
,  // measure 72
0001
0001
0100
0010
,  // measure 73
1000
0001
1000
0001
0000
1000
0100
0010
,  // measure 74
0100
1000
0001
0000
,  // measure 75
0001
0000
0000
0100
0000
0000
0010
1000
,  // measure 76
0010
1000
0100
0010
,  // measure 77
0001
0010
0000
0100
0000
1000
0001
0000
,  // measure 78
1001
0000
0000
0000
,  // measure 79
2000
0000
0000
0000
,  // measure 80
0002
0000
0000
0000
,  // measure 81
0000
0000
0000
0000
3003
1000
0100
0010
,  // measure 82
0001
0000
0100
0010
0000
0110
0000
0100
,  // measure 83
0001
0101
1000
1100
,  // measure 84
0101
0000
1010
0000
0010
0100
0001
0000
,  // measure 85
0010
0100
1000
0100
0000
0010
0010
0000
,  // measure 86
1100
0000
0011
0000
0010
0100
1000
0000
,  // measure 87
0001
0100
0010
1000
1010
0000
1010
0000
,  // measure 88
1001
0000
0110
0000
1000
0100
0010
0000
,  // measure 89
0010
0001
0100
0010
0000
0010
1000
0000
,  // measure 90
1000
0100
0000
0011
0000
0101
0000
0010
,  // measure 91
1000
0010
1000
0100
0010
0001
0100
0000
,  // measure 92
0110
0000
1001
0000
0001
0100
0010
0000
,  // measure 93
1000
0100
0010
0100
0000
0010
0010
0000
,  // measure 94
0011
0000
1010
0000
0010
0100
0001
0000
,  // measure 95
0001
1000
0100
0010
0011
0000
0011
0000
,  // measure 96
0101
0000
1100
0000
1000
0100
0010
0000
,  // measure 97
0010
0001
1000
0100
0000
0100
0010
0000
,  // measure 98
0110
0000
1001
0000
1000
0100
0010
0000
,  // measure 99
0001
0010
0100
1000
0010
0100
0001
1000
0100
0010
0001
0100
,  // measure 100
0010
0000
0000
0000
1000
0000
0000
0000
0001
0000
0000
1000
0000
0000
0001
0000
,  // measure 101
0100
0000
0000
0000
0010
0000
0000
0000
1000
0000
0000
1000
0000
0000
2000
0000
,  // measure 102
0000
0000
0000
0000
,  // measure 103
3000
0000
0000
0000
,  // measure 104
0000
0002
2003
3010
,  // measure 105
0100
0000
0001
1000
0000
1001
0000
1000
,  // measure 106
0010
0001
1000
0100
0001
0000
0020
0000
,  // measure 107
0000
0000
0000
0030
0000
0000
0000
0000
;

//---------------dance-single - ----------------
#NOTEDATA:;
#CHARTNAME:;
#STEPSTYPE:dance-single;
#DESCRIPTION:;
#CHARTSTYLE:;
#DIFFICULTY:Medium;
#METER:10;
#RADARVALUES:0.476470,0.664839,0.388016,0.123835,0.004128,404.000000,357.000000,47.000000,15.000000,0.000000,0.000000,0.000000,0.000000,0.000000,0.476470,0.664839,0.388016,0.123835,0.004128,404.000000,357.000000,47.000000,15.000000,0.000000,0.000000,0.000000,0.000000,0.000000;
#CREDIT:ohaiimian;
#DISPLAYBPM:222.000000;
#NOTES:
// measure 0
0000
0000
0000
0000
,  // measure 1
0000
0000
0000
0000
,  // measure 2
0000
0000
0000
0000
,  // measure 3
0000
0000
0000
0000
,  // measure 4
0001
0000
0000
0100
0000
0100
0000
0000
,  // measure 5
0010
1000
0001
1001
,  // measure 6
0001
0010
0100
0100
,  // measure 7
1000
0000
0010
0100
0000
0100
0010
0000
,  // measure 8
1000
0100
0010
0010
,  // measure 9
0001
0100
0110
0110
,  // measure 10
0010
1000
0001
0001
,  // measure 11
0010
0000
0100
1000
0000
1000
0010
0000
,  // measure 12
0100
0001
1000
1000
,  // measure 13
0100
0010
0011
1001
,  // measure 14
0001
0100
0001
0000
1000
0000
0100
0000
,  // measure 15
0010
0001
0010
0000
0100
0000
1000
0000
,  // measure 16
0100
1000
0100
0000
0010
0000
0001
0000
,  // measure 17
1000
0100
1000
0000
0010
0000
0100
0001
,  // measure 18
0100
0010
1000
0100
,  // measure 19
0010
0001
0000
1000
0000
0001
0000
1000
,  // measure 20
0000
0010
0200
0000
0001
0000
1000
0000
,  // measure 21
0301
0010
0100
0110
,  // measure 22
1000
0100
0010
0000
0001
0000
0100
0000
,  // measure 23
0010
0100
0001
0000
1000
0000
0100
0000
,  // measure 24
0010
0100
1000
0000
0010
0000
0100
0000
,  // measure 25
0001
0100
0010
0000
1000
0000
0001
0000
,  // measure 26
0010
0001
0010
0001
0010
0000
0100
0000
,  // measure 27
1000
0100
1000
0100
1000
0001
0000
1000
,  // measure 28
0000
0001
0100
0000
0010
0000
1000
0000
,  // measure 29
1001
1001
1001
1001
,  // measure 30
0110
0000
0010
0000
,  // measure 31
1000
0000
0001
0000
,  // measure 32
0010
0000
0100
0000
,  // measure 33
1000
0000
0001
0000
,  // measure 34
2002
0000
0000
0000
,  // measure 35
0000
0000
0000
3003
,  // measure 36
0000
0000
0001
0000
,  // measure 37
1000
0000
0000
0000
,  // measure 38
0010
0000
0000
0000
,  // measure 39
0000
0000
1000
0000
,  // measure 40
0000
0000
0001
0000
,  // measure 41
0000
0000
1000
0000
,  // measure 42
0000
0000
0100
0000
,  // measure 43
0000
0000
0010
0000
,  // measure 44
0002
0003
0020
0030
,  // measure 45
0200
0300
2000
3000
,  // measure 46
0020
0030
0200
0300
,  // measure 47
0002
0003
1000
1000
,  // measure 48
0001
0010
0100
1000
,  // measure 49
0010
0010
0010
0000
,  // measure 50
0100
0001
1000
0100
,  // measure 51
1000
0001
1001
0000
,  // measure 52
0001
0000
1000
0000
,  // measure 53
0100
0100
0100
0000
,  // measure 54
0010
0001
0100
0010
,  // measure 55
1000
0001
1001
0000
,  // measure 56
0110
0000
0000
0000
,  // measure 57
0000
0000
0000
0000
0000
0100
0010
0000
,  // measure 58
1001
1001
1001
0001
,  // measure 59
0010
0100
1000
0010
,  // measure 60
0110
0110
0110
0100
,  // measure 61
0001
0000
1000
0000
0100
0000
0010
0001
,  // measure 62
0000
0000
0000
0110
0000
0000
0000
1100
,  // measure 63
0000
0000
0000
0100
0010
0100
0010
0000
,  // measure 64
0010
0001
0001
1000
,  // measure 65
1000
0000
0000
0000
0000
1001
0000
0000
,  // measure 66
1001
1001
1001
1000
,  // measure 67
0100
0010
0001
0100
,  // measure 68
0110
0110
0110
0010
,  // measure 69
1000
0000
0001
0000
0010
0000
0100
1000
,  // measure 70
0000
0000
0000
1001
0000
0000
0000
0101
,  // measure 71
0000
0000
0000
0001
1000
0001
1000
0000
,  // measure 72
0100
0010
0001
0100
,  // measure 73
0010
1000
0001
0010
,  // measure 74
0001
0100
0100
0000
,  // measure 75
0010
0000
0000
0010
0000
0000
0010
0000
,  // measure 76
1000
0001
0001
0010
,  // measure 77
0100
1000
0000
0001
0000
1000
0010
0000
,  // measure 78
0110
0000
0000
0000
,  // measure 79
0002
0000
0000
0000
,  // measure 80
2000
0000
0000
0000
,  // measure 81
0000
3003
0000
0000
,  // measure 82
1000
0000
0000
0010
0000
0010
0000
0000
,  // measure 83
0100
0001
0010
0110
,  // measure 84
0100
0000
1000
0000
0001
1000
0001
0000
,  // measure 85
0100
0000
0010
1000
0000
1000
0010
0000
,  // measure 86
0100
0000
0001
0000
1000
0001
1000
0000
,  // measure 87
0100
0010
0011
0011
,  // measure 88
0010
0000
0100
0000
1000
0010
1000
0000
,  // measure 89
0010
0000
0100
0001
0000
0001
0010
0000
,  // measure 90
0100
0000
0010
0000
0001
0010
0001
0000
,  // measure 91
2000
0000
0002
3003
,  // measure 92
1001
0000
1001
0000
0001
1000
0001
0000
,  // measure 93
1000
0000
0100
0010
0000
0010
0100
0000
,  // measure 94
1100
0000
1100
0000
1000
0100
1000
0000
,  // measure 95
0010
0100
0101
0101
,  // measure 96
0011
0000
0011
0000
0001
0010
0001
0000
,  // measure 97
0010
0000
0100
0010
0000
0010
0100
0000
,  // measure 98
0110
0000
0110
0000
0100
0010
0100
0000
,  // measure 99
1000
0100
0010
0001
0010
0100
1000
0000
,  // measure 100
0001
0000
1000
0000
,  // measure 101
0001
0000
0000
0000
0000
0000
0000
0000
0100
0000
0000
0100
0000
0000
0100
0000
,  // measure 102
0000
0000
0000
0000
,  // measure 103
0000
0000
0000
0000
,  // measure 104
0000
1000
1000
0001
,  // measure 105
0100
0000
0010
0100
0000
0110
0000
0010
,  // measure 106
1000
0100
0010
0001
1000
0000
0020
0000
,  // measure 107
0000
0000
0000
0030
0000
0000
0000
0000
;

//---------------dance-single - ----------------
#NOTEDATA:;
#CHARTNAME:;
#STEPSTYPE:dance-single;
#DESCRIPTION:;
#CHARTSTYLE:;
#DIFFICULTY:Easy;
#METER:6;
#RADARVALUES:0.271257,0.398903,0.000000,0.082557,0.000000,230.000000,230.000000,0.000000,10.000000,0.000000,0.000000,0.000000,0.000000,0.000000,0.271257,0.398903,0.000000,0.082557,0.000000,230.000000,230.000000,0.000000,10.000000,0.000000,0.000000,0.000000,0.000000,0.000000;
#CREDIT:ohaiimian;
#DISPLAYBPM:222.000000;
#NOTES:
// measure 0
0000
0000
0000
0000
,  // measure 1
0000
0000
0000
0000
,  // measure 2
0000
0000
0000
0000
,  // measure 3
0000
0000
0000
0000
,  // measure 4
0000
0000
0000
0000
,  // measure 5
0000
0000
0000
0000
,  // measure 6
0001
0100
0001
0000
,  // measure 7
1000
0100
1000
0000
,  // measure 8
0010
0100
0010
0000
,  // measure 9
1000
0001
1000
1000
,  // measure 10
0001
0010
0100
0000
,  // measure 11
1000
0010
0100
0000
,  // measure 12
0001
0001
1000
1000
,  // measure 13
0001
1000
0001
0000
,  // measure 14
0100
0100
0100
0000
,  // measure 15
0010
0010
0010
0000
,  // measure 16
1000
0001
1000
0000
,  // measure 17
0001
1000
0001
0000
,  // measure 18
1000
0000
1000
0000
,  // measure 19
0001
0000
0000
0000
,  // measure 20
0200
0000
0000
0000
,  // measure 21
0310
0000
0010
0000
,  // measure 22
1000
1000
1000
0000
,  // measure 23
0001
0001
0001
0000
,  // measure 24
0100
0010
0100
0000
,  // measure 25
0010
0100
0010
0000
,  // measure 26
1000
0100
0010
0000
,  // measure 27
0001
0100
0010
0000
,  // measure 28
1000
0000
0001
0000
,  // measure 29
0010
0010
0010
0010
,  // measure 30
0200
0000
0000
0000
,  // measure 31
0000
0000
0000
0000
,  // measure 32
0000
0000
0000
0000
,  // measure 33
0000
0000
0000
0000
,  // measure 34
0310
0000
0000
0000
,  // measure 35
0000
0000
0000
0000
,  // measure 36
0000
0000
0001
0000
,  // measure 37
0000
0000
1000
0000
,  // measure 38
0000
0000
0001
0000
,  // measure 39
0000
0000
1000
0000
,  // measure 40
0000
0000
0010
0000
,  // measure 41
0000
0000
0100
0000
,  // measure 42
0000
0000
0010
0000
,  // measure 43
0000
0000
0100
0000
,  // measure 44
0002
0000
0003
0000
,  // measure 45
2000
0000
3000
0000
,  // measure 46
0020
0000
0030
0000
,  // measure 47
0200
0000
0300
0000
,  // measure 48
0001
0000
0001
0000
,  // measure 49
1000
1000
1000
0000
,  // measure 50
0010
0000
0010
0000
,  // measure 51
0100
0100
0100
0000
,  // measure 52
0010
0000
0010
0000
,  // measure 53
1000
1000
1000
0000
,  // measure 54
0100
0000
0100
0000
,  // measure 55
0001
0001
0001
0000
,  // measure 56
2000
0000
0000
0000
,  // measure 57
0000
0000
0000
3001
,  // measure 58
0100
0100
0100
0000
,  // measure 59
0010
0000
0010
0000
,  // measure 60
1000
1000
1000
0000
,  // measure 61
0001
0000
0000
0000
0001
0000
0000
1000
,  // measure 62
0000
0000
0000
0100
0000
0000
0000
0010
,  // measure 63
0000
0000
0000
0001
0000
0000
0000
0000
,  // measure 64
0100
0010
1000
0001
,  // measure 65
1000
0000
0000
0000
0000
0001
0000
0000
,  // measure 66
0001
0001
0001
0000
,  // measure 67
0100
0000
0100
0000
,  // measure 68
0010
0010
0010
0000
,  // measure 69
1000
0000
0000
0000
1000
0000
0000
0001
,  // measure 70
0000
0000
0000
0100
0000
0000
0000
0010
,  // measure 71
0000
0000
0000
1000
0000
0000
0000
0000
,  // measure 72
0010
0100
0001
1000
,  // measure 73
0100
0000
0000
0010
0000
0000
0001
0000
,  // measure 74
0000
1000
1000
0000
,  // measure 75
0100
0000
0000
0100
0000
0000
0010
0000
,  // measure 76
0001
0100
0010
1000
,  // measure 77
0001
0000
0000
1000
0000
0000
0010
0000
,  // measure 78
0010
0000
0000
0000
,  // measure 79
2000
0000
0000
0000
,  // measure 80
0002
0000
0000
0000
,  // measure 81
0000
3003
0000
0000
,  // measure 82
1000
0000
0000
0001
0000
0001
0000
0000
,  // measure 83
0100
0010
0100
0010
,  // measure 84
1000
0000
1000
0000
,  // measure 85
0001
0001
0001
0000
,  // measure 86
0100
0000
0100
0000
,  // measure 87
0010
0010
0010
0000
,  // measure 88
1000
0000
0100
0000
,  // measure 89
1000
1000
1000
0000
,  // measure 90
0001
0000
0010
0000
,  // measure 91
0100
0100
0100
0000
,  // measure 92
0010
0001
0010
0000
,  // measure 93
1000
0010
1000
0000
,  // measure 94
0001
0100
0001
0000
,  // measure 95
1000
0100
1000
1000
,  // measure 96
0010
0100
0010
0100
,  // measure 97
0001
1000
0001
1000
,  // measure 98
0100
0010
0001
1000
,  // measure 99
0010
0100
0001
1000
,  // measure 100
0100
0000
0010
0000
,  // measure 101
0001
0000
1000
0000
,  // measure 102
0000
0000
0000
0000
,  // measure 103
0000
0000
0000
0000
,  // measure 104
0000
0001
1000
0010
,  // measure 105
0100
0000
0000
0100
0000
0100
0000
0000
,  // measure 106
0010
1000
0001
0020
,  // measure 107
0000
0000
0000
0030
0000
0000
0000
0000
;

//---------------dance-single - ----------------
#NOTEDATA:;
#CHARTNAME:;
#STEPSTYPE:dance-single;
#DESCRIPTION:;
#CHARTSTYLE:;
#DIFFICULTY:Beginner;
#METER:3;
#RADARVALUES:0.156858,0.310258,0.024767,0.057790,0.000000,133.000000,130.000000,3.000000,7.000000,0.000000,0.000000,0.000000,0.000000,0.000000,0.156858,0.310258,0.024767,0.057790,0.000000,133.000000,130.000000,3.000000,7.000000,0.000000,0.000000,0.000000,0.000000,0.000000;
#CREDIT:ohaiimian;
#DISPLAYBPM:222.000000;
#NOTES:
// measure 0
0000
0000
0000
0000
,  // measure 1
0000
0000
0000
0000
,  // measure 2
0000
0000
0000
0000
,  // measure 3
0000
0000
0000
0000
,  // measure 4
0000
0000
0000
0000
,  // measure 5
0000
0000
0000
0000
,  // measure 6
0001
0000
0000
0000
,  // measure 7
1000
0000
0000
0000
,  // measure 8
0010
0000
0000
0000
,  // measure 9
0100
0000
0000
0000
,  // measure 10
0001
0000
0001
0000
,  // measure 11
1000
0000
1000
0000
,  // measure 12
0100
0000
0100
0000
,  // measure 13
0010
0000
0010
0000
,  // measure 14
0001
0000
0000
0000
,  // measure 15
0001
0000
0000
0000
,  // measure 16
1000
0000
0000
0000
,  // measure 17
1000
0000
0000
0000
,  // measure 18
0010
0000
0010
0000
,  // measure 19
0010
0000
0100
0000
,  // measure 20
0200
0000
0000
0000
,  // measure 21
0300
0000
0000
0000
,  // measure 22
0001
0000
1000
0000
,  // measure 23
0001
0000
0000
0000
,  // measure 24
1000
0000
0001
0000
,  // measure 25
1000
0000
0000
0000
,  // measure 26
0010
0000
0010
0000
,  // measure 27
0010
0000
0000
0000
,  // measure 28
0100
0000
0100
0000
,  // measure 29
0100
0000
0000
0000
,  // measure 30
2002
0000
0000
0000
,  // measure 31
0000
0000
0000
0000
,  // measure 32
0000
0000
0000
0000
,  // measure 33
0000
0000
0000
0000
,  // measure 34
3003
0000
0000
0000
,  // measure 35
0000
0000
0000
0100
,  // measure 36
0000
0000
0000
0000
,  // measure 37
0000
0000
0000
0000
,  // measure 38
0000
0000
0000
0000
,  // measure 39
0000
0000
0000
0000
,  // measure 40
0000
0000
0000
0000
,  // measure 41
0000
0000
0000
0000
,  // measure 42
0000
0000
0000
0000
,  // measure 43
0000
0000
0000
0000
,  // measure 44
0001
0000
0000
0000
,  // measure 45
0001
0000
0000
0000
,  // measure 46
1000
0000
0000
0000
,  // measure 47
1000
0000
0000
0000
,  // measure 48
0010
0000
0010
0000
,  // measure 49
0010
0000
0000
0000
,  // measure 50
0100
0000
0100
0000
,  // measure 51
0100
0000
0000
0000
,  // measure 52
0001
0000
1000
0000
,  // measure 53
0001
0000
0000
0000
,  // measure 54
1000
0000
0001
0000
,  // measure 55
1000
0000
0000
0000
,  // measure 56
0020
0000
0000
0000
,  // measure 57
0000
0000
0000
0030
,  // measure 58
0100
0000
0100
0000
,  // measure 59
0001
0000
0010
0000
,  // measure 60
0001
0000
0001
0000
,  // measure 61
1000
0000
0000
0000
0010
0000
0000
0100
,  // measure 62
0000
0000
0000
0000
0000
0000
0000
0010
,  // measure 63
0000
0000
0000
0000
,  // measure 64
1000
0000
0001
0000
,  // measure 65
1000
0000
0000
0000
,  // measure 66
0001
0000
0001
0000
,  // measure 67
0010
0000
0100
0000
,  // measure 68
1000
0000
1000
0000
,  // measure 69
0010
0000
0000
0000
0100
0000
0000
0001
,  // measure 70
0000
0000
0000
0000
0000
0000
0000
1000
,  // measure 71
0000
0000
0000
0000
,  // measure 72
0001
0000
0010
0000
,  // measure 73
0100
0000
1000
0000
,  // measure 74
0010
0000
0000
0000
,  // measure 75
0100
0000
0000
0000
,  // measure 76
0001
0000
1000
0000
,  // measure 77
0100
0000
0010
0000
,  // measure 78
0001
0000
0000
0000
,  // measure 79
0002
0000
0000
0000
,  // measure 80
2000
0000
0000
0000
,  // measure 81
0000
0000
0000
0000
,  // measure 82
3003
0000
0000
0000
,  // measure 83
0000
0000
0000
0000
,  // measure 84
0001
0000
0001
0000
,  // measure 85
1000
0000
1000
0000
,  // measure 86
0010
0000
0010
0000
,  // measure 87
0100
0000
0100
0000
,  // measure 88
0001
0000
0010
0000
,  // measure 89
0100
0000
1000
0000
,  // measure 90
0100
0000
0010
0000
,  // measure 91
0001
0000
1000
0000
,  // measure 92
0010
0010
0000
0000
,  // measure 93
0100
0100
0000
0000
,  // measure 94
0001
0001
0000
0000
,  // measure 95
1000
1000
0000
0000
,  // measure 96
0100
0000
1000
0000
,  // measure 97
0010
0000
0100
0000
,  // measure 98
0001
0000
1000
0000
,  // measure 99
0001
0000
1000
0000
,  // measure 100
1001
0000
0000
0000
,  // measure 101
0110
0000
0000
0000
,  // measure 102
0000
0000
0000
0000
,  // measure 103
0000
0000
0000
0000
,  // measure 104
0000
0001
0000
0000
,  // measure 105
1000
0000
0000
0001
0000
0001
0000
0000
,  // measure 106
0100
0100
0100
0020
,  // measure 107
0000
0000
0000
0030
0000
0000
0000
0000
;
