#TITLE:Capitalism Cannon;
#SUBTITLE:;
#ARTIST:O2i3;
#TITLETRANSLIT:;
#SUBTITLETRANSLIT:;
#ARTISTTRANSLIT:;
#GENRE:;
#CREDIT:;
#BANNER:Capitalism Cannon.png;
#BACKGROUND:Capitalism Cannon-bg.png;
#LYRICSPATH:;
#CDTITLE:;
#MUSIC:Capitalism Cannon.ogg;
#OFFSET:-1.317000;
#SAMPLESTART:31.632999;
#SAMPLELENGTH:10.105000;
#SELECTABLE:YES;
#DISPLAYBPM:190.000000;
#BPMS:0.000000=190.000000
;
#STOPS:
;
#BGCHANGES:;
#KEYSOUNDS:;
#ATTACKS:;

//---------------dance-single - ----------------
#NOTES:
     dance-single:
     :
     Hard:
     16:
     0.725521,1.033594,0.340278,0.578472,0.523177,597.000000,557.000000,40.000000,68.000000,0.000000,0.000000,0.725521,1.033594,0.340278,0.578472,0.523177,597.000000,557.000000,40.000000,68.000000,0.000000,0.000000:
0000
0000
0000
0000
,
0000
0000
0000
0000
,
0000
0000
0000
0000
,
0000
0000
0000
0000
,
0000
0000
0000
0000
,
1000
0100
0010
0001
0000
0100
0010
0100
,
0000
0100
0001
0010
0000
0000
0100
1000
,
2200
0000
3300
2002
0000
0000
3003
0202
,
0000
0000
0000
0003
0000
0000
0000
0300
,
0001
0100
0010
0000
1000
0000
0001
0100
,
0010
0000
1000
0100
0010
0000
0001
0000
0200
0000
0000
0000
0000
0000
0000
0000
,
0310
0000
1000
0000
0100
0000
0000
0000
0010
0000
0001
0000
0100
0000
0000
0001
,
1000
0000
1001
0000
0220
0000
0000
0330
,
0100
1010
0100
0011
,
0100
1000
0001
0000
2002
0000
3003
0000
,
1000
0000
0000
0000
0000
0000
0100
0000
0000
0010
0000
0000
0001
0000
0000
0000
0100
0000
0000
0000
0010
0000
0000
0000
,
2000
0000
0000
0000
,
3200
0000
0000
0001
0000
0000
1000
0000
,
0320
0000
0000
1000
0000
0000
0000
0000
,
0032
0000
0000
0000
0000
0000
1003
0010
0200
0000
0000
0000
0000
0000
0000
0000
,
0310
0000
1000
0100
1000
0000
0100
0000
0010
0000
0001
0000
1000
0000
1000
0000
,
0001
0000
0100
0001
0100
0000
0010
0000
1010
0000
0000
0000
0101
0000
0000
0000
,
1000
0000
0001
0100
0010
0000
0100
0000
0010
0000
1000
0000
0100
0000
0010
0000
,
0002
0000
0003
0000
,
2002
0000
0000
0000
0000
0000
3003
0000
1100
0000
0000
0000
1000
0100
0010
0001
,
0100
0000
0000
0000
0010
0000
0100
0010
0200
0000
0000
0000
0000
0000
0000
0000
,
0310
1000
0001
0000
0010
0001
0100
0010
,
1000
0000
0001
0000
0010
0000
0100
0000
0010
0000
0001
1000
0001
0000
0100
0000
,
0020
0000
0130
0202
,
0003
0000
0320
0000
,
1030
0000
0001
0000
0100
0010
1000
0001
,
0201
0000
0000
0320
0000
1030
0200
0000
0000
0300
0000
0000
,
2002
0000
0000
3003
0011
0000
0011
0000
,
0010
0000
0000
0000
0100
0000
1000
0010
2000
0000
0000
0000
0000
0000
0000
0000
,
3001
0010
0001
0000
1000
0100
1000
0000
0001
0100
0001
0000
1000
0010
1000
0000
,
0020
0000
0130
0100
,
1010
0000
0000
1000
0000
0000
0001
0000
1000
0001
0000
0001
,
1000
0000
0000
0000
1000
0000
0010
0000
0000
0000
0010
0000
0100
0000
0000
0002
0000
0000
0000
0000
0000
0000
0000
0000
,
1003
0000
0000
0000
1100
0000
0000
0000
0001
0100
0010
1000
0100
0000
0000
0000
,
0020
0000
0000
0030
,
0011
0000
0001
0000
1001
0000
1000
0000
0010
0000
0100
0000
0001
0000
0010
0100
,
1000
0001
0100
0010
0200
0000
0300
0000
,
1010
0000
1000
0000
1001
0000
0001
0010
0100
1000
0010
0100
0010
0000
0100
0000
,
0001
0010
0100
1000
0010
0000
0000
0000
,
0101
0100
0110
0010
1000
1000
0001
0001
,
1000
0010
0100
0001
0020
0000
0030
0000
,
1100
0100
0110
0010
0100
1000
0001
1000
,
1001
0001
0110
0100
0020
0000
0000
0000
,
1030
0100
1000
0010
1000
0001
1000
0100
,
0010
0100
1000
0100
0000
0010
0020
0000
,
0031
0100
0001
0010
0001
1000
0001
0100
,
0010
0000
0100
0000
0001
0000
0010
0000
0100
0010
0100
0010
0200
0000
0000
0000
,
1300
0100
1000
0100
0010
0001
0010
0001
,
1000
0100
1000
0100
0010
0001
0010
0001
0010
0100
1000
0100
0010
0001
0100
0010
,
2000
0000
3000
0000
,
0002
0003
0200
0300
0020
0030
2000
3000
0200
0300
0020
0030
0002
0003
2000
3000
,
2002
0000
0000
0000
0000
0000
3003
0000
0001
0010
0001
0010
0100
1000
0100
1000
,
0001
0100
0001
0100
0010
1000
0010
1000
0100
0010
0100
0010
0200
0000
0000
0000
,
1300
0000
0000
0000
1000
0100
1000
0100
0010
0001
0010
0001
1000
0010
1000
0010
,
0100
0001
0000
0010
0001
0000
1000
0100
1000
0100
0010
0000
0002
0000
0000
0000
,
0103
0000
0100
0000
0010
1000
0010
1000
0100
0010
0100
0010
0002
0000
0000
0000
,
1003
0100
1000
0100
0010
0100
0010
0001
0010
0001
1000
0001
2000
0000
0000
0000
,
3001
0100
0001
0000
0100
0010
0100
0000
0010
1000
0010
0000
1000
0001
1000
0000
,
0002
0000
0003
0000
,
1001
0000
0000
0101
0000
0000
1100
0000
0002
0000
0000
0000
0103
0001
0100
0001
,
0100
0010
0100
0010
1000
0010
1000
0001
1000
0001
0100
0010
2000
0000
0000
0000
,
3001
0000
0000
0000
0001
0100
0001
0100
0010
0100
0010
0100
0010
1000
0010
1000
,
0100
0010
0000
0100
1000
0000
0010
0100
0010
0100
0001
0000
0020
0000
0000
0000
,
0130
0000
0100
0000
1000
0100
1000
0100
1000
0010
1000
0010
2000
0000
0000
0000
,
3001
0010
0001
0010
0001
0100
0001
0100
0001
0010
0100
1000
0200
0000
0000
0000
,
0310
0001
1000
0000
0010
1000
0001
0000
0010
0001
0100
0000
0010
1000
0100
0000
,
0020
0000
0000
0030
,
0110
1000
0110
0001
,
0100
0010
1000
0001
0010
0100
1000
0100
,
0010
0000
0000
0000
0001
0000
0000
0000
1000
0000
1000
0000
0100
0010
0001
0000
,
0100
0010
1000
0000
0100
0000
0010
0000
0001
0000
0100
0010
0100
0000
0010
0000
,
2000
0000
0100
3002
,
0013
0000
0000
0200
0000
0000
0000
0000
0000
0000
0000
0000
1300
0000
0000
0000
0100
0000
0000
0000
0010
0000
0000
0000
,
0001
0000
0010
0001
0010
0000
0001
0100
0001
0000
1000
0100
1000
0000
0010
1000
,
0010
0100
0001
1000
0200
0000
0300
0000
,
0110
0000
1001
0000
0001
0100
0010
1000
,
0001
0000
0001
0000
0001
0000
1000
0000
0100
0010
0100
0010
0100
0000
0010
0000
,
0011
0000
0000
0000
1100
0000
0000
0000
1000
0010
0100
0000
0001
0010
0100
0000
,
1000
0000
0010
0000
0100
0000
0010
0000
1000
0000
0100
0010
0100
0000
0010
0000
,
0002
0000
0103
0010
,
1000
0000
0000
0200
0000
0000
0000
0000
0000
0000
0000
0000
0310
0000
0000
0000
0100
0000
0000
0000
1000
0000
0000
0000
,
0001
0000
0000
0000
0100
0000
0000
0000
0010
1000
0001
0010
0100
0000
0000
0000
,
2200
0000
0000
0000
,
0000
0000
0000
0000
,
0000
0000
0000
0000
,
3300
0000
0000
0000
;

//---------------dance-single - ----------------
#NOTES:
     dance-single:
     :
     Medium:
     11:
     0.418056,0.612500,0.110590,0.416840,0.021267,344.000000,331.000000,13.000000,49.000000,0.000000,0.000000,0.418056,0.612500,0.110590,0.416840,0.021267,344.000000,331.000000,13.000000,49.000000,0.000000,0.000000:
0000
0000
0000
0000
,
0000
0000
0000
0000
,
0000
0000
0000
0000
,
0000
0000
0000
0000
,
0000
0000
0000
0000
,
1000
0010
1000
0010
0000
0100
0010
0100
,
0000
0000
0000
0010
0000
0000
0100
0001
,
0020
0000
0000
0200
0000
0330
0000
2002
,
0000
0000
0000
3003
0000
0000
0000
0000
,
1000
0001
1000
0001
,
0010
0001
0010
0001
0020
0000
0000
0000
,
0130
1000
0100
0000
0010
0001
0010
0000
,
0001
0100
2020
3030
,
1000
0001
0020
0030
,
0100
0010
0100
0000
0220
0000
0330
0000
,
0100
1000
0001
0000
,
2002
0000
0000
0000
,
0000
0000
0000
0000
,
0000
0000
0000
0000
,
0000
0000
3003
0000
,
0001
0000
1000
0000
0001
0000
0100
0010
,
0100
0001
0010
0110
,
0100
0000
1000
0100
0010
0001
0100
0000
,
0002
0000
0000
0000
,
2003
0000
0100
3100
,
0010
0000
0010
0001
0200
0000
0300
0000
,
0010
0000
1000
0000
0001
1000
0001
1000
,
0100
0000
0010
0000
0001
0010
0001
0000
,
0200
0000
0010
0320
,
0000
0000
2030
0000
,
3001
0000
0010
0000
0100
1000
0100
1000
,
0001
0100
0202
0303
,
2002
3000
0100
0103
,
0010
0000
0010
1000
0200
0000
0300
0000
,
0010
0001
0010
0100
1000
0100
0010
0001
,
0020
0000
0130
2000
,
3001
0100
0010
0010
,
1000
0000
0001
0000
0010
0200
0000
0300
,
1000
0000
0001
0000
0100
0001
0100
0000
,
0020
0000
0000
0030
,
1000
1000
1000
0000
0000
0000
0000
0000
,
0000
0000
0000
0000
,
0001
0001
0001
0000
0000
0000
0000
0000
,
0000
0000
0000
0000
,
0100
0100
0100
0000
0000
0000
0000
0000
,
0000
0000
0000
0000
,
0010
0010
0010
0000
0000
0000
0000
0000
,
0100
0100
0100
0001
0000
0000
0000
0000
,
0001
0001
0001
0000
0010
0000
0100
0000
,
1000
1000
1000
0000
0010
0100
0010
0000
,
0100
0100
0100
0000
0001
0000
1000
0000
,
0010
0010
0010
0000
1000
0001
1000
0000
,
0001
0100
0001
0000
1000
0100
1000
0000
,
0010
1000
0010
0100
0001
0010
0100
1000
,
0002
0000
0000
0000
,
0003
0000
0000
0000
,
2002
0000
0000
3003
1000
0100
0010
0001
,
0010
0100
1000
0100
0010
0001
0020
0000
,
0130
0000
1000
0010
0100
0001
0100
0010
,
1000
0010
0100
0001
1000
0001
1000
0000
,
0001
0001
1000
0000
0100
0000
0020
0000
,
0031
0010
0100
1000
0100
0010
0001
0000
,
1000
0010
1000
0010
0100
0001
0100
0001
,
2000
0000
0000
0000
0000
0000
0000
3000
,
0001
0000
0000
0001
0000
0000
0001
0000
0000
0000
0000
0000
0001
0000
0100
0000
,
0010
1000
0010
0100
0001
0100
0020
0000
,
1030
0000
0001
0010
0100
1000
0100
0010
,
0001
0010
0100
1000
0001
1000
0001
0000
,
1000
1000
0001
0000
0010
0000
0200
0000
,
1300
0010
0100
0001
0100
0010
2000
0000
,
3001
0101
1000
1100
,
0020
0000
0000
0000
,
0230
0000
0302
0000
,
1003
0100
0010
0001
,
0100
0000
0001
0000
0001
0100
0010
0000
,
1000
0100
1000
0000
0200
0000
0000
0000
,
0320
0000
0032
0010
,
2003
0000
0000
0000
0000
0000
3010
0000
0100
0000
0010
0000
,
1000
0100
0010
0001
0010
0100
1000
0010
,
0100
0001
0100
0010
2000
0000
0000
0000
,
3002
0000
0010
0000
0013
0100
0010
0100
,
0010
0001
1000
0100
,
0010
0000
0011
0000
0001
1000
0001
0000
,
0100
1010
2000
0000
,
3001
1000
0010
0020
,
0100
0000
0000
0030
0000
0000
0100
0000
0010
0000
0100
0000
,
0001
0000
0010
0000
0100
1000
0100
0000
,
0220
0000
0000
0000
,
0000
0000
0000
0000
,
0000
0000
0000
0000
,
0330
0000
0000
0000
;

//---------------dance-single - ----------------
#NOTES:
     dance-single:
     :
     Easy:
     7:
     0.286806,0.421094,0.110590,0.314757,0.000000,236.000000,223.000000,13.000000,37.000000,0.000000,0.000000,0.286806,0.421094,0.110590,0.314757,0.000000,236.000000,223.000000,13.000000,37.000000,0.000000,0.000000:
0000
0000
0000
0000
,
0000
0000
0000
0000
,
0000
0000
0000
0000
,
0000
0000
0000
0000
,
0000
0000
0000
0000
,
1000
0000
0000
0001
0000
0000
0000
0100
,
0000
0000
0000
0010
0000
0000
0100
0000
,
0020
0000
0030
2000
0000
3000
0000
0002
,
0000
0000
0000
0003
0000
0000
0000
0000
,
0001
0010
0100
0100
,
1000
1000
2000
0000
,
3010
0100
0001
0001
,
1000
0100
0220
0330
,
0001
1000
0001
0000
,
0100
0010
0110
0000
,
0010
1000
0002
0000
,
2000
0000
0000
0000
,
0000
0000
0000
0000
,
0000
0000
0000
0000
,
0000
0000
3003
0000
,
1000
0100
0010
0001
,
0010
0010
0010
0000
,
0001
0100
0010
1000
,
0200
0000
0000
0300
,
0020
0000
0031
0001
,
1000
0000
2002
3003
,
0001
0000
1000
0000
,
0010
0010
0100
0000
,
0001
0000
1000
0001
,
0000
0000
1001
0000
,
0001
0100
0010
0010
,
1000
0100
0020
0030
,
0200
0000
1300
1000
,
0001
0000
1001
0000
,
1000
0010
0100
0001
,
2002
3003
1001
0000
,
0001
0000
0010
0100
,
1000
0100
0110
0000
,
0010
0001
1000
0010
,
0200
0000
0000
0000
,
0301
0000
0000
0000
,
0000
0000
0200
0000
,
0310
0000
0000
0000
,
0000
0000
0020
0000
,
1030
0000
0000
0000
,
0000
0000
2000
0000
,
3001
0000
0000
0000
,
0002
0000
1003
0000
,
0001
0001
0001
0001
,
1000
1000
1000
1000
,
0010
0010
0010
0010
,
0100
0100
0100
0100
,
0010
1000
0001
0010
,
0100
1000
0100
0010
,
0002
0000
0000
0000
,
0003
0000
0000
0000
,
2002
3003
1000
0100
,
0010
0001
0010
0200
,
1300
0010
0100
0001
,
0100
0100
0010
0010
,
2000
3001
0010
0100
,
1000
0100
0010
0002
,
1003
1000
1000
1000
,
0002
0000
0000
0003
,
0110
0000
0000
0110
0000
0000
1000
0000
,
0001
1000
0001
1000
,
1001
0001
0100
0010
,
1000
0100
1000
1000
,
0200
0310
0010
0001
,
1000
1000
0010
0010
,
0100
0001
0100
0001
,
2000
0000
0000
0000
,
3100
0010
0001
0000
,
0100
0100
0010
0000
,
1000
0000
0001
0000
,
0010
0010
0010
0000
,
0100
0000
1000
0100
,
0010
0000
0002
0000
,
1003
0010
0100
0001
,
0010
0100
2000
0000
,
3002
0000
0103
0100
,
0010
1000
0002
0000
,
1003
1000
0100
0010
,
0001
0001
0100
0000
,
0010
0000
0100
0001
,
0010
0000
0200
0000
,
1300
0100
0010
0001
,
2002
0000
0000
0000
,
0000
0000
0000
0000
,
0000
0000
0000
0000
,
3003
0000
0000
0000
;

//---------------dance-single - ----------------
#NOTES:
     dance-single:
     :
     Beginner:
     3:
     0.154340,0.229688,0.068056,0.136111,0.000000,127.000000,119.000000,8.000000,16.000000,0.000000,0.000000,0.154340,0.229688,0.068056,0.136111,0.000000,127.000000,119.000000,8.000000,16.000000,0.000000,0.000000:
0000
0000
0000
0000
,
0000
0000
0000
0000
,
0000
0000
0000
0000
,
0000
0000
0000
0000
,
0000
0000
0000
0000
,
0000
0000
0000
0000
,
0000
0000
0000
0000
,
0001
0000
0000
0000
0000
0000
0000
2000
,
0000
0000
3000
0000
,
0001
0000
0000
0000
,
0001
0000
0000
0000
,
1000
0000
0000
0000
,
1000
1000
1000
0000
,
0010
0000
0000
0000
,
0010
0000
0000
0000
,
0100
0000
0000
0000
,
0200
0000
0000
0000
,
0000
0000
0000
0000
,
0300
0000
0000
0000
,
0000
0000
0000
0000
,
0001
0000
0001
0000
,
1000
0000
1000
0000
,
0010
0000
0010
0000
,
0020
0000
0030
0000
,
0002
0000
0003
0000
,
2000
0000
3000
0000
,
0001
0000
1000
0000
,
0001
0000
1000
0000
,
0010
0000
0000
0000
,
0000
0000
0100
0000
,
0001
0000
0001
0000
,
1000
0000
1000
0000
,
0020
0000
0030
0000
,
0200
0000
0300
0000
,
0010
0010
0010
0000
,
2000
0000
3000
0000
,
0001
0000
1000
0000
,
0001
0000
1000
0000
,
0010
0000
0100
0000
,
0020
0000
0030
0000
,
1001
0000
0000
0000
,
0000
0000
0000
0000
,
1001
0000
0000
0000
,
0000
0000
0000
0000
,
0110
0000
0000
0000
,
0000
0000
0000
0000
,
0110
0000
0000
0000
,
1001
0000
0000
0000
,
1000
0000
1000
0000
,
1000
0000
0000
0000
,
0001
0000
0001
0000
,
0001
0000
0000
0000
,
0100
0000
0100
0000
,
0010
0000
0010
0000
,
0200
0000
0300
0000
,
0000
0000
0000
0000
,
2002
3003
1000
0000
,
1000
0000
0001
0000
,
0001
0000
1000
0000
,
1000
0000
0001
0000
,
0100
0000
0100
0000
,
0010
0000
0010
0000
,
0100
0100
0100
0000
,
0020
0000
0030
0000
,
1001
0000
1000
0000
,
0100
0000
0010
0000
,
0001
0000
0100
0000
,
0010
0000
1000
0000
,
0001
0000
0010
0000
,
1000
0000
0100
0000
,
0001
0001
0001
0000
,
0200
0000
0300
0000
,
0010
0000
0000
0000
,
1000
0000
0000
0000
,
0001
0000
1000
0000
,
0001
0000
1000
0000
,
0100
0000
0000
0000
,
0010
0000
0000
0000
,
0100
0000
0010
0000
,
0100
0000
0010
0000
,
0001
0000
0001
0000
,
1000
0000
1000
0000
,
0010
0000
0100
0000
,
0001
0000
1000
0000
,
0100
0000
0100
0000
,
0010
0000
0010
0000
,
0001
0000
1000
0000
,
2002
0000
0000
0000
,
0000
0000
0000
0000
,
0000
0000
0000
0000
,
3003
0000
0000
0000
;

//---------------dance-double - ----------------
#NOTES:
     dance-double:
     :
     Hard:
     1:
     0.275868,0.363672,0.153125,0.297743,0.110590,227.000000,209.000000,18.000000,35.000000,0.000000,0.000000,0.275868,0.363672,0.153125,0.297743,0.110590,227.000000,209.000000,18.000000,35.000000,0.000000,0.000000:
// measure 0
00000000
00000000
00000000
00000000
,  // measure 1
00000000
00000000
00000000
00000000
,  // measure 2
00000000
00000000
00000000
00000000
,  // measure 3
00000000
00000000
00000000
00000000
,  // measure 4
00000000
00000000
00000000
00000000
,  // measure 5
00010000
00001000
00010000
01000000
00000000
00100000
10000000
00010000
,  // measure 6
00000000
00000000
00000000
01000000
00000000
00000000
01000000
00001000
,  // measure 7
00022000
00000000
00033000
00002020
00000000
00000000
00003030
00000202
,  // measure 8
00000000
00000000
00000000
00000300
00000000
00000000
00000003
00000000
,  // measure 9
00000010
00000001
00001000
00000000
00000010
00000000
00001000
00000010
,  // measure 10
00010000
00000000
00001000
00010000
00001000
00000000
00010000
00000000
02000000
00000000
00000000
00000000
00000000
00000000
00000000
00000000
,  // measure 11
13000000
00000000
00100000
00000000
01000000
00000000
00000000
00000000
00010000
00000000
00100000
00000000
01000000
00000000
00000000
00100000
,  // measure 12
00010000
00001000
00022000
00033000
,  // measure 13
00000010
00000000
00000000
00000000
00011000
00000000
00000000
00000000
00100000
00000000
00000000
00000000
00011000
00000000
00001000
00010000
,  // measure 14
00000100
00000010
00000001
00000000
00002002
00000000
00003003
00000000
,  // measure 15
00000001
00000000
00000000
00000000
00000000
00000000
00000100
00000000
00000000
00000010
00000000
00000000
00001000
00000000
00000000
00000000
00010000
00000000
00000000
00000000
01000000
00000000
00000000
00000000
,  // measure 16
00002000
00000000
00000000
00000000
,  // measure 17
00023000
00000000
00000000
00230000
00000000
00000000
00320000
00000000
,  // measure 18
00032000
00000000
00000000
00003020
00000000
00000000
00000000
00000000
,  // measure 19
00002030
00000000
00000000
00000000
00000000
00000000
00013000
00001000
00020000
00000000
00000000
00000000
00000000
00000000
00000000
00000000
,  // measure 20
01030000
00000000
10000000
01000000
10000000
00000000
00100000
00000000
01000000
00000000
00010000
00000000
10000000
00000000
10000000
00000000
,  // measure 21
01000000
00000000
00010000
00001000
00000100
00000000
00000001
00000000
00001000
00000000
00000000
00000000
00001001
00000000
00000000
00000000
,  // measure 22
00001000
00000000
00000001
00000010
00000100
00000000
00001000
00000000
00000010
00000000
00000100
00000000
00000001
00000000
00001000
00000000
,  // measure 23
00000200
00000000
00000000
00000300
,  // measure 24
00022000
00000000
00000000
00000000
00000000
00000000
00033000
00000000
00011000
00000000
00000000
00000000
00001000
00010000
00001000
00010000
,  // measure 25
00200000
00000000
00000000
00000000
10300000
00000000
01000000
00100000
00020000
00000000
00000000
00000000
00000000
00000000
00000000
00000000
,  // measure 26
00030010
00001000
00010000
00000000
00100000
00010000
00001000
00000010
,  // measure 27
00000001
00000000
00000000
00000000
00000100
00000000
00000000
00000000
00000010
00000000
00001000
00000001
00001000
00000000
00000100
00000000
,  // measure 28
00020000
00000000
00001000
00230000
,  // measure 29
00000000
00000000
20300000
00000000
,  // measure 30
31000000
00000000
00100000
00000000
00001000
00010000
00000010
00000100
,  // measure 31
00000001
00000000
00000000
00001000
00000000
00000100
00020000
00000000
00000000
00030000
00000000
00000000
,  // measure 32
00022000
00033000
00010010
00001100
,  // measure 33
00000100
00000000
00000000
00000000
00000010
00000000
00000001
00000100
00000020
00000000
00000000
00000000
00000000
00000000
00000030
00000000
,  // measure 34
00000010
00001000
00000010
00000000
00010000
00001000
00010000
00000000
00001000
00100000
00001000
00000000
00010000
00001000
00010000
00000000
,  // measure 35
00002000
00003000
00010000
01000000
,  // measure 36
10010000
00000000
00000000
10000000
00000000
00000000
00010000
00000000
00010000
01000000
00000000
01000000
,  // measure 37
00100000
00000000
00000000
00000000
00100000
00000000
00010000
00000000
00000000
00000000
00000000
00000000
00001000
00000000
00000000
00020000
00000000
00000000
00000000
00000000
00000000
00000000
00000000
00000000
,  // measure 38
00031000
00000000
00000000
00000000
00000010
00000000
00000000
00000000
00000001
00000100
00000001
00000100
00000001
00000000
00000000
00000000
,  // measure 39
00000020
00000000
00000030
00000000
,  // measure 40
00000110
00000100
00000010
00000000
00000100
00000000
00010000
00000000
,  // measure 41
00100000
10000000
02000000
03000000
,  // measure 42
01100000
00000000
01000000
00000000
00100000
00000000
00010000
10000000
00010000
10000000
00010000
00000000
01000000
00000000
00100000
00000000
,  // measure 43
10000000
01000000
00100000
01000000
10000000
00000000
00000000
00000000
,  // measure 44
10010000
10000000
00010000
00000000
01000000
00000000
00001000
00000000
,  // measure 45
00010000
00000001
00001000
00000000
,  // measure 46
00001001
00000001
00001000
00000000
00010000
00000000
10000000
00000000
,  // measure 47
00010000
00001000
00000100
00000001
00000100
00000000
00000000
00000000
;
