#VERSION:0.83;
#TITLE:わが﨟たし悪の華;
#SUBTITLE:;
#ARTIST:ALI PROJECT;
#TITLETRANSLIT:waga routashi aku no hana;
#SUBTITLETRANSLIT:;
#ARTISTTRANSLIT:;
#GENRE:J-Pop;
#CREDIT:Victor;
#MUSIC:waga routashi aku no hana.ogg;
#BANNER:waga routashi aku no hana.png;
#BACKGROUND:BG.png;
#JACKET:waga routashi aku no hana-jacket.png;
#DISCIMAGE:;
#CDIMAGE:;
#SELECTABLE:YES;
#LYRICSPATH:;
#CDTITLE:CODE GEASS.png;
#SAMPLESTART:18.462;
#SAMPLELENGTH:15.000;
#BPMS:0.000000=130.000000;
#STOPS:;
#WARPS:;
#DELAYS:;
#SPEEDS:;
#SCROLLS:;
#TICKCOUNTS:;
#TIMESIGNATURES:;
#LABELS:;
#COMBOS:;
#FAKES:;
#BGCHANGES:0.000=waga routashi aku no hana.avi=0.000=0=0=0=StretchNoLoop====,
99999=-nosongbg-=1.000=0=0=0 // don't automatically add -songbackground-
;
#FGCHANGES:;
#ATTACKS:;
#DISPLAYBPM:130.000;
#METERTYPE:DDR X;

//---------------dance-single - Wrland---------------
#NOTEDATA:;
#CHARTNAME:;
#CHARTSTYLE:Pad;
#CREDIT:Wrland;
#STEPSTYPE:dance-single;
#DESCRIPTION:Wrland;
#DIFFICULTY:Beginner;
#METER:2;
#METERF:2;
#RADARVALUES:0,0,0,0,0;
#NOTES:
// measure 0
0000
0000
0000
0000
,  // measure 1
0000
0000
0000
0000
,  // measure 2
0000
0000
0000
0000
,  // measure 3
0000
0000
0000
0000
,  // measure 4
2000
0000
0000
0000
,  // measure 5
3000
0000
0000
0000
,  // measure 6
0002
0000
0000
0000
,  // measure 7
0003
0000
0000
0000
,  // measure 8
0200
0000
0000
0000
,  // measure 9
0300
0000
0000
0000
,  // measure 10
0100
0000
0000
0000
,  // measure 11
0010
0000
0000
0000
,  // measure 12
1000
0000
0000
0000
,  // measure 13
0010
0000
0000
0000
,  // measure 14
0100
0000
0000
0000
,  // measure 15
0100
0000
0000
0000
,  // measure 16
1000
0000
0000
0000
,  // measure 17
1000
0000
0000
0000
,  // measure 18
0000
0000
0000
0000
,  // measure 19
0000
0000
0000
0000
,  // measure 20
0100
0000
0000
0000
,  // measure 21
0100
0000
0000
0000
,  // measure 22
0001
0000
0000
0000
,  // measure 23
1000
0000
0000
0000
,  // measure 24
0000
0001
0000
0000
0000
0000
0000
0000
,  // measure 25
0000
1000
0000
0000
0000
0000
0000
0000
,  // measure 26
0001
0000
0000
0000
,  // measure 27
0001
0000
0000
0000
,  // measure 28
0100
0000
0000
0000
,  // measure 29
0010
0000
0000
0000
,  // measure 30
1000
0000
0000
0000
,  // measure 31
0010
0000
0000
0000
,  // measure 32
0000
0100
0000
0000
0000
0000
0000
0000
,  // measure 33
0000
0100
0000
0000
0000
0000
0000
0000
,  // measure 34
0100
0000
0000
0000
,  // measure 35
0010
0000
0000
0000
,  // measure 36
0010
0000
0000
0000
,  // measure 37
0001
0000
0000
0000
,  // measure 38
0100
0000
0000
0000
,  // measure 39
0100
0000
0000
0000
,  // measure 40
0001
0000
0000
0000
,  // measure 41
0010
0000
0000
0000
,  // measure 42
0010
0000
0000
0020
,  // measure 43
0000
0000
0000
0000
,  // measure 44
0030
0000
0100
0000
,  // measure 45
0000
0000
0001
0000
,  // measure 46
0000
0000
0100
0000
,  // measure 47
0000
0000
1000
0000
,  // measure 48
0000
0000
0001
0000
,  // measure 49
0000
0000
0100
0000
,  // measure 50
0000
0000
0010
0000
,  // measure 51
0000
0000
0000
0200
,  // measure 52
0000
0300
0000
0001
,  // measure 53
0000
0000
0000
0000
0000
0010
0000
0000
,  // measure 54
0000
0100
0000
0000
0000
0000
0100
0000
,  // measure 55
0000
0000
0000
0001
,  // measure 56
0000
0000
0000
0100
,  // measure 57
0000
0000
0000
0100
,  // measure 58
0000
0000
1000
0000
,  // measure 59
0000
0000
0100
0000
,  // measure 60
0000
0000
0100
0000
,  // measure 61
0000
0000
0100
0000
;

//---------------dance-single - Wrland---------------
#NOTEDATA:;
#CHARTNAME:;
#CHARTSTYLE:Pad;
#CREDIT:Wrland;
#STEPSTYPE:dance-single;
#DESCRIPTION:Wrland;
#DIFFICULTY:Medium;
#METER:8;
#METERF:8;
#RADARVALUES:0,0,0,0,0;
#NOTES:
// measure 0
0000
0000
0000
0000
,  // measure 1
0000
0000
0000
0000
,  // measure 2
0000
0000
0000
0000
,  // measure 3
0000
0000
0000
0000
,  // measure 4
0100
0000
0010
0001
0100
0000
0010
0100
,  // measure 5
0020
0000
0030
0000
0100
0000
0010
0100
,  // measure 6
0010
0000
0001
0100
0010
0100
1000
0100
,  // measure 7
0010
0000
0000
0000
0100
0010
0100
0010
0200
0000
0000
0000
0300
0000
0000
0000
,  // measure 8
0010
0000
0000
0001
0100
0000
0000
0000
0010
0000
0000
0100
0010
0000
0000
0000
,  // measure 9
1000
0000
0000
0100
1000
0000
0000
0000
0100
0000
0000
0000
0010
0000
0001
0000
,  // measure 10
0000
0100
0010
0001
0100
0020
0000
0030
,  // measure 11
0100
0000
0000
0000
0010
0000
0000
0000
0001
0000
0100
0001
0100
0000
0000
0000
,  // measure 12
0010
0000
0100
1000
0100
0000
0100
0000
,  // measure 13
0010
0000
0000
0001
0000
0000
0010
0000
0100
0000
0010
0000
0001
0100
0001
0000
,  // measure 14
0000
0100
0010
0000
0100
0020
0000
0030
,  // measure 15
0100
0000
0000
0010
0000
0000
0100
0000
0100
0010
0000
0000
,  // measure 16
0100
0010
0100
0000
0010
0000
0000
0000
0001
0100
0001
0000
0100
0000
0010
0000
,  // measure 17
0200
0000
0000
0300
,  // measure 18
0010
0100
0010
0001
0000
0100
0010
0100
,  // measure 19
1000
0100
1000
0000
0100
0000
0010
0000
0000
0000
0001
0000
0100
0000
0010
0000
,  // measure 20
0100
0010
0000
0001
0100
0000
0010
0000
0100
0000
0000
0000
1000
0000
0100
0000
,  // measure 21
1000
0100
1000
0000
0100
0000
0010
0000
0100
0000
0000
0000
0001
0000
0100
0000
,  // measure 22
0010
0100
0000
0001
0010
0000
0100
0000
0010
0000
0000
0000
0001
0000
0100
0001
,  // measure 23
0100
0010
0100
1000
0010
0000
0100
0000
,  // measure 24
0010
0001
0100
0010
0001
0100
0010
0000
,  // measure 25
0100
1000
0100
0010
0001
0100
0010
0000
,  // measure 26
0100
0010
0000
0000
0001
0000
0100
0000
0010
0100
0000
0000
1000
0000
0100
0000
,  // measure 27
1000
0100
0000
0000
0010
0000
0001
0000
0100
0000
0001
0100
0001
0000
0000
0000
,  // measure 28
0010
0100
0000
0010
0100
0000
1000
0000
0100
0000
0000
0000
0010
0000
0100
0010
,  // measure 29
0100
0010
0001
0100
0010
0000
0100
0000
,  // measure 30
0010
0100
0000
0000
0010
0000
0100
0000
0010
0000
0000
0000
0001
0000
0100
0001
,  // measure 31
0100
0010
0100
1000
0000
0100
0020
0000
,  // measure 32
0030
0000
0100
0000
0011
0000
0100
0000
0010
0000
0001
0100
0001
0000
0000
0000
,  // measure 33
0010
0000
1100
0000
0010
0000
0100
0000
0010
0000
0100
0010
0100
0000
0000
0000
,  // measure 34
0001
0100
0010
0100
0000
0000
1000
0100
1000
0100
0000
0000
,  // measure 35
0100
0000
0010
0100
0010
0000
0001
0000
0100
0000
0000
0000
0010
0000
0000
0000
,  // measure 36
0001
0000
0010
0100
1000
0000
0100
0000
,  // measure 37
0010
0000
1000
0000
0001
0000
0000
0000
0100
0000
0000
0000
0010
0000
0001
0100
,  // measure 38
0001
0000
0000
0000
0010
0000
0000
0000
0100
0000
1000
0000
0100
0000
1000
0100
,  // measure 39
1000
0000
0000
0000
0100
0000
0000
0000
0010
0000
0001
0000
0100
0000
0001
0100
,  // measure 40
0001
0000
0000
0000
0010
0000
0000
0000
0100
0000
0010
0000
0100
0000
0010
0100
,  // measure 41
0010
0000
0100
0010
1000
0000
0100
0010
0100
0000
0001
0010
0100
0000
1000
0000
,  // measure 42
0100
0010
0001
0000
0100
0000
0010
0000
0100
0000
0010
0100
0020
0000
0000
0000
,  // measure 43
0000
0000
0000
0000
,  // measure 44
0030
0000
0000
0000
0100
0000
0010
0001
,  // measure 45
0100
0020
0000
0030
0100
0000
1000
0000
,  // measure 46
0100
0000
1000
0100
0000
0000
0000
0000
0100
0000
0000
0000
0010
0000
0001
0000
,  // measure 47
0100
0000
0010
0000
0001
0000
0100
0010
,  // measure 48
0100
0020
0000
0030
0001
0000
0100
0000
,  // measure 49
0010
0200
0000
0300
0010
0000
0001
0000
,  // measure 50
0100
0000
0000
0000
0000
0000
0000
0000
0010
0000
0000
0000
0100
0000
0000
0000
0000
0000
0000
0000
0000
0000
0000
0000
0001
0000
0000
0000
0000
0000
0010
0000
0000
0000
0000
0000
0100
0000
0000
0010
0000
0000
0000
0000
0000
0000
0000
0000
,  // measure 51
1000
0000
0000
0000
0000
0000
0100
0000
0000
0000
0000
0000
1000
0000
0000
0100
0000
0000
0000
0000
0000
0000
0000
0000
0100
0000
0000
0000
0010
0000
0000
0000
0100
0000
0000
0000
0020
0000
0000
0000
0000
0000
0000
0000
0000
0000
0000
0000
,  // measure 52
0000
0000
0030
0000
0001
0100
0010
0000
,  // measure 53
0100
0000
1000
0000
0100
0000
0000
0000
1000
0100
2000
0000
0000
0000
3000
0000
,  // measure 54
0100
0010
0200
0000
0300
0000
0001
0010
0100
0000
0010
0000
0100
0000
0000
0000
,  // measure 55
0001
0100
0001
0100
0010
0000
0100
0000
,  // measure 56
1000
0100
1000
0100
1000
0000
0100
0000
,  // measure 57
0010
0000
0100
0010
0100
0000
0000
0000
0001
0000
0000
0000
0100
0000
0000
0000
,  // measure 58
0010
0000
0100
0010
0100
0000
1000
0000
0100
0000
0000
0000
0010
0000
0000
0000
,  // measure 59
0001
0000
0100
0010
0110
0000
1000
0000
,  // measure 60
0100
0000
0010
0001
0101
0000
0010
0000
,  // measure 61
0100
0000
1000
0100
1100
0000
0100
0000
,  // measure 62
0010
0000
0001
0100
0000
0000
0000
0000
;

//---------------dance-single - Wrland---------------
#NOTEDATA:;
#CHARTNAME:;
#CHARTSTYLE:Pad;
#CREDIT:Wrland;
#STEPSTYPE:dance-single;
#DESCRIPTION:Wrland;
#DIFFICULTY:Hard;
#METER:12;
#METERF:12;
#RADARVALUES:0,0,0,0,0;
#NOTES:
// measure 0
0000
0000
0000
0000
,  // measure 1
0000
0000
0000
0000
,  // measure 2
0101
0000
0000
0100
0010
0000
0000
0000
0001
0000
0000
0100
0001
0000
0000
0000
,  // measure 3
0011
0000
0000
0100
0010
0000
0000
0000
1000
0000
0000
1000
0100
0000
0000
0000
,  // measure 4
1200
0300
0010
0001
0200
0300
0010
0001
,  // measure 5
0200
0000
0300
0000
0010
0000
0000
0000
0001
0000
0010
0001
0100
0000
0010
0000
,  // measure 6
0200
0300
1000
0100
1000
0100
0010
0001
,  // measure 7
0200
0000
0300
0000
0010
0100
0010
0100
0020
0000
0000
0030
0000
0000
0000
0000
,  // measure 8
0001
0000
0000
0100
0001
0000
0000
0000
0100
0000
0000
0010
0100
0000
0000
0000
,  // measure 9
1000
0000
0000
0100
1000
0000
0000
0000
0100
0010
0100
0010
0001
0000
0100
0000
,  // measure 10
0010
0000
0001
0100
0001
0000
0100
0000
0010
0000
0200
0000
0300
0000
0000
0000
,  // measure 11
0100
0000
1000
0100
1000
0000
0100
0000
0010
0000
0001
0100
0020
0000
0030
0000
,  // measure 12
0100
0000
0010
0000
0001
0100
0001
0000
0100
0000
0010
0000
0100
0010
0100
0000
,  // measure 13
0010
0000
0001
0100
0010
0000
0100
0000
1000
0000
0100
1000
0100
0000
0000
0000
,  // measure 14
0100
0000
0010
0100
0010
0000
0001
0000
0100
0000
0020
0000
0000
0030
0000
0000
,  // measure 15
0100
0000
0000
0000
0000
0000
0010
0000
0000
0100
0000
0000
0010
0000
0000
0000
0000
0000
0001
0000
0000
0000
0000
0000
0100
0000
0000
0000
0001
0000
0000
0000
0010
0000
0000
0000
0100
0000
0000
0000
0000
0000
0000
0000
0000
0000
0000
0000
,  // measure 16
0010
0000
0100
0000
0010
0100
0010
0000
0001
0000
0100
0000
0001
0100
0001
0000
,  // measure 17
0100
0010
0100
2000
0000
0000
0000
0000
0000
0000
0000
0000
,  // measure 18
3100
0010
0100
0020
0030
0001
0100
0000
,  // measure 19
0010
0100
1000
0200
0300
1000
0100
0010
,  // measure 20
0001
1000
0000
0010
0100
0000
0100
0000
0020
0000
0030
0000
0001
0000
0100
0001
,  // measure 21
0100
0010
0100
1000
0200
0000
0310
0000
,  // measure 22
0010
0001
0000
0100
0010
0000
0100
0000
2000
0000
3000
0000
0100
0000
1000
0100
,  // measure 23
1000
0100
0010
0002
0003
0100
0100
0000
,  // measure 24
0010
0100
0020
0030
0001
0100
0020
0030
,  // measure 25
0000
0100
0010
0001
0100
0010
0100
0000
,  // measure 26
1000
0100
0000
0000
0010
0000
0001
0000
0100
0001
0100
0000
0010
0000
0100
0000
,  // measure 27
0010
0100
0010
0000
0001
0000
0100
0000
0010
0100
0010
0000
0100
0000
0000
0000
,  // measure 28
1000
0100
0000
1000
0100
0000
0010
0000
0200
0000
0300
0000
0001
0000
0100
0001
,  // measure 29
0100
0010
0100
1000
0200
0300
0100
0000
,  // measure 30
0010
0100
0000
0001
0100
0000
0010
0000
0200
0000
0300
0000
0010
0000
0001
0100
,  // measure 31
0001
0100
0010
0200
0300
1000
0100
0000
,  // measure 32
1000
0000
0100
1000
0100
0000
0010
0000
0100
0000
0010
0000
0002
0000
0003
0000
,  // measure 33
0000
0000
0100
0001
0100
0000
0010
0000
0100
0000
0010
0000
2000
0000
3000
0000
,  // measure 34
0100
0010
0100
0010
0000
0000
0001
0100
0001
0100
0000
0000
,  // measure 35
0010
0000
0100
0010
0100
0000
1000
0000
0100
0000
1000
0100
1000
0000
0100
0000
,  // measure 36
0020
0030
0001
0100
0020
0030
0100
0000
,  // measure 37
2000
3000
0100
0010
0002
0003
0100
0010
,  // measure 38
0200
0000
0300
0000
0020
0000
0030
0000
0001
0000
0100
0001
0100
0000
0010
0000
,  // measure 39
0200
0000
0000
0000
1300
0000
0000
0000
0100
0000
1000
0100
1000
0000
0100
0000
,  // measure 40
0020
0000
0000
0000
0031
0000
0000
0000
0100
0000
0010
0100
0010
0000
0100
0000
,  // measure 41
1000
0000
0100
0010
0100
0000
0001
0100
0001
0000
0010
0100
0010
0000
0100
0000
,  // measure 42
0010
0001
0100
0000
1000
0000
0100
1000
0100
0000
0010
0000
0200
0000
0000
0000
,  // measure 43
0301
0000
0100
0001
0100
0000
0010
0000
0100
0000
0010
0100
0010
0000
0100
0000
,  // measure 44
0000
0000
0000
0000
0000
0000
0000
0000
0100
0000
0010
0100
0010
0000
0001
0000
,  // measure 45
0100
0000
0020
0000
0000
0030
0000
0000
0100
0000
0010
0100
0010
0000
0100
0000
,  // measure 46
1000
0000
0100
1000
0100
0000
0000
0000
0100
0000
0010
0000
0001
1000
0100
0000
,  // measure 47
0010
0000
0100
0000
0010
0100
0010
0000
0001
0000
0100
0001
0100
0000
0010
0000
,  // measure 48
0100
0000
2000
0000
0000
3000
0000
0000
0100
0000
1000
0100
1000
0000
0100
0000
,  // measure 49
0010
0000
0002
0000
0000
0003
0000
0000
0100
0000
0010
0100
0010
0000
0001
0000
,  // measure 50
0100
0000
0000
0000
0010
0000
0000
0000
0100
0000
0000
0000
0010
0000
0000
0000
0000
0000
0000
0000
0000
0000
0000
0000
0100
0000
0000
0000
0000
0000
0010
0000
0000
0000
0000
0000
0001
0000
0000
0100
0000
0000
0001
0000
0000
0000
0000
0000
,  // measure 51
0010
0000
0000
0000
0000
0000
0100
0000
0000
0000
0000
0000
0010
0000
0000
0001
0000
0000
0100
0000
0000
0000
0000
0000
1000
0000
0000
0000
0100
0000
0000
0000
1000
0000
0000
0000
0200
0000
0000
0000
0000
0000
0300
0000
0000
0000
0000
0000
,  // measure 52
0010
0000
0010
0100
0010
0000
0001
0000
0100
0000
0010
0000
0200
0000
0300
0000
,  // measure 53
0010
0000
0001
0000
0200
0000
0300
0000
0100
0001
0020
0000
0030
0000
0000
0000
,  // measure 54
0100
1000
0200
0000
0300
0000
0001
0010
0100
0000
0010
0000
0100
0000
0010
0100
,  // measure 55
0010
0000
0001
0000
0100
0000
0010
0000
0200
0000
0300
0000
1000
0000
0100
1000
,  // measure 56
0100
0000
0100
0000
0010
0000
0001
0000
0200
0000
0300
0000
0100
0000
0100
0010
,  // measure 57
0001
0000
0100
0000
0010
0000
0001
0000
0100
0000
0010
0100
0010
0000
1000
0000
,  // measure 58
0100
0000
1000
0100
1000
0000
0100
0000
0011
0000
0001
0100
0010
0000
0001
0000
,  // measure 59
0100
0000
0010
0100
0010
0000
0100
0000
1000
0000
0100
1000
0100
0000
0010
0000
,  // measure 60
0100
0000
0010
0100
0010
0000
0100
0000
0011
0000
0100
0001
0100
0000
0001
0000
,  // measure 61
0010
0000
0100
0010
0100
0000
0010
0000
1100
0000
0100
1000
0100
0000
0010
0000
,  // measure 62
0100
0000
0010
0100
0010
0000
0001
0000
2000
0000
0000
0000
0000
0000
0000
0000
,  // measure 63
0000
0000
3010
0000
;

//---------------dance-single - Wrland---------------
#NOTEDATA:;
#CHARTNAME:;
#CHARTSTYLE:Pad;
#CREDIT:Wrland;
#STEPSTYPE:dance-single;
#DESCRIPTION:Wrland;
#DIFFICULTY:Challenge;
#METER:14;
#METERF:14;
#RADARVALUES:0,0,0,0,0;
#NOTES:
// measure 0
0000
0000
0000
0000
,  // measure 1
0000
0000
0000
0000
,  // measure 2
1000
0000
0100
1000
0100
0000
0100
0010
0100
0000
0010
0001
0010
0000
0001
0000
,  // measure 3
0010
0000
0001
0010
0001
0000
0100
0010
0100
0000
1000
0100
1000
0000
0100
0000
,  // measure 4
0020
0000
0030
0000
0100
0000
0010
0000
0001
0000
0100
0001
0100
0000
0010
0000
,  // measure 5
0200
0000
0300
0000
1000
0000
0100
0000
1000
0000
0100
0010
0100
0000
0010
0000
,  // measure 6
0002
0000
0003
0000
0100
0000
0010
0000
0001
0000
0100
0001
0100
0000
0010
0000
,  // measure 7
0200
0000
0300
0000
0100
1000
0100
0010
0002
0000
0003
0000
0100
0000
0010
0000
,  // measure 8
0200
0000
0300
0001
0020
0000
0030
0100
0020
0000
0030
1000
0200
0000
0300
0010
,  // measure 9
0200
0000
0300
0001
0200
0000
0300
0001
0010
0000
0100
0000
0001
0100
0001
0100
,  // measure 10
0001
0000
0010
1000
0100
0000
0010
0000
0100
0000
0020
0000
0000
0000
0030
0000
,  // measure 11
0001
0000
0100
0010
0100
0000
0100
0000
0010
0000
0100
0010
0100
0000
0000
0000
,  // measure 12
0010
0000
0100
0000
0010
0000
0001
0000
0100
0001
0100
0000
0010
0000
0100
0000
,  // measure 13
1000
0000
0100
1000
0100
0000
0010
0000
0001
0100
0010
0000
0200
0000
0300
0000
,  // measure 14
0010
0000
0001
0100
0001
0000
0100
0000
0010
0000
0200
0000
0300
0000
0000
0000
,  // measure 15
0100
0000
0000
0000
0000
0000
1000
0000
0000
0010
0000
0000
0100
0000
0000
0000
0000
0000
0010
0000
0000
0000
0000
0000
0001
0000
0000
0000
0100
0000
0000
0000
0010
0000
0000
0000
0100
0000
0000
0000
0000
0000
0000
0000
0000
0000
0000
0000
,  // measure 16
0010
0000
0100
0000
0001
0100
0001
0000
0100
0000
0010
0000
0010
0100
0010
0000
,  // measure 17
0100
0000
0000
0000
0010
0000
0000
0000
0001
0000
0000
0000
0200
0000
0000
0000
0000
0000
0300
0000
0000
0000
0000
0000
0010
0000
0000
0000
0000
0000
0100
0000
0000
0000
0000
0000
0010
0000
0000
0100
0000
0000
0010
0000
0000
0000
0000
0000
,  // measure 18
0001
0010
0100
2000
3000
0100
1000
0100
,  // measure 19
0010
0001
0100
0020
0030
0100
0010
0001
,  // measure 20
0100
1000
0000
0010
0100
0000
0010
0000
0002
0000
0003
0000
0100
0000
0010
0000
,  // measure 21
0100
0010
0000
0001
0100
0000
0010
0000
0200
0000
0300
0000
0010
0000
0000
0000
,  // measure 22
0001
0100
0000
0001
0100
0000
0010
0000
0200
0000
0300
0000
0010
0000
0100
0001
,  // measure 23
0010
0000
0100
0000
0010
0000
0100
0000
1000
0000
0100
1000
0100
0000
0010
0000
,  // measure 24
0000
0000
0100
0000
0110
0000
0010
0000
0100
0000
0010
0100
0001
0000
0100
0000
,  // measure 25
0010
0000
0100
0010
0100
0000
0010
0000
0001
0000
0100
0000
0010
0000
0000
0000
,  // measure 26
1000
0010
0100
0000
0100
0000
0010
0000
0001
0100
1000
0000
0100
0000
0010
0000
,  // measure 27
0001
0100
0001
0000
0100
0000
0010
0000
0100
1000
0100
0000
0100
0000
0010
0000
,  // measure 28
0100
0010
0000
0001
0100
0000
0010
0000
0200
0000
0300
0000
1000
0000
0100
1000
,  // measure 29
0100
0001
0010
0000
0100
0000
0010
0000
0200
0000
0300
0000
0001
0000
0100
0000
,  // measure 30
0001
0100
0000
0010
0100
0000
1000
0000
0200
0000
0300
0000
0010
0000
0100
0001
,  // measure 31
0100
0000
0100
0000
0010
0000
0100
0000
0010
0000
0001
0100
0001
0000
0100
0000
,  // measure 32
0000
0000
0010
0000
0110
0000
1000
0000
0010
0000
0001
0100
0001
0000
0010
0000
,  // measure 33
0000
0000
0100
0000
0110
0000
0001
0000
1000
0000
0100
0010
1000
0000
0000
0000
,  // measure 34
0100
0000
0000
0000
0010
0000
0000
0000
0100
0000
0000
0000
0010
0000
0000
0000
0001
0000
0000
0000
0100
0000
0000
0000
0010
0000
0000
0000
0000
0000
0100
0000
0000
0010
0000
0000
0200
0000
0000
0000
0000
0000
0300
0000
0000
0000
0000
0000
,  // measure 35
0010
0100
0010
0100
0000
0000
0010
0100
1000
0100
0000
0000
,  // measure 36
0002
0000
0003
0000
0010
0000
0100
0010
0100
0000
0010
0000
0200
0000
0300
0000
,  // measure 37
0010
0100
1000
0000
0100
0000
1000
0000
0100
0000
0010
0100
0010
0000
0001
0000
,  // measure 38
0200
0000
0300
0010
0100
0000
0010
0000
0001
0000
0100
0001
0100
0000
0010
0000
,  // measure 39
0200
0000
0300
0000
0010
0000
0100
0000
0010
0100
0010
0000
0001
0000
0100
0000
,  // measure 40
0020
0000
0030
0000
0100
0000
1000
0000
0100
1000
0100
0000
0100
0000
0010
0100
,  // measure 41
0001
0000
0010
0100
1000
0000
0010
0001
0100
0000
1000
0100
0010
0000
0100
0001
,  // measure 42
0010
0000
0100
0010
0100
0000
0001
0000
0100
0010
0100
0000
0020
0000
0030
0000
,  // measure 43
0001
0000
0100
0010
0100
0000
1000
0000
0100
0000
1000
0100
1000
0000
0100
0000
,  // measure 44
0000
0000
0100
0100
0100
0000
0100
0000
0010
0000
0100
0010
0100
0000
0010
0000
,  // measure 45
0001
0000
0100
0000
0010
0000
0100
0010
0100
0000
1000
0000
0100
0000
0010
0000
,  // measure 46
0001
0000
0100
0001
0100
0000
0000
0000
0010
0000
0100
0000
0010
0100
0010
0000
,  // measure 47
0100
0000
1000
0000
0100
1000
0100
0000
0010
0000
0100
0010
0001
0000
0100
0000
,  // measure 48
0010
0100
0010
0000
0001
0000
0100
0000
0010
0000
0100
0010
0100
0000
1000
0000
,  // measure 49
0100
0000
1000
0000
0001
0000
0100
0000
0010
0000
0001
0100
0001
0000
0010
0000
,  // measure 50
0100
0000
0000
0000
0010
0000
0000
0000
0100
0000
0000
0000
0010
0000
0000
0000
0000
0000
0000
0000
0000
0000
0000
0000
0001
0000
0000
1000
0000
0000
0100
0000
0000
0000
0000
0000
0100
0000
0000
0000
0000
0000
0010
0000
0000
0000
0000
0000
,  // measure 51
0100
0000
0000
0010
0000
0000
0100
0000
0000
0000
0000
0000
0001
0000
0000
0000
0000
0000
0100
0000
0000
0000
0000
0000
0010
0000
0000
0000
0100
0000
0000
0000
0010
0000
0000
0000
0200
0000
0000
0000
0000
0000
0300
0000
0000
0000
0000
0000
,  // measure 52
0010
0000
0001
0000
0100
0000
0010
0000
0000
0000
0000
0000
0100
0000
0000
0010
0000
0000
0200
0000
0000
0300
0000
0000
,  // measure 53
0001
0000
0100
0001
0200
0000
0300
0000
0010
0100
0010
0000
0100
0000
0000
0000
,  // measure 54
0010
0100
0010
0000
1000
0000
0100
1000
0200
0000
0300
0000
0010
0000
0001
0000
,  // measure 55
0100
0000
0001
0100
0001
0000
0100
0000
0020
0000
0030
0000
0100
0000
1000
0000
,  // measure 56
0100
0000
1000
0100
1000
0000
0100
0001
0010
0000
0100
0000
1000
0000
0100
0000
,  // measure 57
0010
0000
0001
0100
0001
0000
0100
0000
0010
0000
0100
0000
1000
0000
0100
0000
,  // measure 58
1000
0000
0100
1000
0100
0000
0100
0000
0010
0000
0001
0100
0001
0000
0100
0010
,  // measure 59
0100
0000
1000
0100
0010
0000
0001
0000
0100
0000
0010
0100
0010
0000
0100
0010
,  // measure 60
0001
0000
0100
1000
0010
0000
0100
0001
1000
0000
0100
1000
0100
0000
0100
0010
,  // measure 61
0100
0000
0010
0001
0010
0000
0001
0000
0010
0000
0001
0010
0001
0000
0100
0010
,  // measure 62
0100
0000
1000
0100
1000
0000
0100
0000
0010
0000
0100
0010
0100
0000
0000
0000
,  // measure 63
0001
0100
1000
0010
0000
0000
0000
0000
0000
0000
0000
0000
;

//---------------dance-single - Wrland---------------
#NOTEDATA:;
#CHARTNAME:;
#CHARTSTYLE:Pad;
#CREDIT:Wrland;
#STEPSTYPE:dance-single;
#DESCRIPTION:Wrland;
#DIFFICULTY:Easy;
#METER:5;
#METERF:5;
#RADARVALUES:0,0,0,0,0;
#NOTES:
// measure 0
0000
0000
0000
0000
,  // measure 1
0000
0000
0000
0000
,  // measure 2
0000
0000
0000
0000
,  // measure 3
0000
0000
0000
0000
,  // measure 4
0100
0100
0010
0001
,  // measure 5
0100
0000
0000
0010
,  // measure 6
0001
0100
0010
0100
,  // measure 7
1000
0000
0000
0000
,  // measure 8
0100
0010
0001
0000
,  // measure 9
0100
0010
0001
0000
,  // measure 10
0100
0000
0010
0000
0001
0100
0000
0000
,  // measure 11
0010
0100
1000
0100
,  // measure 12
1000
0100
0001
0100
,  // measure 13
0010
0000
0001
0000
0100
0001
0000
0000
,  // measure 14
0100
0010
0001
0000
,  // measure 15
0100
0010
0100
0000
,  // measure 16
1000
0001
1000
0001
,  // measure 17
1000
2002
0000
0000
,  // measure 18
3003
0000
0000
0000
,  // measure 19
0000
0000
0000
0000
,  // measure 20
0100
0010
0001
0000
,  // measure 21
0100
0000
0010
0100
0010
0000
0000
0000
,  // measure 22
0001
0000
0100
0000
0010
0000
0000
1000
,  // measure 23
0100
0000
0010
0001
0100
0000
0010
0000
,  // measure 24
0000
0001
0100
0000
0010
0000
0100
0000
,  // measure 25
0000
1000
0100
0000
0100
0000
0010
0000
,  // measure 26
0001
0100
0010
0000
,  // measure 27
0001
0000
0100
0010
0100
0000
1000
0000
,  // measure 28
0100
0000
0010
0000
0001
0000
0000
0100
,  // measure 29
0010
0000
0001
0100
0010
0000
0100
0000
,  // measure 30
1000
0000
0100
1000
0100
0000
0100
0000
,  // measure 31
0010
0000
0001
0100
0001
0000
0000
0000
,  // measure 32
0000
0100
0001
0000
0100
0000
0010
0000
,  // measure 33
0000
0100
0010
0000
0100
1000
0100
0000
,  // measure 34
0100
0010
0001
0100
,  // measure 35
0010
0000
0001
0100
0001
0000
0100
0000
,  // measure 36
0010
0000
0100
0010
0100
0000
0000
0000
,  // measure 37
0001
0000
0100
0001
0100
0000
0000
0000
,  // measure 38
0100
0000
1000
0100
1000
0000
0000
0000
,  // measure 39
0100
0000
0010
0100
0010
0000
0000
0000
,  // measure 40
0001
0000
0100
0001
0100
0000
0000
0000
,  // measure 41
0010
0100
1000
0100
,  // measure 42
0010
0001
0100
0020
,  // measure 43
0000
0000
0000
0000
,  // measure 44
0030
0000
0100
0100
,  // measure 45
0010
0000
0001
0100
,  // measure 46
0010
0000
0100
1000
,  // measure 47
0100
0000
1000
0100
,  // measure 48
0010
0000
0001
0100
,  // measure 49
0010
0000
0100
1000
,  // measure 50
0100
0000
0010
0001
,  // measure 51
0100
0000
0010
0200
,  // measure 52
0000
0300
0010
0001
,  // measure 53
0100
0000
0010
0000
0100
0010
0000
0000
,  // measure 54
0001
0100
0000
0000
0010
0000
0100
0000
,  // measure 55
1000
0100
1000
0000
,  // measure 56
0100
0000
0010
0000
0001
0000
0100
0001
,  // measure 57
0100
0000
0010
0100
,  // measure 58
1000
0000
1000
0100
,  // measure 59
1000
0100
1000
0000
0100
0000
0010
0000
,  // measure 60
0001
0100
0001
0000
0100
0000
0010
0000
,  // measure 61
0001
0100
0001
0000
0100
0000
0010
0000
,  // measure 62
0100
0010
0100
0000
0000
0000
0000
0000
;
