#TITLE:Alles Neu;
#SUBTITLE:;
#ARTIST:MIA.;
#TITLETRANSLIT:;
#SUBTITLETRANSLIT:;
#ARTISTTRANSLIT:;
#GENRE:R-Pop;
#CREDIT:Epic;
#MUSIC:Alles Neu.ogg;
#BANNER:Alles Neu.png;
#BACKGROUND:BG.png;
#JACKET:Alles Neu-jacket.png;
#TAGS:DMCA;
#CDTITLE:Popular.png;
#SAMPLESTART:54.001;
#SAMPLELENGTH:15;
#SELECTABLE:YES;
#OFFSET:-0.001;
#BPMS:0.000=160.000;
#STOPS:;
#DISPLAYBPM:160.000;
#BGCHANGES:0.000=Alles Neu.avi=0.000=0=0=0=StretchNoLoop====,
99999=-nosongbg-=1.000=0=0=0 // don't automatically add -songbackground-
;
#FGCHANGES:;

//--------------- dance-single - Wrland ----------------
#NOTES:
     dance-single:
     Wrland:
     Beginner:
     1:
     0,0,0,0,0:
0000
0000
0000
0000
,
0000
0000
0000
0000
,
0000
0000
0000
0000
,
0000
0000
0000
0000
,
0000
0000
0000
0000
,
0000
0000
0000
0000
,
0000
0000
0000
0000
,
0000
0000
0000
0000
,
0000
0000
0000
0000
,
0000
0000
0000
0000
,
0000
0000
0000
0000
,
0000
0000
0000
0000
,
1000
0000
0000
0000
,
0000
0000
0000
0000
,
0001
0000
0000
0000
,
0000
0000
0000
0000
,
1000
0000
0000
0000
,
0000
0000
0000
0000
,
0100
0000
0000
0000
,
0000
0000
0000
0000
,
0010
0000
0000
0000
,
0000
0000
0000
0000
,
0001
0000
0000
0000
,
0000
0000
0000
0000
,
0100
0000
0000
0000
,
0000
0000
0000
0000
,
0010
0000
0000
0000
,
0000
0000
0000
0000
,
0100
0000
0000
0000
,
0000
0000
0000
0000
,
1000
0000
0000
0000
,
0000
0000
0000
0000
,
0001
0000
0000
0000
,
0000
0000
0000
0000
,
0200
0000
0000
0000
,
0300
0000
0000
0000
,
0010
0000
0000
0000
,
0000
0000
0000
0000
,
0001
0000
0000
0000
,
0000
0000
0000
0000
,
1000
0000
0000
0000
,
0000
0000
0000
0000
,
0100
0000
0000
0000
,
0000
0000
0000
0000
,
0010
0000
0000
0000
,
0000
0000
0000
0000
,
0001
0000
0000
0000
,
0000
0000
0000
0000
,
0100
0000
0000
0000
,
0000
0000
0000
0000
,
0010
0000
0000
0000
,
0000
0000
0000
0000
,
0100
0000
0000
0000
,
0000
0000
0000
0000
,
1000
0000
0000
0000
,
0000
0000
0000
0000
,
0100
0000
0000
0000
,
0000
0000
0000
0000
,
0010
0000
0000
0000
,
0000
0000
0000
0000
,
0001
0000
0000
0000
,
0000
0000
0000
0000
,
1000
0000
0000
0000
,
0000
0000
0000
0000
,
0100
0000
0000
0000
,
0000
0000
0000
0000
,
0010
0000
0000
0000
;

//--------------- dance-single - Wrland ----------------
#NOTES:
     dance-single:
     Wrland:
     Easy:
     3:
     0,0,0,0,0:
0000
0000
0000
0000
,
0000
0000
0000
0000
,
0000
0000
0000
0000
,
0000
0000
0000
0000
,
0000
0000
0000
0000
,
0000
0000
0000
0000
,
0000
0000
0000
0000
,
0000
0000
0000
0000
,
0000
0000
0000
0000
,
0000
0000
0000
0000
,
0000
0000
0000
0000
,
0000
0000
0000
0000
,
1000
0000
0000
0000
,
1000
0000
0000
0000
,
0001
0000
0000
0000
,
0001
0000
0000
0000
,
1000
0000
0000
0000
,
1000
0000
0000
0000
,
0100
0000
0000
0000
,
0010
0000
0000
0000
,
0100
0000
0000
0000
,
1000
0000
0000
0000
,
0001
0000
0000
0000
,
0001
0000
0000
0000
,
0100
0000
0000
0000
,
0010
0000
0000
0000
,
0010
0000
0000
0000
,
0001
0000
0000
0000
,
0100
0000
0000
0000
,
0000
0000
0000
0000
,
1000
0000
0000
0000
,
0000
0000
0000
0000
,
0001
0000
0000
0000
,
0000
0000
0000
0000
,
0200
0000
0000
0000
,
0300
0000
0000
0000
,
0010
0000
0000
0000
,
0100
0000
0000
0000
,
0001
0000
0000
0000
,
0010
0000
0000
0000
,
1000
0000
0000
0000
,
0001
0000
0000
0000
,
0100
0000
0000
0000
,
1000
0000
0000
0000
,
0010
0000
0000
0000
,
0100
0000
0000
0000
,
0001
0000
0000
0000
,
0010
0000
0000
0000
,
0100
0000
0000
0000
,
0001
0000
0000
0000
,
0010
0000
0000
0000
,
1000
0000
0000
0000
,
0100
0000
0000
0000
,
0010
0000
0000
0000
,
1000
0000
0000
0000
,
0001
0000
0000
0000
,
0100
0000
0000
0000
,
1000
0000
0000
0000
,
0010
0000
0000
0000
,
0100
0000
0000
0000
,
0001
0000
0000
0000
,
0010
0000
0000
0000
,
1000
0000
0000
0000
,
0001
0000
0000
0000
,
0100
0000
0000
0000
,
1000
0000
0000
0000
,
0010
0000
0000
0000
,
0100
0000
0000
0000
;

//--------------- dance-single - Wrland ----------------
#NOTES:
     dance-single:
     Wrland:
     Medium:
     8:
     0,0,0,0,0:
0000
0000
0000
0000
,
0000
0000
0000
0000
,
0000
0000
0000
0000
,
0000
0000
0000
0000
,
1000
0000
0100
1000
,
0100
0100
0000
0000
0010
0010
0000
0000
,
0001
0000
0100
0001
,
0010
0010
0000
0000
0100
0100
0000
0000
,
1000
0000
0000
0000
0100
1000
0000
0000
,
0100
0010
0000
0000
0001
0000
0100
0000
,
0010
0000
0000
0000
0010
0010
0000
0000
,
0100
0100
0000
0000
1000
0000
0100
0000
,
1000
0001
1000
0001
,
1000
0001
0000
0100
,
0000
0010
0100
0010
,
0001
0100
0000
0010
,
0001
0100
0010
0100
,
1000
0100
0000
1000
,
0100
1000
0100
0010
,
0001
0000
0100
0001
0100
0000
0010
0000
,
0100
1000
0100
0010
,
0100
0010
0100
0000
0001
0000
0100
0000
,
0010
0100
1000
0100
,
1000
0100
1000
0000
0100
0000
0010
0000
,
0100
0000
0010
0000
0001
0000
0100
0001
,
0100
0001
0100
0000
0010
0000
0100
0000
,
0010
0000
0001
0000
0100
0000
0010
0100
,
0010
0000
0001
0100
0001
0000
0010
0000
,
0100
0010
0000
0000
0001
1000
0000
0000
,
0100
1000
0100
0000
,
0100
0010
0001
0100
,
0010
0100
0010
0000
,
0001
0100
0000
0000
0010
0100
0000
0000
,
1000
0100
1000
0100
,
0010
0000
0001
0100
0001
0000
0010
0100
,
0020
0000
0000
0030
,
0100
0010
0100
0010
0001
0100
0001
0000
,
0000
0100
0010
1000
0100
1000
0100
0000
,
0000
0100
0010
0001
0100
0010
0100
0000
,
0010
0000
0100
0010
0001
0000
0100
0000
,
0000
0100
0100
0010
0100
0010
0100
0000
,
0000
0001
0100
0001
0100
0001
0100
0000
,
0100
1100
0100
0110
,
0001
0000
0100
0001
0100
0000
0010
0000
,
0000
0100
1000
0100
1000
0100
1000
0000
,
0000
0100
0010
0001
0100
0001
0100
0000
,
0000
0010
0100
0010
0001
0100
0010
0000
,
0100
0000
0010
0100
0010
0000
0001
0000
,
0000
0100
0010
0001
0100
0010
0100
0000
,
0000
1000
0100
1000
0000
0001
1000
0001
,
1000
1001
1000
1001
,
0001
1001
0001
1001
,
0100
0000
0010
0100
0010
0001
0100
0000
,
0000
0010
0100
0010
0001
0100
0010
0000
,
0000
0100
0010
0001
0100
0010
0100
0000
,
1000
0000
0100
1000
0100
0000
1000
0000
,
0000
0100
0010
0001
0100
0010
0100
0000
,
0000
0010
0001
0100
0000
0010
0001
0100
,
1100
0100
0110
0001
,
0100
0000
0010
0001
0100
0000
0101
0000
,
0010
0000
0100
0010
0001
0100
0010
0000
,
0000
0100
0000
0000
1000
0100
1000
0000
,
0000
0100
0000
0000
0001
0100
0001
0000
,
0010
0000
0100
0010
0001
0000
0010
0000
,
0000
0100
0010
0001
0100
0010
0100
0000
,
0000
1000
0100
1000
0100
0000
0110
0000
,
0001
0000
0100
0001
0100
0000
0010
0000
,
0100
0000
0010
0001
0100
0000
0010
0000
;

//--------------- dance-single - Wrland ----------------
#NOTES:
     dance-single:
     Wrland:
     Hard:
     11:
     0,0,0,0,0:
0000
0000
0000
0000
,
0000
0000
0000
0000
,
0000
0000
0000
0000
,
0000
0000
0000
1000
,
0100
1000
0100
0010
,
0001
0100
0000
0000
0010
0100
0000
0000
,
1000
0000
0100
0000
0001
0100
0000
0000
,
0010
0100
0000
0000
0001
0100
0000
0000
,
0010
0000
0100
0000
0001
0100
0000
0000
,
0010
1000
0000
0000
0100
1000
0000
0000
,
0100
0010
0001
0100
,
0010
0100
0000
0000
0001
0100
0000
0000
,
0010
0000
0100
0000
1000
0000
0100
1000
,
0100
0010
0100
0000
0010
0000
0100
0000
,
0010
0000
0001
0100
0001
0000
0010
0000
,
0100
0010
1000
0000
0010
0000
0100
0000
,
0010
0000
0001
0100
0001
0000
0010
0000
,
0100
1000
0100
0000
1000
0000
0100
0000
,
0010
0000
0001
0100
0001
0100
0010
0000
,
0100
1000
0100
1000
,
0100
0000
1000
0100
1000
0000
0100
0000
,
0010
0100
0010
0000
0001
0000
0100
0000
,
0010
0000
0001
0100
0001
0000
0010
0000
,
0100
1000
0100
0000
1000
0000
0100
0000
,
0010
0000
0001
0100
0001
0000
0010
0000
,
0100
1000
0100
0000
1000
0000
0100
0000
,
0010
0000
0001
0100
0001
0000
0010
0000
,
0100
0010
0100
0000
0010
0000
0100
0000
,
1000
1000
0000
0000
0001
0001
0000
0000
,
0100
0001
0010
0000
0100
0000
0010
0000
,
0100
0000
0010
0000
0001
0000
0100
0001
,
0100
0010
0100
0001
0010
0000
0100
0000
,
1000
0100
0000
0000
0100
0010
0000
0000
,
0001
0100
0001
0000
0010
1000
0100
0010
,
0001
0000
0100
0000
0010
0100
0010
0000
,
0001
1000
0001
1000
0200
0300
1100
0000
,
0100
0010
0001
0100
0010
0100
0010
0000
,
0100
0010
0001
0100
0010
0100
0010
0000
,
0000
0001
0100
0001
0100
0001
0100
0000
,
0010
0000
0100
0010
0001
0000
0100
0000
,
0000
1000
1000
0100
1000
0100
0010
0000
,
0000
0100
0010
0001
0100
0001
0100
0000
,
0001
0000
0100
0001
0100
0000
0010
0000
,
0100
0000
1000
0100
1000
0000
0100
0000
,
0010
0100
0010
0001
0100
0010
0100
0000
,
0010
0100
0010
0001
0100
0010
0100
0000
,
0010
0100
0010
0001
0100
0010
0100
0000
,
1000
0000
0100
1000
0100
0000
1000
0000
,
0100
0010
0001
0100
0001
0100
0001
0000
,
0000
0010
0100
0010
0001
0100
0010
0100
,
0010
0000
0010
0100
0010
0000
0001
0000
,
1000
0000
0001
1000
0002
0000
1003
0000
,
0100
0000
1000
0100
1000
0100
1000
0000
,
0000
0100
0010
0001
0100
0001
0100
0000
,
0010
0100
0010
0001
0100
0001
0100
0000
,
0010
0000
0100
0010
0001
0000
0100
0000
,
0000
1000
1000
1000
0100
1000
0100
0000
,
0000
0100
0010
0001
0100
0001
0100
0010
,
0100
0000
0010
0100
0010
0000
0001
0000
,
0100
0000
0010
0100
0010
0000
0001
0000
,
0001
1000
0001
1000
0100
1000
0100
0000
,
0100
0001
0010
0001
0100
0010
0100
0000
,
0010
0001
0100
0001
0100
0001
0100
0000
,
0010
0000
0100
1000
0100
0000
0100
0000
,
0010
0001
0100
0010
0100
0010
0100
0000
,
0000
1000
0100
1000
0100
0000
0010
0000
,
0001
0000
0100
0001
0100
0000
0010
0000
,
0100
0000
0010
0100
0010
0000
0001
0000
;
