#TITLE:liquid (Paul Rosenthal mix);
#SUBTITLE:;
#ARTIST:rostik;
#TITLETRANSLIT:;
#SUBTITLETRANSLIT:;
#ARTISTTRANSLIT:;
#GENRE:Dance;
#CREDIT:rostik;
#MUSIC:liquid (Paul Rosenthal mix).ogg;
#BANNER:liquid (Paul Rosenthal mix).png;
#BACKGROUND:liquid (Paul Rosenthal mix)-bg.png;
#JACKET:liquid (Paul Rosenthal mix)-jacket.png;
#TAGS:DMCA;
#CDTITLE:Popular.png;
#SAMPLESTART:14.666;
#SAMPLELENGTH:15;
#SELECTABLE:YES;
#OFFSET:-0.004;
#BPMS:0.000=133.000;
#STOPS:;
#DISPLAYBPM:133.000;
#BGCHANGES:;
#FGCHANGES:;

//--------------- dance-single - Wrland ----------------
#NOTES:
     dance-single:
     Wrland:
     Beginner:
     2:
     0,0,0,0,0:
0000
0000
0000
0000
,
0000
0000
0000
0000
,
0000
0000
0000
0000
,
0000
0000
0000
0000
,
0000
0100
0000
0000
,
0000
0010
0000
0000
,
0000
0100
0000
0000
,
0000
0100
0000
0000
,
0000
0001
0000
0000
,
0000
0000
1000
0001
1000
0000
0000
0000
,
0000
1000
0000
0000
,
0000
0010
0000
0000
,
0000
0100
0000
0000
,
0000
0000
0100
0010
0100
0000
0000
0000
,
0000
0001
0000
0000
,
0000
0010
0000
0000
,
0000
0100
0000
0000
,
0000
0000
0100
0001
0100
0000
0000
0000
,
0000
0100
0000
0000
,
0000
0100
0000
0000
,
0000
0001
0000
0000
,
0000
0000
0100
0010
0100
0000
0000
0000
,
0000
0100
0000
0000
,
0000
0100
0000
0000
,
0000
0000
0000
0000
,
0000
0000
0000
0000
,
0000
0000
0000
0000
,
0000
0000
0000
0000
,
0000
0000
0000
0000
,
0000
0000
0000
0000
,
0000
0000
0000
0000
,
0000
0000
0000
0000
,
0000
0000
1000
0000
0001
1000
0000
0000
,
0000
0000
0100
0000
0010
0100
0000
0000
,
0000
0000
0001
0000
0100
0001
0000
0000
,
0000
0000
0100
0000
0010
0100
0000
0000
,
0000
0000
0010
0000
0001
0100
0000
0000
,
0000
0000
1000
0000
0100
1000
0000
0000
,
0000
0000
0100
0000
0010
0100
0000
0000
,
0000
0000
0001
1000
0001
0000
0000
0000
,
0220
0330
0100
0000
0000
0000
0001
0000
,
0000
0100
0000
0100
,
0000
1000
0000
1000
,
0000
0100
0000
0001
,
0000
0100
0000
0100
,
0000
1000
0000
1000
,
0000
0100
0000
0001
,
0000
0100
0000
0001
,
0000
0100
0000
0100
,
0000
1000
0000
0010
,
0000
0001
0000
0001
,
0000
0100
0000
0001
,
0000
0100
0000
0100
,
0000
0100
0000
0001
,
0000
0100
0000
0001
,
0000
0100
0000
0100
,
0000
0001
0000
0000
,
0000
0000
1000
0001
1000
0000
0000
0000
,
0000
1000
0000
0000
,
0000
0010
0000
0000
,
0000
0100
0000
0000
,
0000
0000
0100
0010
0100
0000
0000
0000
,
0000
0001
0000
0000
,
0000
0010
0000
0000
,
0000
0100
0000
0000
,
0000
0000
0100
0001
0100
0000
0000
0000
,
0000
0100
0000
0000
,
0000
0100
0000
0000
,
0000
0001
0000
0000
,
0000
0000
0100
0010
0100
0000
0000
0000
,
0000
0100
0000
0000
,
0000
0100
0000
0000
;

//--------------- dance-single - Wrland ----------------
#NOTES:
     dance-single:
     Wrland:
     Easy:
     4:
     0,0,0,0,0:
0000
0000
0000
0000
,
0000
0000
0000
0000
,
0000
0000
0000
0000
,
0000
0000
0000
0000
,
0000
0100
0000
0100
,
0000
0010
0000
0001
,
0000
0100
0000
1000
,
0000
0100
0000
0010
,
0000
0001
0000
0001
,
0000
0000
1000
0001
1000
0000
0100
0000
,
0000
1000
0000
0100
,
0000
0010
0000
0001
,
0000
0100
0000
0100
,
0000
0000
0100
0010
0100
0000
0010
0000
,
0000
0001
0000
0100
,
0000
0010
0000
1000
,
0000
0100
0000
0010
,
0000
0000
0100
0001
0100
0000
0010
0000
,
0000
0100
0000
1000
,
0000
0100
0000
0010
,
0000
0001
0000
0100
,
0000
0000
0100
0010
0100
0000
0001
0000
,
0000
0100
0000
0010
,
0000
0100
0000
1000
,
0000
0000
0000
0000
,
0000
0000
0000
0000
,
0000
0000
0000
0000
,
0000
0000
0000
0000
,
0000
0000
0000
0000
,
0000
0000
0000
0000
,
0000
0000
0000
0000
,
0000
0000
0000
0000
,
0000
0000
1000
0000
0001
1000
0000
0000
,
0000
0000
0100
0000
0010
0100
0000
0000
,
0000
0000
0001
0000
0100
0001
0000
0000
,
0000
0000
0100
0000
0010
0100
0000
0000
,
0000
0000
0010
0000
0001
0100
0000
0000
,
0000
0000
1000
0000
0100
1000
0000
0000
,
0000
0000
0100
0000
0010
0100
0000
0000
,
0000
0000
0001
1000
0001
0000
0000
0000
,
0220
0330
0100
0000
0010
0000
0001
0000
,
0000
0100
0010
0100
,
0000
1000
0100
1000
,
0000
0100
0010
0001
,
0000
0100
0010
0100
,
0000
1000
0100
1000
,
0000
0100
0010
0001
,
0000
0100
0010
0001
,
0000
0100
1000
0100
,
0000
1000
0100
0010
,
0000
0001
0100
0001
,
0000
0100
0010
0001
,
0000
0100
1000
0100
,
0000
0100
0010
0001
,
0000
0100
0010
0001
,
0000
0100
1000
0100
,
0000
0001
0000
0001
,
0000
0000
1000
0001
1000
0000
0100
0000
,
0000
1000
0000
0100
,
0000
0010
0000
0001
,
0000
0100
0000
0100
,
0000
0000
0100
0010
0100
0000
0010
0000
,
0000
0001
0000
0100
,
0000
0010
0000
1000
,
0000
0100
0000
0010
,
0000
0000
0100
0001
0100
0000
0010
0000
,
0000
0100
0000
1000
,
0000
0100
0000
0010
,
0000
0001
0000
0100
,
0000
0000
0100
0010
0100
0000
0001
0000
,
0000
0100
0000
0010
,
0000
0100
0000
1000
;

//--------------- dance-single - Wrland ----------------
#NOTES:
     dance-single:
     Wrland:
     Medium:
     9:
     0,0,0,0,0:
0000
0000
0000
0000
,
0000
0000
0000
0000
,
0000
0000
0000
0000
,
0000
0000
0000
0000
,
0000
0000
0000
0000
0100
0000
0000
0010
0000
0000
0001
0000
0100
0000
0000
0000
,
0010
0000
0000
0000
0001
0000
0000
0100
0000
0000
0010
0000
0200
0000
0000
0000
,
0300
0000
0000
0000
1000
0000
0000
0100
0000
0000
1000
0000
0100
0000
0000
0010
,
0000
0001
0100
0010
0001
0100
0020
0030
,
0110
0000
0001
1000
0001
0000
0100
1000
,
0100
0000
0000
0000
1000
0000
1000
0000
0100
0000
0010
0000
0001
0100
0001
0100
,
0001
0000
0100
0010
0001
0000
0100
0010
,
0100
0000
0000
0000
0100
0000
0010
0000
0001
0000
0000
0000
0100
0001
0100
0001
,
0101
0000
0010
0100
1000
0000
0100
1000
,
0100
0000
0000
0000
0100
0000
0010
0000
0001
0000
0100
0000
0010
0100
0010
0100
,
0010
0000
0000
0000
0001
0100
0001
0000
0100
0000
0010
0000
0100
0000
0000
0000
,
1000
0000
0000
0000
1000
0000
0100
0000
0010
0000
0001
0000
1000
0001
1000
0001
,
0110
0000
0100
1000
0100
0000
1000
0100
,
0010
0000
0001
0100
0010
0100
0010
0001
,
0100
0000
0000
0000
0100
0010
0100
0000
0010
0000
0001
0000
0100
0000
0000
0000
,
0010
0000
0100
0000
1000
0100
0010
0000
0100
0000
0010
0000
0001
0100
0001
0100
,
1001
0000
0000
0000
0100
0000
0010
0000
0001
0000
0100
0000
0001
0100
0001
0000
,
0100
0000
0000
0000
0010
0000
0100
0000
1000
0000
0100
0000
1000
0100
1000
0100
,
0010
0000
0000
0000
0100
0000
0010
0000
0001
0000
0100
0000
0010
0100
0010
0100
,
0010
0000
0000
0000
0001
0000
0100
0000
0010
0000
0100
0000
0010
0100
0010
0100
,
0011
0220
0000
0000
,
0000
0000
0000
0000
,
0330
0000
0000
0000
,
0000
0000
0000
0000
,
0000
0000
0000
0000
,
0000
0000
0000
0000
,
0000
0000
0000
0000
,
0000
0000
0000
0000
,
0000
0000
0100
0010
0001
0100
0010
0000
,
0100
0000
1000
0100
1000
0100
1000
0000
,
0100
0000
0100
0010
0001
0100
0010
0000
,
0100
0000
0010
0001
0100
0010
0100
0000
,
0010
0000
0100
1000
0100
1000
0100
0000
,
0100
0000
0010
0001
0100
0010
0100
0000
,
0100
0000
0010
0001
0100
0010
0100
0000
,
0100
0000
0010
0001
0100
0000
0100
0010
,
0002
0000
0000
0003
0100
0010
0100
0010
0001
0000
0000
0000
0100
0010
0100
0010
,
0100
0000
0000
0000
1000
0100
1000
0100
1000
0000
0000
0000
0100
0010
0100
0010
,
0100
0000
0000
0000
0001
0100
0001
0100
0001
0000
0000
0000
0100
0010
0100
0010
,
0100
0000
0000
0000
1000
0100
1000
0100
1000
0000
0000
0000
0010
0100
0010
0100
,
0010
0000
0000
0000
0001
0100
0001
0100
0001
0000
0000
0000
0100
0010
0100
0010
,
0100
0000
0000
0000
1000
0100
1000
0100
1000
0000
0000
0000
0100
0010
0100
0010
,
0100
0000
0000
0000
0001
0100
0001
0100
0001
0000
0000
0000
0100
0010
0100
0010
,
0100
0000
0000
0000
1000
0100
1000
0100
1000
0000
0000
0000
0100
0010
0100
0010
,
0100
0000
0000
0000
0001
0000
0100
0000
0001
0000
0100
0000
1000
0100
1000
0100
,
0010
0000
0000
0000
0100
0000
0010
0000
0100
0000
1000
0000
0100
1000
0100
1000
,
0100
0000
0000
0000
0100
0000
0010
0000
0001
0000
0100
0000
0001
0100
0001
0100
,
0001
0000
0000
0000
0010
0000
0100
0000
0100
0000
1000
0000
0100
1000
0100
1000
,
0100
0000
0000
0000
0100
0000
0010
0000
0001
0000
0100
0000
0010
0100
0010
0100
,
0010
0000
0000
0000
0001
0000
0100
0000
0001
0000
0100
0000
0001
0100
0001
0100
,
0001
0000
0000
0000
0100
0000
0010
0000
0100
0000
0010
0000
0100
0010
0100
0010
,
0100
0000
0000
0000
1000
0000
0100
0000
0010
0000
0001
0000
0100
0001
0100
0001
,
0100
0000
0001
1000
0001
0000
0100
1000
,
0100
0000
0000
0000
1000
0000
1000
0000
0100
0000
0010
0000
0001
0100
0001
0100
,
0001
0000
0100
0010
0001
0000
0100
0010
,
0100
0000
0000
0000
0100
0000
0010
0000
0001
0000
0000
0000
0100
0001
0100
0001
,
0101
0000
0010
0100
1000
0000
0100
1000
,
0100
0000
0000
0000
0100
0000
0010
0000
0001
0000
0100
0000
0010
0100
0010
0100
,
0010
0000
0000
0000
0001
0100
0001
0000
0100
0000
0010
0000
0100
0000
0010
0000
,
1000
0000
0000
0000
1000
0000
0100
0000
0010
0000
0001
0000
1000
0001
1000
0001
,
0110
0000
0100
1000
0100
0000
1000
0100
,
0010
0000
0001
0100
0010
0100
0010
0001
,
0100
0000
0000
0000
0100
0010
0100
0000
0010
0000
0001
0000
0100
0000
0000
0000
,
0010
0000
0100
0000
1000
0100
0010
0000
0100
0000
0010
0000
0001
0100
0001
0100
,
1001
0000
0000
0000
0100
0000
0010
0000
0001
0000
0100
0000
0001
0100
0001
0000
,
0100
0000
0000
0000
0010
0000
0100
0000
1000
0000
0100
0000
1000
0100
1000
0100
,
0010
1000
0001
0000
0100
0000
0010
0000
0001
0000
0100
0000
0010
0100
0010
0100
,
0010
0000
0000
0000
0001
0000
0100
0000
0010
0000
0100
0000
0010
0100
0010
0100
,
0011
0000
0000
0000
;

//--------------- dance-single - Wrland ----------------
#NOTES:
     dance-single:
     Wrland:
     Hard:
     13:
     0,0,0,0,0:
0000
0000
0000
0000
,
0000
0000
0000
0000
,
0000
0000
0000
0000
,
0000
0000
0000
0000
,
0000
0000
0000
0000
0002
0000
0003
2000
0000
3000
0100
0000
2000
0000
3000
0200
,
0000
0300
1000
0000
0200
0000
0300
0200
0000
0300
0010
0000
0002
0000
0003
0200
,
0000
0300
0010
0000
0200
0000
0300
0020
0000
0030
0001
0000
0200
0000
0300
0020
,
0000
0030
0001
0000
0100
0001
0100
0000
0010
1000
0100
0000
0010
0100
0010
0000
,
0001
0100
0001
0000
0100
0010
0100
0000
0010
0000
0001
0000
0100
0010
0001
0000
,
0100
0000
0000
0000
1000
0000
0100
0000
1000
0000
0100
0000
0010
0100
0010
0100
,
0001
0000
0000
0000
0010
0100
0010
0001
0100
0000
0010
0000
0100
0000
0010
0000
,
0001
0000
0100
0000
0010
0100
0000
0000
0100
0010
0000
0000
0001
0100
0010
1000
,
0001
0000
0000
0000
0010
0100
0010
0100
0001
0000
0100
0000
0010
0100
0001
0010
,
0100
0000
0000
0000
0100
0000
1000
0000
0100
0000
0010
0000
0001
0100
0001
0100
,
0001
0010
0001
0000
0100
0010
0100
0000
1000
0000
0100
0000
0010
0100
0001
0000
,
0100
0000
0000
0000
0100
0010
0000
0000
0001
0100
0000
0000
1000
0100
0000
0000
,
1000
0100
0000
0000
0010
0100
0010
0000
0001
0000
0010
0000
0100
0001
0010
0000
,
0001
0000
0000
0000
0100
0000
0010
0000
0100
0000
0001
0000
0010
1000
0100
0010
,
0100
0001
0100
0000
0010
0100
0010
0100
0010
0000
0001
0000
0100
0010
0100
0010
,
0100
0000
0000
0000
0100
0010
0100
0000
0001
0100
0001
0000
0100
0010
0100
0000
,
1000
0100
1000
0000
0100
0010
0100
0000
0001
0000
0100
0000
0010
0001
0010
0100
,
1000
0000
0000
0000
1000
0000
0100
0000
0010
0000
0001
0000
0100
0001
0100
0001
,
0100
0010
0001
0000
0010
0100
0010
0100
1000
0000
0100
0000
0100
0010
0100
0000
,
0001
0000
0010
0000
0100
0010
0100
0000
1000
0100
1000
0000
0100
0010
0100
0000
,
0001
0100
0001
0000
2000
0000
0000
0000
0000
0000
0000
0000
0000
0000
0000
0000
,
0000
0000
0000
0000
,
0000
3002
0000
0000
,
0000
0000
0000
0000
,
0000
2003
0000
0000
,
0000
0000
0000
0000
,
0000
3002
0000
0000
,
0000
0000
0000
0000
,
0003
0000
0000
0000
0100
0010
0100
0010
0100
0000
0001
0010
0000
1000
0001
0000
,
0100
0000
0000
0000
0010
0100
0010
0100
1000
0000
0100
0010
0000
0001
0010
0000
,
0100
0000
0000
0000
0001
0010
0010
0100
0010
0000
0100
0010
0000
0001
1000
0000
,
0100
0000
0000
0000
1000
0100
1000
0100
1000
0000
0100
0010
0000
0001
0100
0000
,
0010
0000
0100
0000
0010
0001
0010
0001
0010
0000
1000
0100
0000
0100
0010
0000
,
0001
0000
0000
0000
0100
0010
0100
0010
0100
0000
0010
0100
0000
0010
0100
0000
,
0001
0000
0000
0000
0100
0010
0100
0010
0100
0000
0010
0100
0000
0001
0100
0000
,
0010
0000
0001
0100
0010
0000
0100
0000
0010
0000
0001
0000
0100
0000
0010
0000
,
0001
2000
0000
3000
0200
0000
0000
0300
0010
0000
0001
0000
0100
0001
0100
0000
,
0010
0000
0100
0000
2000
0000
0000
3000
0200
0000
0000
0300
0100
0010
0100
0010
,
0001
0000
0100
0000
0020
0000
0000
0030
0100
0000
1000
0000
0100
1000
0100
1000
,
0100
0000
0010
0000
0002
0000
0000
0003
0100
0000
0010
0000
0001
0100
0001
0000
,
0100
0000
0010
0000
0200
0000
0000
0300
1000
0000
0100
0000
1000
0100
1000
0000
,
0100
0000
0100
0000
0020
0000
0000
0030
0002
0000
0000
0003
0001
0100
0001
0000
,
0100
0000
0010
0000
0200
0000
0000
0300
0010
0000
0001
0000
0100
0001
0100
0000
,
0010
0000
0100
0000
2000
0000
0000
3000
0200
0000
0000
0300
0001
0100
0001
0000
,
0100
0000
0010
0000
0100
0000
0100
0000
0010
0000
0001
0000
0100
0001
0100
0000
,
0010
0000
0100
0000
1000
0000
1000
0000
0100
0000
0010
0000
0001
0100
0001
0000
,
0010
0000
0100
0000
0010
0000
0100
0000
0001
0000
0100
0000
0001
0100
0001
0000
,
0100
0000
0010
0000
0100
0000
0010
0000
1000
0000
0100
0000
1000
0100
1000
0000
,
0100
0000
0010
0000
0001
0000
1000
0000
0100
0000
0010
0000
0100
0010
0100
0000
,
0010
0000
0001
0000
0100
0000
0001
0000
0010
0000
0001
0000
0100
0001
0100
0000
,
0010
0000
0100
0000
1000
0000
0001
0000
0100
0000
1000
0000
0100
1000
0100
0000
,
0100
0000
0010
0000
0001
0100
0010
0000
0100
0010
0001
0000
0100
0001
0100
0000
,
0010
0000
0100
0000
0100
0010
0100
0000
0010
0000
0001
0000
0100
0010
0001
0010
,
0100
0000
0000
0000
1000
0000
0100
0000
1000
0000
0100
0000
0010
0100
0010
0100
,
0001
0010
0100
0000
0010
0100
0010
0001
0100
0000
0010
0000
0100
0000
0010
0100
,
0001
0000
0100
0000
0010
0100
0000
0000
0100
0010
0000
0000
0001
0100
0010
1000
,
0001
0000
0100
0000
0010
0100
0010
0100
0001
0000
0100
0000
0010
0100
0001
0010
,
0100
0000
0010
0000
0100
0000
1000
0000
0100
0000
0010
0000
0001
0100
0001
0100
,
0001
0010
0001
0000
0100
0010
0100
0000
1000
0000
0100
0000
0010
0100
0001
0000
,
0100
0000
0001
0000
0100
0010
0000
0000
0001
0100
0000
0000
1000
0100
0000
0000
,
1000
0100
0000
0000
0010
0100
0010
0000
0001
0000
0010
0000
0100
0001
0010
1000
,
0001
0000
0100
0000
0100
0000
0010
0000
0100
0000
0001
0000
0010
1000
0100
0010
,
0100
0001
0100
0000
0010
0100
0010
0100
0010
0000
0001
0000
0100
0010
0100
0010
,
0100
0000
0010
0000
0100
0010
0100
0000
0001
0100
0001
0000
0100
0010
0100
0000
,
1000
0100
1000
0000
0100
0010
0100
0000
0001
0000
0100
0000
0010
0001
0010
0100
,
1000
0000
0000
0000
1000
0000
0100
0000
0010
0000
0001
0000
0100
0001
0100
0001
,
0100
0010
0001
0000
0010
0100
0010
0100
1000
0000
0100
0000
0100
0010
0100
0000
,
0001
0000
0010
0000
0100
0010
0100
0000
1000
0100
1000
0000
0100
0010
0100
0000
,
0001
0100
0001
0000
0100
0010
0100
0000
0000
0000
0000
0000
0000
0000
0000
0000
;
