#VERSION:0.83;
#TITLE:恋は∞まじっく!;
#SUBTITLE:;
#ARTIST:真理絵 & RITA;
#TITLETRANSLIT:koi wa magic!;
#SUBTITLETRANSLIT:;
#ARTISTTRANSLIT:MARIE 6 RITA;
#GENRE:J-Pop;
#CREDIT:GWAVE;
#MUSIC:koi wa magic! -special mix-.ogg;
#BANNER:koi wa magic! -special mix-.png;
#BACKGROUND:koi wa magic! -special mix--bg.png;
#JACKET:koi wa magic! -special mix--jacket.png;
#DISCIMAGE:;
#CDIMAGE:;
#SELECTABLE:YES;
#LYRICSPATH:;
#CDTITLE:Japanese.png;
#SAMPLESTART:61.667;
#SAMPLELENGTH:15;
#BPMS:0.000000=144.000000;
#STOPS:;
#WARPS:;
#DELAYS:;
#SPEEDS:;
#SCROLLS:;
#TICKCOUNTS:;
#TIMESIGNATURES:;
#LABELS:;
#COMBOS:;
#FAKES:;
#BGCHANGES:;
#FGCHANGES:;
#ATTACKS:;
#DISPLAYBPM:144.000;

//---------------dance-single - Wrland---------------
#NOTEDATA:;
#CHARTNAME:;
#CHARTSTYLE:Pad;
#CREDIT:Wrland;
#STEPSTYPE:dance-single;
#DESCRIPTION:Wrland;
#DIFFICULTY:Challenge;
#METER:15;
#METERF:13;
#RADARVALUES:0,0,0,0,0;
#NOTES:
// measure 0
0000
0000
0000
0000
,  // measure 1
0000
0000
0000
0000
0000
0000
0000
0000
0000
0000
0000
0000
0100
1000
0100
1000
,  // measure 2
0110
0000
0000
0110
0000
0000
0000
0000
0101
0000
0000
0110
0000
0000
0010
0000
,  // measure 3
1001
0100
0110
0010
1001
0100
0110
0010
,  // measure 4
0100
0000
0100
0010
0001
0000
0100
0000
0010
0100
0010
1000
0001
0000
0100
0000
,  // measure 5
1000
0100
1000
0000
0100
0000
0010
0000
0100
0010
0100
0000
0010
0000
0001
0000
,  // measure 6
0100
0001
0100
0000
0010
0000
0100
0000
0010
0100
0010
0000
0100
0000
1000
0000
,  // measure 7
0100
1000
0100
0000
1000
0000
0100
0000
0010
0001
0100
0000
0010
0000
0100
0000
,  // measure 8
0010
0100
0010
0000
0001
0000
0100
0000
0010
0000
0100
0010
0000
1000
0100
0000
,  // measure 9
1000
0010
1000
0000
0010
0000
0100
0000
0010
0100
0010
0000
0100
0000
0001
0000
,  // measure 10
0010
0001
0010
0000
0100
0000
0010
0000
0100
0010
0100
0000
0010
0000
1000
0000
,  // measure 11
0010
1000
0010
0000
1000
0000
0010
0000
0100
0001
0010
0000
0100
0000
0010
0000
,  // measure 12
0100
0010
0000
0001
0010
0000
0100
0000
0010
0000
0100
0010
0001
0000
0100
0000
,  // measure 13
0020
0000
0030
0000
0100
0000
0010
0000
0001
0000
0100
0010
0100
0000
0020
0000
,  // measure 14
0030
0000
0001
0000
0010
0000
0100
0000
0010
0000
0100
0010
0100
0000
1000
0000
,  // measure 15
0200
0000
0300
0000
0010
0000
0001
1000
0100
0000
0010
0100
0010
0000
0001
0000
,  // measure 16
0100
0000
0010
0100
0010
0000
0001
0000
0100
0000
0010
0100
0010
0000
0100
0000
,  // measure 17
2000
0000
3000
0000
0100
0000
0010
0000
0001
0000
0010
0100
0010
0000
0200
0000
,  // measure 18
0300
0000
0001
0000
0100
0000
0010
0000
0100
0000
0010
0000
0100
0010
0100
0000
,  // measure 19
0020
0030
0100
2000
3000
0000
0100
0010
,  // measure 20
0001
0000
0100
0010
0100
0000
1000
0000
0100
0000
0010
0100
0010
0000
0100
0000
,  // measure 21
0020
0030
0001
0100
0010
0100
1000
0200
,  // measure 22
0300
0000
0100
1000
0010
0000
0100
0000
0010
0000
0100
0010
0100
0000
0010
0000
,  // measure 23
0002
0000
0003
0000
0010
0000
0100
0010
0100
0000
0010
0000
0001
0000
0100
0000
,  // measure 24
0010
0000
0100
0001
0010
0000
0100
0000
0010
0000
0100
0010
0100
0000
1000
0000
,  // measure 25
0100
0000
0010
0000
0100
0010
0100
0000
0010
0000
0001
0000
0100
0000
0020
0000
,  // measure 26
0030
0100
0010
0001
0100
0010
0100
1000
,  // measure 27
0100
0020
0030
0000
0100
0010
0001
0100
,  // measure 28
0010
0000
0100
0010
0100
0000
1000
0000
0110
0000
1100
0000
1001
0000
0110
0000
,  // measure 29
1010
0000
0100
0010
0001
0000
0100
0000
0010
0000
0100
0000
1000
0000
0100
0000
,  // measure 30
0010
0000
0100
0010
0100
0000
0010
0000
0001
0000
0100
0000
0010
0000
0100
0000
,  // measure 31
0010
0002
0003
0010
0100
0010
0100
0010
,  // measure 32
0001
0000
0100
0001
0100
0000
0010
0000
0200
0000
0300
0000
0010
0000
0100
0010
,  // measure 33
0100
0000
0010
0000
0001
0000
0100
0000
0010
1000
0100
0000
0010
0000
0200
0000
,  // measure 34
0300
0000
0010
0000
0001
0000
0100
0000
0010
0000
0200
0000
0000
0300
0000
0000
,  // measure 35
0002
0000
0003
0000
0100
0010
0001
0100
,  // measure 36
0010
0000
0100
0010
0001
0000
0100
0000
0010
0000
0100
0010
0100
0000
1000
0000
,  // measure 37
0100
0000
0010
0000
0100
0000
0001
0100
0000
0010
0100
0000
1000
0000
0100
0000
,  // measure 38
0010
0010
1001
0010
0100
0000
0010
0100
0000
1000
0200
0000
0310
0000
0000
0000
,  // measure 39
0200
0310
0020
0031
0002
0013
0200
1300
,  // measure 40
0020
0000
0000
0130
0000
0000
0010
0000
0001
0000
0100
0001
0100
0000
0001
0000
,  // measure 41
0100
0000
0010
0000
0100
0010
0000
0200
0000
0000
0310
0000
0010
0000
0000
0000
,  // measure 42
1000
0000
0100
0000
0010
0100
0000
0020
0000
0000
0130
0000
0100
0000
0000
0000
,  // measure 43
0002
0013
0200
1300
0010
0100
1000
0100
,  // measure 44
0010
0000
0001
0100
0001
0000
0010
0000
0100
0000
0010
0100
0010
0000
0001
0000
,  // measure 45
0100
0000
0010
0000
0100
0000
1000
0100
0000
1000
0100
0000
0010
0000
0001
0000
,  // measure 46
0100
0001
0010
0001
0100
0000
0010
0100
0000
0010
0100
0000
0010
0000
0001
0000
,  // measure 47
0200
0000
0300
0000
0020
0000
0030
0000
0100
0010
0100
0000
1000
0000
0100
0000
,  // measure 48
0020
0000
0030
0002
0000
0003
0100
0000
0010
0000
0100
0010
0100
0000
0001
0000
,  // measure 49
0100
0000
0010
0000
0100
0010
0000
0200
0000
0300
1000
0000
0100
0000
0000
0000
,  // measure 50
0010
0000
0100
0000
0010
0100
0000
0020
0000
0030
0001
0000
0100
0000
0010
0000
,  // measure 51
0200
0000
0300
0010
0200
0000
0300
0000
0001
0000
0100
0000
0010
0000
0100
1000
,  // measure 52
0100
0000
0010
0000
0100
0000
0010
0000
0001
0100
0010
0000
0100
0000
0010
0000
,  // measure 53
0100
0000
0100
0000
1000
0000
0100
0000
0010
0100
0010
0000
0001
0000
0100
0000
,  // measure 54
0010
0000
0100
0000
1000
0000
0100
0000
0010
0100
0001
1000
0100
0000
0010
0000
,  // measure 55
1000
0100
1000
0000
0100
0000
0010
0000
0100
0010
0100
0000
0010
0000
0001
0000
,  // measure 56
0100
0001
0100
0000
0010
0000
0100
0000
0010
0100
0010
0000
0100
0000
1000
0000
,  // measure 57
0100
1000
0100
0000
1000
0000
0100
0000
0010
0001
0100
0000
0010
0000
0100
0000
,  // measure 58
0010
0100
0010
0000
0100
0000
0010
0000
0001
0100
0001
0000
0100
0000
0010
0000
,  // measure 59
0100
0010
0100
0000
1000
0000
0100
0000
1000
0100
1000
0000
0100
0000
0010
0000
,  // measure 60
0010
0100
0010
0000
0001
0000
0010
0000
0100
0010
0100
0000
1000
0000
0100
0000
,  // measure 61
0010
0100
0001
0000
0010
0000
0001
0000
0100
0010
0100
0000
0010
0000
0100
0000
,  // measure 62
0011
0000
0000
1100
0000
0000
0100
0000
0010
0100
0010
0100
0010
0001
0100
0000
,  // measure 63
0110
0110
0110
0110
1001
1001
1001
1001
,  // measure 64
0100
0000
1000
0100
1000
0000
0100
0000
0010
0100
0010
0000
0001
0000
0100
0000
,  // measure 65
0101
0101
0101
0101
0110
0110
0110
0110
,  // measure 66
1000
0000
0100
1000
0100
0000
0100
0000
0010
0100
0010
0100
0001
0000
0010
0000
,  // measure 67
1100
1100
1100
0110
0011
0110
1001
1100
,  // measure 68
0110
0000
0100
0010
0100
0000
0010
0000
0001
0100
0001
0000
0100
0000
0010
0000
,  // measure 69
0110
0010
1100
0000
0100
0001
0010
0000
0010
0001
0100
0100
0010
0000
0100
0000
,  // measure 70
0010
0001
0100
0001
0100
0000
0010
0000
1000
0010
0100
0010
0100
0000
0020
0000
,  // measure 71
0100
0000
0100
1000
0100
0000
0100
0000
0001
0100
0001
0000
0100
0000
1030
0000
,  // measure 72
0200
0010
0001
0010
0001
0000
0010
0000
1000
0010
1000
0000
0001
0000
0310
0000
;
