#TITLE:YA NO;
#SUBTITLE:;
#ARTIST:Selena;
#MUSIC:YA NO.ogg;
#BANNER:YA NO.png;
#BACKGROUND:BG.png;
#LYRICSPATH:;
#CDTITLE:Amor Prohibido (album).png;
#SAMPLESTART:45.995;
#SAMPLELENGTH:15.000;
#BPMS:0.000000=78.987000,
1.000000=129.987000
;
#STOPS:;
#TIMESIGNATURES:;
#BGCHANGES:0.000=YA NO.avi=0.000=0=0=0=StretchNoLoop====,
99999=-nosongbg-=1.000=0=0=0 // don't automatically add -songbackground-
;
#FGCHANGES:;
#ATTACKS:;
#SPEEDS:;
#SCROLLS:;
#DISPLAYBPM:129.000;
#TAGS:DMCA;

//---------------dance-single - Wrland---------------
#NOTES:
     dance-single:
     Wrland:
     Beginner:
     5:
     0,0,0,0,0:
// measure 0
0000
0000
0000
0000
,  // measure 1
0000
0000
0000
0000
,  // measure 2
0000
0000
0000
0000
,  // measure 3
0000
0000
0000
0000
,  // measure 4
0000
0000
0000
0100
,  // measure 5
0100
0100
0010
0001
,  // measure 6
0100
0010
0001
0100
,  // measure 7
0100
1000
0100
1000
,  // measure 8
0100
0000
0010
0100
0010
0000
0001
0000
,  // measure 9
0100
0001
0100
0010
,  // measure 10
0100
0000
0010
0001
0100
0000
0010
0000
,  // measure 11
0100
1000
0100
1000
,  // measure 12
0100
0010
0001
0000
0100
0000
0010
0000
,  // measure 13
0001
0000
0100
0000
0010
0000
0001
0100
,  // measure 14
0001
0100
0010
0000
0100
0000
0010
0000
,  // measure 15
0001
0100
0010
0100
,  // measure 16
1000
0100
0000
0000
1000
0100
0010
0000
,  // measure 17
0001
0000
0100
0000
0010
0000
0001
0100
,  // measure 18
0001
0100
0010
0000
0100
0000
1000
0000
,  // measure 19
0100
0000
1000
0100
1000
0000
0100
0000
,  // measure 20
0010
0001
0100
0000
0010
0000
0001
0000
,  // measure 21
0100
0010
0001
0100
,  // measure 22
0010
0000
0100
0010
0000
0000
0001
0000
,  // measure 23
0100
0010
0001
0100
,  // measure 24
0010
0100
0000
0000
0001
0100
0010
0000
,  // measure 25
0100
0000
1000
0000
0100
1000
0000
0100
,  // measure 26
0010
0001
0100
0010
,  // measure 27
0001
0100
0000
0010
0100
0000
0010
0000
,  // measure 28
0001
0100
0010
0100
,  // measure 29
1000
0100
1000
0100
,  // measure 30
0010
0000
0001
0000
0100
0010
0001
0000
,  // measure 31
0100
0010
0000
0001
0100
0000
0010
0000
,  // measure 32
0100
1000
0100
1000
,  // measure 33
0100
1000
0000
0100
,  // measure 34
0010
0001
0000
0100
,  // measure 35
0010
0100
0010
0001
,  // measure 36
0100
0001
0000
0000
0100
1000
0100
0000
,  // measure 37
0100
0010
0001
0100
,  // measure 38
0010
0001
0000
0100
,  // measure 39
0010
0100
1000
0100
,  // measure 40
1000
0100
0000
0000
0100
0010
0001
0000
,  // measure 41
0100
0010
0001
0100
,  // measure 42
0010
0001
0100
0010
,  // measure 43
0001
0100
0010
0100
,  // measure 44
1000
0100
0000
0010
0100
0000
0010
0000
,  // measure 45
0001
0000
0100
0001
0100
0000
0010
0000
,  // measure 46
0100
1000
0100
1000
,  // measure 47
0100
1000
0000
0100
0010
0000
0002
0000
,  // measure 48
0003
0110
1001
0100
,  // measure 49
0010
0001
0100
0010
,  // measure 50
0001
0100
0010
0100
,  // measure 51
0010
0100
0000
0001
0100
0000
0010
0000
,  // measure 52
0100
1000
0100
1000
,  // measure 53
0100
0000
0010
0000
0001
0100
0000
0010
,  // measure 54
0100
0010
0001
0100
,  // measure 55
0010
0100
0000
1000
0100
0000
0100
0000
,  // measure 56
0010
0001
0100
0010
,  // measure 57
0001
0000
0100
0010
0100
0000
0001
0000
,  // measure 58
0100
0000
0010
0100
1000
0000
0100
0000
,  // measure 59
1000
0100
0010
0001
,  // measure 60
0100
0001
0000
0000
0100
0010
0100
0000
,  // measure 61
1000
0001
0000
0100
,  // measure 62
0010
0001
0000
0100
,  // measure 63
1000
0100
0000
0010
,  // measure 64
0001
0100
0000
0100
,  // measure 65
0010
0001
0000
0100
,  // measure 66
0010
0100
0000
0000
0001
0100
0010
0000
,  // measure 67
0100
1000
0000
0100
,  // measure 68
0010
0001
0000
0100
,  // measure 69
0010
0000
0001
0100
0001
0000
0100
0000
,  // measure 70
1000
0000
0100
1000
0100
0000
0100
0000
,  // measure 71
0010
0001
0000
0100
,  // measure 72
0010
0100
0000
0000
;

//---------------dance-single - Wrland---------------
#NOTES:
     dance-single:
     Wrland:
     Easy:
     8:
     0,0,0,0,0:
// measure 0
0000
0000
0000
0000
,  // measure 1
0000
0000
0000
0000
,  // measure 2
0000
0000
0000
0000
,  // measure 3
0000
0000
0000
0000
,  // measure 4
0000
0000
0000
0100
,  // measure 5
0100
0000
0010
0001
0100
0010
0000
0000
,  // measure 6
0100
0000
0010
0100
0010
0001
0000
0000
,  // measure 7
0100
0000
1000
0100
1000
0100
0010
0000
,  // measure 8
0001
0000
0100
0000
0010
0000
0001
0100
,  // measure 9
0001
0100
0010
0100
0010
0001
0000
0100
,  // measure 10
0010
0100
0010
0001
,  // measure 11
0100
0010
0100
0000
1000
0100
0000
1000
,  // measure 12
0100
0010
0001
0000
0100
0000
0010
0001
,  // measure 13
0100
0010
0100
1000
0100
0010
0000
0001
,  // measure 14
0100
0010
0001
0100
0000
0100
0010
0001
,  // measure 15
0100
0010
0000
0100
1000
0000
0100
0000
,  // measure 16
1000
0200
0300
0000
0100
0010
0000
0001
,  // measure 17
0100
0010
0100
1000
0100
0010
0000
0001
,  // measure 18
0100
0010
0100
0000
0010
0000
0001
0100
,  // measure 19
0010
0100
1000
0100
1000
0100
0010
0100
,  // measure 20
0000
0010
0001
0000
0100
0000
0010
0001
,  // measure 21
0100
0010
0100
1000
0100
0010
0000
0001
,  // measure 22
0100
0010
0100
0010
0000
0000
0001
0100
,  // measure 23
0010
0100
0000
1000
0100
1000
0000
0000
,  // measure 24
0100
0020
0030
0000
0001
0100
0010
0001
,  // measure 25
0100
0010
0100
1000
0100
1000
0000
0100
,  // measure 26
0010
0001
0100
0010
0100
0010
0000
0001
,  // measure 27
0100
0000
0100
0000
0010
0001
0100
0000
,  // measure 28
0010
0100
0000
0010
0001
0000
0100
0000
,  // measure 29
0010
0001
0100
0010
0100
1000
0000
0100
,  // measure 30
1000
0000
0100
0010
0001
0100
0010
0000
,  // measure 31
0001
0100
0000
0010
0001
0000
0100
0010
,  // measure 32
0100
0010
0000
0001
0100
0000
0010
0001
,  // measure 33
0100
0010
0100
1000
0100
0000
0100
0010
,  // measure 34
0001
0100
0010
0100
0010
0000
0001
0100
,  // measure 35
0010
0001
0000
0100
0010
0000
0001
0000
,  // measure 36
0100
0020
0030
0000
0100
1000
0100
0000
,  // measure 37
1000
0000
0100
1000
0100
0000
0100
0000
,  // measure 38
0010
0000
0001
0100
0001
0000
0010
0000
,  // measure 39
0100
0000
0010
0001
0100
0000
0010
0000
,  // measure 40
0001
0100
0000
0000
0010
0100
0000
0001
,  // measure 41
0100
0010
0100
1000
0100
1000
0000
0100
,  // measure 42
0010
0001
0100
0010
0100
0000
0001
0000
,  // measure 43
0100
0010
0100
1000
0100
0000
0100
0000
,  // measure 44
0010
0001
0100
0000
0010
0000
0001
0100
,  // measure 45
0010
0100
1000
0100
0010
0000
0100
0000
,  // measure 46
0010
0001
0100
0010
0100
0000
1000
0000
,  // measure 47
0100
1000
0000
0100
0010
0001
0100
0000
,  // measure 48
0010
0200
0300
0000
0001
0100
0010
0100
,  // measure 49
1000
0100
0010
0001
0100
0010
0000
0100
,  // measure 50
0010
0001
0100
0010
0100
1000
0000
0100
,  // measure 51
0010
0000
0001
0000
0100
0010
0100
1000
,  // measure 52
0100
0010
0000
0001
0100
0000
0100
0010
,  // measure 53
0001
0100
0010
0100
1000
0100
0000
1000
,  // measure 54
0100
0000
0100
0010
0001
0100
0010
0001
,  // measure 55
0100
0000
0010
0000
0001
0100
0010
0100
,  // measure 56
1000
0100
0000
1000
0100
0000
0100
0010
,  // measure 57
0001
0100
0010
0100
1000
0000
0100
0010
,  // measure 58
0001
0100
0010
0100
1000
0000
0100
0000
,  // measure 59
0010
0001
0100
0010
0100
0000
0001
0000
,  // measure 60
0100
0002
0003
0000
0100
0010
0100
0000
,  // measure 61
1000
0100
0000
0100
,  // measure 62
0010
0001
0000
0000
0100
0010
0100
0000
,  // measure 63
0001
0100
0000
0010
,  // measure 64
0100
0010
0001
0100
,  // measure 65
1000
0100
0000
1000
,  // measure 66
0100
0010
0000
0000
0001
0100
0010
0000
,  // measure 67
0100
0010
0000
0001
,  // measure 68
0100
0010
0000
0100
,  // measure 69
0010
0001
0000
0100
,  // measure 70
1000
0100
0000
0100
,  // measure 71
0010
0001
0000
0100
,  // measure 72
0010
0100
0000
0000
;

//---------------dance-single - Wrland---------------
#NOTES:
     dance-single:
     Wrland:
     Medium:
     10:
     0,0,0,0,0:
// measure 0
0000
0000
0000
0000
,  // measure 1
0000
0000
0000
0000
,  // measure 2
0000
0000
0000
0000
,  // measure 3
0000
0000
0000
0000
,  // measure 4
0000
0000
0000
0000
0000
0000
0100
0010
,  // measure 5
0100
0010
0001
0100
0010
0200
0300
0100
,  // measure 6
0010
0001
0100
0010
0100
0020
0030
0001
,  // measure 7
0200
0000
0320
0000
0130
0000
0010
0001
,  // measure 8
0100
0000
0010
0000
0100
0000
0010
0100
0010
0000
0100
0000
0001
0000
0100
0000
,  // measure 9
0010
0100
0010
0001
0100
0020
0030
0100
,  // measure 10
0000
0010
0002
0000
0103
0000
0010
0100
,  // measure 11
0010
0000
0001
0000
0100
0000
0010
0000
0100
0000
1000
0100
2000
0000
3100
0000
,  // measure 12
0010
0100
0020
0000
0031
0000
0100
0010
,  // measure 13
0001
0100
0010
0100
1000
0200
0300
0001
,  // measure 14
0100
0000
0010
0000
0100
0001
0010
0000
0100
0000
0001
0000
0100
0001
0010
0000
,  // measure 15
0100
0010
0100
0001
0020
0030
0100
0000
,  // measure 16
0010
0002
0003
0000
0100
2000
3000
0100
,  // measure 17
0010
0001
0100
0010
0100
2000
3000
0100
,  // measure 18
1000
0100
0020
0000
0031
0000
0100
0010
,  // measure 19
0001
0000
0100
0000
0010
0000
0100
0000
1000
0000
0100
0000
0010
0100
0010
0000
,  // measure 20
0100
0010
0002
0000
0103
0000
0010
0100
,  // measure 21
1000
0100
0010
0001
0100
0010
0000
0100
,  // measure 22
0010
0001
0100
0020
0030
0100
0010
0001
,  // measure 23
0100
0020
0030
0100
1000
0200
0300
0000
,  // measure 24
1000
0200
0300
0000
0010
0002
0003
0001
,  // measure 25
0100
0001
0100
0001
0100
0020
0030
0100
,  // measure 26
1000
0100
1000
0100
0010
0002
0000
1000
,  // measure 27
1000
0000
0100
0000
0013
0001
0100
0001
,  // measure 28
0100
0020
0030
0100
0010
0000
0001
0100
,  // measure 29
0010
0100
1000
0100
1000
0200
0300
0100
,  // measure 30
0010
0001
0100
0010
0100
0001
2000
0100
,  // measure 31
0010
0000
0000
0000
0100
0000
0000
0000
0010
0000
0001
0010
3100
0000
0010
0000
,  // measure 32
0100
0020
0030
0100
0010
0000
0100
0010
,  // measure 33
0001
0100
0010
0100
2000
3000
0100
0010
,  // measure 34
0001
0000
0100
0000
0010
0000
0100
0001
0010
0000
0000
0000
0001
0000
0100
0000
,  // measure 35
0010
0200
0300
0010
0002
0003
0100
0000
,  // measure 36
0010
0002
0003
0000
0100
0010
0100
1000
,  // measure 37
0010
0000
0001
0000
0100
0000
0001
1000
0020
0000
0130
0000
0100
0000
0010
0000
,  // measure 38
1000
0000
0100
0000
1000
0000
0100
0010
0200
0000
0310
0000
0010
0000
0100
0000
,  // measure 39
0001
0000
0100
0000
0001
0000
0010
0001
0200
0000
1300
0000
0010
0000
0100
0000
,  // measure 40
0001
0000
0100
0000
0010
0000
0001
0010
0200
0000
0310
0000
1000
0000
0100
0000
,  // measure 41
1000
0100
0010
0001
0100
0020
0030
0100
,  // measure 42
0010
0001
0100
0010
0100
0020
0030
0100
,  // measure 43
1000
0000
0100
0000
0010
0000
0001
0000
0100
0000
0010
0000
0001
1000
0100
0000
,  // measure 44
0010
0000
0001
0000
0100
0001
0010
0000
0100
0000
0010
0000
1000
0000
0100
0000
,  // measure 45
1000
0100
0010
0001
0200
0300
0100
0010
,  // measure 46
0001
0100
0010
0100
2000
3000
0100
0010
,  // measure 47
0001
0200
0300
0010
0002
0003
0100
0000
,  // measure 48
0010
0002
0003
0000
0100
2000
3000
0100
,  // measure 49
0010
0000
0000
0000
0000
0000
0000
0000
0000
0000
0000
0000
0001
0000
0000
0000
0000
0000
0000
0000
0000
0000
0000
0000
0100
0000
0000
0000
0000
0000
0000
0000
0000
0000
0000
0000
0010
0000
0000
0000
0000
0000
0000
0000
0000
0000
0000
0000
0001
0000
0000
0000
0000
0000
0000
0000
0000
0000
0000
0000
0200
0000
0000
0000
0000
0000
0000
0000
0000
0000
0000
0000
0000
0300
0000
0000
0000
0000
0000
0000
0000
0000
0000
0000
0100
0000
0000
0000
0000
0000
0000
0000
0000
0000
0000
0000
,  // measure 50
0010
0000
0001
0000
0100
0001
0010
0000
0100
0000
2000
0000
3000
0000
0100
0000
,  // measure 51
2000
3000
0100
0010
0001
0100
0010
0001
,  // measure 52
0100
0020
0030
0100
2000
3000
0100
1000
,  // measure 53
0100
0000
0010
0000
0001
0010
0100
0000
0010
0000
0002
0000
0003
0000
0100
0000
,  // measure 54
0010
0000
0001
0000
0100
0001
0010
0000
0100
0000
2000
0000
3000
0000
0100
0000
,  // measure 55
1000
0000
0010
0000
0100
1000
0010
0000
0001
0000
0100
0000
0010
0000
0100
0000
,  // measure 56
1000
0200
0300
0010
0002
0003
0100
0010
,  // measure 57
0001
0000
0100
0000
0010
0100
0010
0000
2000
0000
3000
0000
0100
0000
0010
0000
,  // measure 58
0001
0000
0100
0000
0010
0100
0001
0000
0200
0000
0300
0000
0010
0000
0001
0000
,  // measure 59
0100
0010
0100
1000
0100
0010
0001
0000
,  // measure 60
0100
0002
0003
0000
0100
0020
0030
0000
,  // measure 61
0100
0010
0001
0100
0020
0000
0130
0000
,  // measure 62
0010
0002
0003
0000
0100
2000
3000
0000
,  // measure 63
0100
1000
0100
0010
0001
0100
0010
0001
,  // measure 64
0100
0000
0010
0000
0100
0000
0010
0100
0001
0000
0100
0000
0010
0000
0000
0000
,  // measure 65
0100
1000
0100
0010
0001
0200
0300
0000
,  // measure 66
0010
0002
0003
0000
0100
1000
0100
0001
,  // measure 67
0010
0000
0001
0000
0100
0000
0010
0001
0100
0000
1000
0000
0100
0000
0010
0000
,  // measure 68
0100
0000
1000
0000
0010
0000
0100
1000
0100
0000
0010
0000
0001
0000
1000
0000
,  // measure 69
0100
0010
0100
0010
0002
0003
0100
0010
,  // measure 70
0100
0010
0001
0100
0020
0030
0100
0000
,  // measure 71
0010
0002
0003
0000
0100
2000
3000
0000
,  // measure 72
0100
2000
3000
0000
0100
0010
0000
0000
;

//---------------dance-single - Wrland---------------
#NOTES:
     dance-single:
     Wrland:
     Hard:
     12:
     0,0,0,0,0:
// measure 0
0000
0000
0000
0000
,  // measure 1
0000
0000
0000
0000
,  // measure 2
0000
0000
0000
0000
,  // measure 3
0000
0000
0000
0000
,  // measure 4
0000
0000
0000
0000
0000
0000
0001
1000
,  // measure 5
0001
1000
0100
1000
0100
2000
3000
0100
,  // measure 6
0010
0001
0100
0010
0100
0020
0030
0002
,  // measure 7
0003
0000
0100
0000
0010
0000
0100
1000
0020
0000
0130
0000
0001
0000
1000
0000
,  // measure 8
0100
0000
0010
0000
0100
0000
0010
0100
0010
0000
0001
0000
0100
0000
0010
0000
,  // measure 9
0001
0100
0010
0100
1000
0200
0000
0310
,  // measure 10
0001
0100
0020
0030
0100
0000
0010
0001
,  // measure 11
0100
0010
0100
1000
0100
0020
0000
0130
,  // measure 12
0010
0000
0001
0010
0200
0000
0000
0300
0010
0000
0000
0000
0001
0000
0100
0001
,  // measure 13
0010
0000
0100
0000
1000
0000
0100
0000
0010
0000
0001
0000
0010
0000
1000
0010
,  // measure 14
0100
0000
1000
0000
0200
0000
0310
0000
0000
0000
0100
0001
0100
0000
0010
0000
,  // measure 15
0100
2000
0000
3100
0020
0030
0001
0000
,  // measure 16
0010
0200
0300
0000
0010
0200
0301
0010
,  // measure 17
0001
0100
0010
0100
1000
0200
0000
0310
,  // measure 18
0100
0000
0010
0100
0020
0000
0000
0030
0001
0000
0010
0000
0100
0000
1000
0000
,  // measure 19
0100
0000
0010
0000
0001
0000
0100
0000
0010
0000
0100
0000
0010
0100
0002
0000
,  // measure 20
0003
0100
0020
0000
0130
0000
1000
0100
,  // measure 21
1000
0000
0100
0000
0010
0000
0001
1000
0100
0000
0010
0000
0001
0000
0100
1000
,  // measure 22
0010
0000
0001
0000
0100
0000
0020
0000
0030
0000
0100
0010
0100
0000
0010
0000
,  // measure 23
0001
0200
0300
0010
0100
0020
0030
0000
,  // measure 24
0001
0000
0100
0000
0010
0000
0001
0100
0010
0000
0100
0000
0010
0000
0100
0000
,  // measure 25
0010
0001
0100
0010
0100
2000
3000
0100
,  // measure 26
1000
0100
0010
0001
0100
0020
0030
0100
,  // measure 27
0100
0000
1000
0000
0100
0000
0010
1000
0100
0000
0100
0000
0010
0000
0100
0000
,  // measure 28
1000
0200
0300
0010
0002
0003
0100
0010
,  // measure 29
0100
1000
0100
0010
0001
0200
0300
0010
,  // measure 30
0100
0000
0010
0000
0001
0000
0100
0100
0010
0000
0001
0000
1000
0000
0100
0000
,  // measure 31
1000
0000
0010
0000
0100
0000
1000
0100
0010
0000
0001
0100
0001
0000
0100
0000
,  // measure 32
0010
0002
0003
0100
0020
0030
0100
1000
,  // measure 33
0100
0000
0010
0000
1000
0000
0100
0001
0020
0000
0030
0000
0001
0000
0100
0000
,  // measure 34
0001
0000
0100
0000
0010
0000
0100
0001
2000
0000
3000
0000
0100
0000
1000
0000
,  // measure 35
0100
0000
0020
0000
0000
0000
0031
0000
0100
0000
0100
0000
0010
0001
0100
0001
,  // measure 36
0010
0000
0100
0000
0010
0100
0010
0001
0010
0000
0001
0000
0100
0000
0010
0000
,  // measure 37
0100
1000
0100
1000
0100
0020
0000
0130
,  // measure 38
2000
0000
0000
3000
0100
0000
0010
0001
0100
0000
0010
0000
0001
0000
0100
0000
,  // measure 39
0010
0000
0001
0000
0100
0000
0010
0000
0100
0000
0010
0000
1000
0010
0100
0100
,  // measure 40
0010
0000
0001
0000
0100
0001
0010
0001
0100
0000
0010
0000
0010
0000
0001
0000
,  // measure 41
0100
0000
0010
0000
0100
0000
1000
0000
0100
0000
0020
0000
0000
0030
0001
0000
,  // measure 42
0100
0000
0010
0000
0100
0000
1000
0000
0100
0000
0010
0000
0001
0010
1000
0001
,  // measure 43
0100
0000
0010
0000
1000
0100
0100
0001
0010
0000
0001
0000
0100
1000
0100
0010
,  // measure 44
0001
0000
0100
0000
0001
0100
0010
0100
0001
0000
0010
0000
0100
0000
0010
0000
,  // measure 45
0001
0100
0010
0100
2000
3000
0100
1000
,  // measure 46
0100
0000
0010
0000
0001
0000
0100
0000
0020
0000
0030
0000
0100
0001
0010
0000
,  // measure 47
0001
0000
0200
0000
0300
0000
0020
0000
0031
0000
0100
0010
0001
0000
0000
0000
,  // measure 48
0100
0010
0011
0000
1100
0100
0010
0100
,  // measure 49
0010
0001
0100
0010
0100
0020
0030
0100
,  // measure 50
1000
0000
0100
0000
1000
0000
0100
0000
0010
0000
0002
0000
0000
0003
0100
0000
,  // measure 51
0010
0000
0100
0000
0001
0000
0100
0010
0100
0000
0001
0000
0100
0000
0010
0000
,  // measure 52
0100
2000
3000
0100
2000
3000
0100
0010
,  // measure 53
0001
0000
0100
0000
0010
0000
0100
0010
1000
0000
0200
0000
0300
0000
0100
0000
,  // measure 54
0010
0000
0001
0000
0100
0010
0100
0000
0001
0000
0100
0000
0010
0000
0010
0000
,  // measure 55
0001
0000
0010
0000
0100
0000
0010
0100
0010
0000
0100
0000
0010
0000
0001
0000
,  // measure 56
0100
0000
0020
0000
0030
0000
0100
0000
0010
0000
0100
0010
0001
0000
0100
0000
,  // measure 57
0010
0000
0100
0000
1000
0100
1000
0000
1000
0000
0100
0000
0100
0000
0010
0000
,  // measure 58
0001
0000
0100
0000
0010
0100
0001
0000
0100
0000
0010
0000
0010
0000
0100
0001
,  // measure 59
0010
0000
0001
0000
0010
0000
0100
0010
0100
0000
1000
0000
0200
0000
0300
0000
,  // measure 60
0100
0010
0011
0000
1100
0000
0100
0001
,  // measure 61
0010
0200
0300
0100
0010
0000
0100
0010
,  // measure 62
1000
0200
0300
0000
1000
0200
0310
0001
,  // measure 63
0100
0000
0010
0000
0001
0000
0100
0001
0020
0000
0030
0000
0001
0000
0010
0000
,  // measure 64
0100
0000
0001
0000
0100
0000
1000
0010
0010
0000
0100
0000
0001
0000
0010
0000
,  // measure 65
0100
0000
0010
0000
0100
0000
0010
0001
0100
0000
0020
0000
0030
0000
0000
0000
,  // measure 66
0100
0020
0030
0000
0001
0100
0010
0100
,  // measure 67
0001
0000
1000
0000
0100
0000
0010
0001
0200
0000
0310
0000
1000
0000
0010
0000
,  // measure 68
0100
0000
1000
0000
0100
0000
0001
1000
0010
0000
0100
0000
0001
0000
1000
0000
,  // measure 69
0010
0100
0010
0001
0200
0000
1300
0010
,  // measure 70
0001
0100
0010
0100
2000
0000
3100
0001
,  // measure 71
0010
0002
0003
0000
0100
2000
3000
0000
,  // measure 72
0100
0020
0030
0000
0001
0100
0000
0000
;
