#TITLE:WHY YOU WANNA TRIP ON ME!?;
#SUBTITLE:;
#ARTIST:Michael Jackson;
#TITLETRANSLIT:;
#SUBTITLETRANSLIT:;
#ARTISTTRANSLIT:;
#GENRE:Jammer Pop;
#CREDIT:Epic;
#MUSIC:WHY YOU WANNA TRIP ON ME!.ogg;
#BANNER:WHY YOU WANNA TRIP ON ME!.png;
#BACKGROUND:WHY YOU WANNA TRIP ON ME!-bg.png;
#CDTITLE:Dangerous.png;
#SAMPLESTART:58.621;
#SAMPLELENGTH:15.000;
#SELECTABLE:YES;
#OFFSET:0.000;
#BPMS:0.000=104.664
,3.000=109.664
;
#STOPS:135.000=0.274
,136.000=0.274
,136.500=0.137
,136.750=0.137
,168.500=0.274
;
#DISPLAYBPM:109.000;
#JACKET:WHY YOU WANNA TRIP ON ME!-jacket.png;
#TAGS:DMCA;
#BGCHANGES:;
#FGCHANGES:;

//--------------- dance-single - Wrland ----------------
#NOTES:
     dance-single:
     Wrland:
     Beginner:
     2:
     0,0,0,0,0:
0000
0000
0000
0000
,
0000
0000
0000
0000
,
0000
0000
0000
1000
,
0000
0000
0000
0001
,
0000
0000
0000
0100
,
0000
0000
0000
0010
,
0000
0000
0000
0100
,
0000
0001
0000
0001
,
0000
1000
0000
0100
,
0000
1000
0000
0100
,
0000
0010
0000
0001
,
0000
1000
0000
1000
,
0000
0001
0000
0100
,
0000
0010
0000
0001
,
0000
0100
0000
0100
,
0000
1000
0000
1000
,
0000
0100
0110
0001
,
0000
0001
0000
0010
,
0000
0100
0000
0100
,
0000
1000
0000
1000
,
0000
1000
0000
0001
,
0000
0001
0000
0010
,
0000
0100
0000
0010
,
0000
0010
0000
0100
,
0000
0100
0000
0100
,
0000
0100
0000
2000
,
0000
0000
0002
0000
0000
3003
0100
0000
,
0000
0100
0000
0100
,
0000
0000
0000
0000
0100
0000
0000
0100
0000
0000
1000
0000
0200
0000
0000
0000
,
0000
0000
0300
0020
,
0000
0000
0030
0001
,
0000
0100
0000
1000
,
0000
0000
0000
0000
0010
0000
0000
0001
0000
0000
0100
0000
0002
0000
0000
0000
,
0000
0000
0000
2000
,
0000
0000
0000
3003
0000
0000
0100
0000
0000
0000
0000
0000
0000
0000
0001
0000
,
0000
0000
0000
0100
0000
0000
0000
0100
,
0000
1000
0000
0000
0100
0000
2000
0000
0000
0000
0000
0000
0000
0000
0000
0000
,
0000
0000
0000
0002
0000
0000
0000
0000
,
0000
3003
0000
0100
0000
0000
0000
0001
,
0000
0000
0000
0100
0000
0000
0000
0100
,
0000
1000
0000
0000
0100
0000
2000
0000
0000
0000
0000
0000
0000
0000
0000
0000
,
0000
0000
0000
0000
0000
3000
0000
0000
0000
0000
0000
0000
0000
0000
0000
0000
,
0000
0110
0001
0000
0000
0000
0000
0000
,
0000
0100
0000
0000
,
0000
0001
0000
0000
,
0000
0010
0000
0000
,
0000
1000
0000
0100
,
0000
0010
0000
0010
,
0000
0001
0000
0010
,
0000
0100
0000
0100
,
0000
1000
0000
0000
,
0000
1000
0000
0000
,
0000
0010
0000
0000
,
0000
0100
0000
0000
,
0000
0001
0000
0001
,
0000
0100
0000
0100
,
0000
1000
0000
1000
,
0000
0100
0000
0001
;

//--------------- dance-single - Wrland ----------------
#NOTES:
     dance-single:
     Wrland:
     Easy:
     4:
     0,0,0,0,0:
0000
0000
0000
0000
,
0000
0000
0000
0000
,
0000
0000
0000
1000
,
0000
1000
0000
0001
,
0000
0001
0000
0100
,
0000
0100
0000
0010
,
0000
0001
0000
0100
,
0100
0001
0000
0001
,
0001
1000
0000
0100
,
0100
1000
0000
0100
,
0100
0010
0000
0001
,
0001
1000
0001
1000
,
1000
0001
1000
0100
,
0100
0010
0100
0001
,
0001
0100
0010
0100
,
0100
1000
0100
1000
,
1000
0100
0110
0001
,
0100
0001
0100
0010
,
0001
0100
0010
0100
,
0100
1000
0100
1000
,
0100
1000
0100
0001
,
0100
0001
0100
0010
,
0001
0100
0100
0010
,
0100
0010
0001
0100
,
1000
0100
1000
0100
,
0010
0100
0001
2000
,
0000
0000
0002
0000
0000
3003
0100
0000
,
0010
0100
0001
0100
,
0000
0000
0000
0000
0100
0000
0000
0100
0000
0000
1000
0000
0200
0000
0000
0000
,
0000
0000
0300
0020
,
0000
0000
0030
0001
,
1000
0000
0100
1000
0100
0000
1000
0000
,
0100
0000
0000
0000
0010
0000
0000
0001
0000
0000
0100
0000
0002
0000
0000
0000
,
0000
0000
0000
2000
,
0000
0000
0000
3003
0000
0000
0100
0000
0000
0000
0010
0000
0000
0000
0001
0000
,
0100
0001
0000
0100
0000
1000
0000
0100
,
0000
1000
0000
0000
0100
0000
2000
0000
0000
0000
0000
0000
0000
0000
0000
0000
,
0000
0000
0000
0002
0000
0000
0000
0000
,
0000
3003
0000
0100
0000
0010
0000
0001
,
0100
0001
0000
0100
0000
0010
0000
0100
,
0000
1000
0000
0000
0100
0000
2000
0000
0000
0000
0000
0000
0000
0000
0000
0000
,
0000
0000
0000
0000
0000
3000
0100
0000
0010
0000
0001
0000
0000
0000
0100
0000
,
0000
0110
0001
0000
0000
0000
1000
0000
,
0000
0100
0000
0010
,
0000
0001
0000
0100
,
0000
0010
0000
0100
,
0000
1000
0001
0100
,
0000
0010
0100
0010
,
0000
0001
0100
0010
,
0000
0100
1000
0100
,
0000
1000
0000
0100
,
0000
1000
0000
0100
,
0000
0010
0000
0001
,
0000
0100
0000
0010
,
0000
0001
0100
0001
,
0000
0100
0010
0100
,
0000
1000
0100
1000
,
0000
0100
0010
0001
;

//--------------- dance-single - Wrland ----------------
#NOTES:
     dance-single:
     Wrland:
     Medium:
     8:
     0,0,0,0,0:
0000
0000
0000
1000
,
0000
1000
0000
0000
0001
0000
0000
0001
,
0000
0000
0100
0000
0010
0001
0100
0001
,
0100
0000
0001
0000
0100
0000
0010
0100
,
0010
0000
0100
1000
0100
0000
1000
0000
,
0100
0000
1000
0100
1000
0000
0100
0000
,
0001
0000
0100
0001
0100
0000
0010
0100
,
0010
0000
0000
0001
0000
0000
0100
0000
0010
0000
0000
0000
0100
0000
0010
0000
,
0100
0000
0000
1000
0000
0000
0100
0000
1000
0000
0000
0000
0100
0000
0010
0000
,
0001
0000
0000
0100
0000
0000
0001
0000
0100
0000
0000
0000
0010
0000
0100
0000
,
0001
0000
0000
0100
0000
0000
0010
0000
0100
0000
0000
0000
0010
0000
0100
0000
,
0010
0001
0100
0002
0003
0000
0100
0010
,
0001
0000
0100
0010
1000
0000
0100
1000
,
0100
0010
0001
2000
3000
0000
0100
0010
,
0001
0100
0010
0000
1001
0000
0100
0010
,
0001
0100
0010
0200
0300
0000
0010
0100
,
0010
0001
0100
0000
0110
0000
0010
0001
,
0100
0010
0100
2000
3001
0200
0310
0001
,
0100
0010
0100
0000
1100
0000
0100
0010
,
0001
0100
0010
0200
0300
0000
0010
0001
,
0100
0010
0001
0000
1001
0000
0100
1000
,
0100
1000
0100
2000
3000
0000
0100
0010
,
0001
0100
0001
0000
1001
0000
0100
1000
,
0100
0010
0001
0200
0300
0000
0010
0001
,
0100
0010
0100
0000
1100
0000
0100
0010
,
0001
0100
0001
0200
0300
0000
0010
0001
,
0100
0000
0000
0000
0100
0000
0000
1000
0000
0000
0100
0000
1000
0000
0100
0010
,
0001
0100
0010
0100
0010
0000
0001
0100
,
0001
0000
0000
0000
0100
0000
0000
1000
0000
0000
0100
0000
2000
0000
0000
0000
,
0001
0000
0001
0001
3001
0000
0002
0000
,
1000
1000
0000
1000
1003
0000
0100
0010
,
0001
0000
0000
0000
0100
0000
0000
0100
0000
0000
1000
0000
0100
0000
1000
0000
,
0100
0000
0000
0000
0001
0000
0000
0100
0000
0000
0001
0000
0200
0000
0000
0000
,
0010
0010
0000
0010
0310
0000
0002
0000
,
1000
0000
1000
1003
0000
0000
0100
0000
0010
0000
0001
0000
0000
0000
0100
0000
,
0010
0100
0000
1000
0100
1000
0000
0100
,
0000
1000
0000
0000
0100
0000
0002
0000
0100
1000
0100
0000
0100
0000
0010
0000
,
1000
0000
0103
0000
0000
0000
2000
0000
0010
0001
0010
0000
0001
0000
0000
0000
,
0010
0001
3010
0001
0100
0010
0000
0100
,
0010
0001
0000
0100
0010
0100
0000
1000
,
0000
0100
0000
0000
1000
0000
0020
0000
1000
0100
1000
0000
0100
0000
1000
0000
,
0001
0000
0100
1030
0000
0000
0100
0000
0010
0000
0001
0000
0100
0000
1000
0000
,
0001
0000
1001
0000
0100
0000
0010
0000
0001
0000
0000
0000
0100
0000
0000
0010
,
0000
0000
0100
0000
0010
0000
0001
0000
0100
0000
0000
0000
1000
0000
0000
0100
,
0000
0000
1000
0000
0100
0000
1000
0000
0100
0000
0000
0000
0100
0000
0000
0010
,
0000
0001
0100
0001
0100
0000
0010
0100
,
0001
0100
0000
0000
0010
0000
0100
0000
1000
0000
0000
0000
0100
0000
0001
0000
,
1000
0000
0100
1000
0100
0000
0100
0010
,
0001
0000
0100
0010
0100
0000
0001
0100
,
0001
0000
0100
0010
0001
0000
0100
0010
,
0100
0010
0000
0000
1000
0000
0100
0000
1000
0000
0000
0000
1000
0000
0000
0001
,
0000
0000
1000
0000
0001
0000
1000
0000
0001
0000
0000
0000
0001
0000
0000
1000
,
0000
0000
0001
0000
1000
0000
0100
0000
1000
0000
0000
0000
0100
0000
0000
1000
,
0000
0100
1000
0100
0010
0000
0001
0100
,
0001
0100
0000
0000
0001
0000
0100
0000
0010
0000
0000
0000
0100
0000
0000
0100
,
0000
0000
1000
0000
0100
0000
1000
0000
0100
0000
0000
0000
1000
0000
0000
1000
,
0000
0000
0100
0000
1000
0000
0010
0000
0100
0000
0000
0000
0001
0000
0000
0001
,
0000
0100
0001
0100
0010
0000
0100
0010
,
0100
0010
0000
0000
0000
0000
0000
0000
0000
0000
0000
0000
0000
0000
0000
0000
;

//--------------- dance-single - Wrland ----------------
#NOTES:
     dance-single:
     Wrland:
     Hard:
     12:
     0,0,0,0,0:
0000
0000
0000
0000
0000
0000
1000
0100
,
0001
0100
0010
0001
0100
0010
0001
0100
,
0010
0000
0000
0000
0100
0000
0000
0000
0010
0000
0001
0000
0100
0000
1000
0000
0022
0000
0000
0000
0000
0033
1000
0000
0100
0000
0010
0000
0100
0000
0000
0000
,
0010
0000
0100
0000
0010
0000
0001
0000
0100
0000
0000
0001
0100
0001
0100
0000
,
0010
0000
0100
0000
1000
0000
0100
0000
1000
0000
0000
0100
1000
0100
1000
0000
,
0100
0000
0010
0000
0001
0000
0100
0000
0010
0000
0000
0100
0010
0100
0010
0000
,
0001
0000
0100
0000
0010
0000
0100
0000
1000
0000
0000
0100
1000
0100
1000
0001
,
0100
0000
0010
0100
0000
0010
0100
0000
0001
0000
0100
0000
0010
0100
0010
0100
,
0001
0000
0010
0100
0000
0001
0100
0000
0010
0000
0100
0000
1000
0100
1000
0100
,
1000
0000
0100
1000
0000
0100
0010
0000
0100
0000
0010
0000
0001
0100
0001
0100
,
0001
0000
0100
0001
0000
0100
0001
0000
0101
0000
0010
0000
0010
0100
0010
0000
,
0001
0000
0100
0000
0010
0000
0200
0000
0300
0000
0100
0000
0100
0010
0001
0100
,
0010
0000
0100
0000
0010
0000
0000
0000
1001
0000
0010
0000
0100
0010
0001
0000
,
0010
0001
0100
0000
1000
0000
0200
0000
0300
0000
0100
0000
1000
0100
1000
0000
,
0010
0000
0001
0000
0100
0000
0000
0000
0110
0000
0001
0000
0100
0001
0100
0000
,
0010
0000
0100
0000
1000
0000
0200
0000
0300
0000
0100
0000
1000
0100
1000
0000
,
0100
0000
0010
0000
0001
0000
0000
0000
1001
0000
0100
0000
1000
0100
1000
0000
,
0100
0001
0010
0000
0001
0010
0001
0000
0010
0000
0001
0000
0100
0001
0100
0000
,
0100
0000
0010
0000
0100
0000
0000
0000
1010
0000
0001
0010
0100
0001
0100
0000
,
0010
0000
0100
0000
1000
0000
0200
0000
0300
0000
0100
0000
1000
0100
1000
0000
,
0100
0000
0010
0000
0001
0000
0000
0000
1100
0000
0100
0000
0010
0001
0100
0000
,
0010
0000
0100
0000
0010
0000
0002
0000
0003
0000
1000
0000
0100
1000
0100
0000
,
0100
0000
0010
0000
0001
0000
0000
0000
0101
0000
0001
0000
0100
0001
0100
0000
,
0001
0000
0100
0000
0010
0000
0200
0000
0300
0000
0100
0000
1000
0100
1000
0000
,
0100
0000
0010
0000
0001
0000
0000
0000
1001
0000
0100
0000
1000
0100
1000
0000
,
0100
0010
0001
0200
0300
0010
0200
0010
,
0001
0000
0010
0000
0001
0000
0000
0010
0000
0001
0000
0000
0310
0000
0001
0100
,
0001
0000
0100
0000
0010
0001
0100
0000
1000
0000
0000
0000
0100
0000
1000
0000
,
0100
0000
0010
0000
0002
0000
0003
0200
0000
0300
0010
0000
0001
0000
0100
0001
,
0100
0000
0010
0000
0100
0000
1000
0000
0100
0000
0000
0000
1000
0010
0100
1000
,
0100
0000
0101
0000
0010
0000
1100
0000
0010
0000
0011
0000
0100
0000
0001
0100
,
0001
0000
0100
0000
0010
0000
0100
0000
0010
0000
0000
0000
0100
0001
1000
0000
,
0100
0000
1000
0000
0200
0000
0300
0002
0000
0003
0100
0000
0001
0000
0100
0001
,
0100
0010
0100
1000
0100
0000
1000
0001
,
1000
0000
0001
1000
0100
0010
0001
0000
0100
0000
0010
0000
0001
0000
0100
0000
,
0001
0100
0001
0000
0000
0000
0100
0001
0010
0000
0100
0000
1000
0000
0200
0000
,
0300
2000
0000
3000
0100
0000
1000
0000
0100
1000
0100
0000
1000
0000
0100
0000
,
0010
0000
0001
0000
0000
0000
0001
0010
0001
0100
0001
0000
1100
0000
0010
0000
,
1100
0000
0010
0000
0011
0000
0100
0000
0001
0100
0001
0000
0100
0000
0010
0000
,
1000
0000
0100
0000
0000
0000
1000
0010
0100
0010
1000
0000
0100
0000
0020
0000
,
0030
0002
0000
0003
0100
0000
0001
0000
0100
0001
0100
0000
0001
0000
0100
0000
,
0010
0000
0100
0010
0000
0000
1000
0000
1100
0000
0100
0000
0110
0000
0001
0000
,
0101
0000
1001
1000
0100
0010
0100
0000
0010
0000
0100
0000
0010
0000
0001
0000
,
0100
0000
0000
0001
0100
0001
0100
0000
0010
0000
0100
0000
1000
0000
0100
0000
,
1000
0000
0000
0100
1000
0100
1000
0000
0100
0000
0010
0000
0001
0000
0100
0000
,
0010
0000
0000
0100
0010
0100
0010
0000
0001
0000
0100
0000
0010
0000
0100
0000
,
1000
0000
0000
0100
1000
0100
1000
0001
0100
0000
0010
0100
0000
0010
0100
0000
,
0001
0000
0100
0000
0010
0100
0010
0100
0001
0000
0010
0100
0000
0001
0100
0000
,
0010
0000
0100
0000
1000
0100
1000
0100
1000
0000
0100
1000
0000
0100
0010
0000
,
0100
0000
0010
0000
0001
0100
0001
0100
0001
0000
0100
0001
0000
0100
0001
0000
,
0101
0000
0010
0000
0100
0010
0100
0000
0010
0000
0000
0000
0000
0000
0001
0000
,
1000
0000
0100
0000
1000
0100
1000
0000
0100
0000
0000
0000
0000
0000
0100
0000
,
0010
0000
0000
0000
0001
0100
0001
0000
0100
0000
0000
0000
0000
0000
0010
0000
,
0100
0000
0000
0000
0001
0100
0001
0000
0100
0000
0000
0000
0000
0000
0010
0000
,
0100
0001
0000
0000
0100
0010
0100
0000
0100
0000
0000
0000
0000
0000
1000
0000
,
0100
0000
0000
0000
1000
0100
1000
0000
0100
0000
0000
0000
0000
0000
0100
0000
,
0010
0000
0000
0000
0001
0100
0001
0000
0001
0000
0000
0000
0000
0000
0100
0000
,
1000
0000
0000
0000
0100
0010
0100
0000
0010
0000
0000
0000
0000
0000
0001
0000
,
1000
0001
0000
0100
1000
0000
0000
0000
0000
0000
0000
0000
0000
0000
0000
0000
;
