#VERSION:0.83;
#TITLE:Times Like These;
#SUBTITLE:;
#ARTIST:Addison Rae;
#TITLETRANSLIT:;
#SUBTITLETRANSLIT:;
#ARTISTTRANSLIT:;
#GENRE:Pop;
#CREDIT:Columbia;
#MUSIC:Times Like These.ogg;
#BANNER:Times Like These.png;
#BACKGROUND:BG.png;
#JACKET:Times Like These-jacket.png;
#DISCIMAGE:;
#CDIMAGE:;
#SELECTABLE:YES;
#LYRICSPATH:;
#CDTITLE:Popular.png;
#SAMPLESTART:30.520;
#SAMPLELENGTH:15.000;
#OFFSET:0.025;
#BPMS:0.000000=110.000000,
48.000000=55.000000,
52.000000=110.000000
;
#STOPS:;
#WARPS:;
#DELAYS:;
#SPEEDS:;
#SCROLLS:;
#TICKCOUNTS:;
#TIMESIGNATURES:;
#LABELS:;
#COMBOS:;
#FAKES:;
#BGCHANGES:0.000=Times Like These.avi=0.000=0=0=0=StretchNoLoop====,
99999=-nosongbg-=1.000=0=0=0 // don't automatically add -songbackground-
;
#FGCHANGES:;
#ATTACKS:;
#TAGS:DMCA;
#DISPLAYBPM:55.000:110.000;
#METERTYPE:DDR X;

//---------------dance-single - Wrland---------------
#NOTEDATA:;
#CHARTNAME:;
#CHARTSTYLE:Pad;
#CREDIT:Wrland;
#STEPSTYPE:dance-single;
#DESCRIPTION:Wrland;
#DIFFICULTY:Beginner;
#METER:3;
#METERF:3;
#RADARVALUES:0,0,0,0,0;
#NOTES:
// measure 0
0000
0000
0000
0000
,  // measure 1
0000
0000
0000
0000
,  // measure 2
0000
0000
0000
0000
,  // measure 3
0000
0000
0000
0000
,  // measure 4
0100
0000
0100
0000
,  // measure 5
0010
0000
0010
0000
,  // measure 6
0001
0000
0001
0000
,  // measure 7
0010
0000
0100
0000
,  // measure 8
1000
0000
0100
0000
,  // measure 9
1000
0000
0100
0000
,  // measure 10
0010
0000
0100
0000
,  // measure 11
0010
0000
0001
0000
,  // measure 12
0200
0300
0020
0030
,  // measure 13
0100
0000
1000
0000
,  // measure 14
0100
0000
0010
0000
,  // measure 15
0100
0000
0010
0000
,  // measure 16
0100
0000
0010
0000
,  // measure 17
0001
0000
0010
0000
,  // measure 18
0100
0000
1000
0000
,  // measure 19
0001
0000
0010
0000
,  // measure 20
0100
0000
1000
0000
,  // measure 21
0100
0000
0100
0000
,  // measure 22
0010
0000
0001
0000
,  // measure 23
0010
0000
0100
0000
,  // measure 24
1000
0000
0100
0000
,  // measure 25
1000
0000
0010
0000
,  // measure 26
0001
0000
0100
0000
,  // measure 27
0010
0000
0100
0000
,  // measure 28
1000
0000
0100
0000
,  // measure 29
0010
0000
0100
0000
,  // measure 30
0010
0000
0001
0000
,  // measure 31
0010
0000
0100
0000
,  // measure 32
1000
0000
0100
0000
,  // measure 33
0020
0000
0000
0030
,  // measure 34
0002
0000
0000
0003
,  // measure 35
2000
0000
0000
3000
,  // measure 36
0200
0000
0000
0300
,  // measure 37
0020
0000
0000
0030
,  // measure 38
0200
0000
0000
0300
;

//---------------dance-single - Wrland---------------
#NOTEDATA:;
#CHARTNAME:;
#CHARTSTYLE:Pad;
#CREDIT:Wrland;
#STEPSTYPE:dance-single;
#DESCRIPTION:Wrland;
#DIFFICULTY:Easy;
#METER:5;
#METERF:5;
#RADARVALUES:0,0,0,0,0;
#NOTES:
// measure 0
0000
0000
0000
0000
,  // measure 1
0000
0000
0000
0000
,  // measure 2
0000
0000
0000
0000
,  // measure 3
0000
0000
0000
0000
,  // measure 4
0010
0100
0010
0000
,  // measure 5
0001
1000
0001
0000
,  // measure 6
1000
0100
1000
0000
,  // measure 7
0100
0010
0001
0000
,  // measure 8
0001
0010
0100
0000
,  // measure 9
1000
0100
0010
0000
,  // measure 10
0100
0010
0100
0000
,  // measure 11
0001
0100
0001
0000
,  // measure 12
2000
3000
0002
0003
,  // measure 13
1000
1000
0001
0001
,  // measure 14
1000
0001
0000
1000
,  // measure 15
0100
1000
0100
0010
,  // measure 16
0001
0100
0000
0001
,  // measure 17
0010
0100
1000
0100
,  // measure 18
0010
0100
0000
1000
,  // measure 19
0100
1000
0100
0000
,  // measure 20
0010
0001
0100
0000
,  // measure 21
0001
0100
0001
0100
,  // measure 22
0010
0000
1000
0100
,  // measure 23
1000
0100
0010
0001
,  // measure 24
0100
0010
0000
0001
,  // measure 25
0010
0100
1000
0100
,  // measure 26
1000
0100
0000
0010
,  // measure 27
0001
0010
0001
0010
,  // measure 28
0100
0000
0100
0000
,  // measure 29
1000
0100
1000
0000
,  // measure 30
0001
0010
0001
0000
,  // measure 31
0100
0010
0100
0000
,  // measure 32
0001
0100
0001
0000
,  // measure 33
2000
0000
0000
3000
,  // measure 34
0002
0000
0000
0003
,  // measure 35
2000
0000
0000
3000
,  // measure 36
0002
0000
0000
0003
,  // measure 37
0200
0000
0000
0300
,  // measure 38
0020
0000
0000
0030
;

//---------------dance-single - Wrland---------------
#NOTEDATA:;
#CHARTNAME:;
#CHARTSTYLE:Pad;
#CREDIT:Wrland;
#STEPSTYPE:dance-single;
#DESCRIPTION:Wrland;
#DIFFICULTY:Medium;
#METER:8;
#METERF:8;
#RADARVALUES:0,0,0,0,0;
#NOTES:
// measure 0
0000
0000
0000
0000
,  // measure 1
0000
0000
0000
0000
,  // measure 2
0000
0000
0000
0000
,  // measure 3
0000
0000
0000
0000
,  // measure 4
1000
0000
0100
0000
0010
0000
0100
0010
,  // measure 5
0001
0010
0100
1000
,  // measure 6
0100
0000
1000
0000
0100
0000
0010
0100
,  // measure 7
0010
0001
0010
0100
,  // measure 8
0010
0100
0020
0030
,  // measure 9
0001
0010
0200
0300
,  // measure 10
1000
0100
2000
3000
,  // measure 11
0100
0010
0002
0003
,  // measure 12
0200
0300
0020
0030
,  // measure 13
0001
0100
0001
0100
,  // measure 14
0010
0100
1000
0100
,  // measure 15
1000
0000
0100
1000
,  // measure 16
0100
0010
0001
0100
,  // measure 17
0010
0000
0001
0100
,  // measure 18
0001
0100
0010
0000
,  // measure 19
0100
0000
1000
0000
0100
0000
1000
0200
,  // measure 20
0300
0000
0000
0100
0010
0000
0100
0000
,  // measure 21
0010
0001
0100
0001
,  // measure 22
0100
0010
0100
0000
,  // measure 23
1000
0100
1000
0100
,  // measure 24
0010
0100
0010
0000
,  // measure 25
0001
0010
0100
0010
,  // measure 26
0001
0100
1000
0000
,  // measure 27
0100
0000
0010
0000
0001
0000
0100
0002
,  // measure 28
0003
0000
0010
0100
,  // measure 29
1000
1000
0001
0001
,  // measure 30
1000
1000
0001
0001
,  // measure 31
0100
0100
0010
0010
,  // measure 32
0100
0100
0010
0010
,  // measure 33
0002
0000
0000
0003
,  // measure 34
0002
0000
0000
0003
,  // measure 35
2000
0000
0000
3000
,  // measure 36
2000
0000
0000
3000
,  // measure 37
0200
0000
0000
0300
,  // measure 38
0020
0000
0000
0000
,  // measure 39
0030
0000
0000
0000
;

//---------------dance-single - Wrland---------------
#NOTEDATA:;
#CHARTNAME:;
#CHARTSTYLE:Pad;
#CREDIT:Wrland;
#STEPSTYPE:dance-single;
#DESCRIPTION:Wrland;
#DIFFICULTY:Hard;
#METER:11;
#METERF:11;
#RADARVALUES:0,0,0,0,0;
#NOTES:
// measure 0
0000
0000
0000
0000
,  // measure 1
0000
0000
0000
0000
,  // measure 2
0000
0000
0000
0000
,  // measure 3
0000
0000
0000
0000
,  // measure 4
1000
0000
0100
0000
1000
0000
0100
0000
0001
0000
0100
0000
0001
0100
0001
0000
,  // measure 5
0001
0000
0100
0000
0010
0000
0100
0000
1000
0000
0100
0000
1000
0100
1000
0000
,  // measure 6
0100
0000
0010
0000
0001
0000
0100
0000
0010
0000
0100
0000
0010
0100
0010
0000
,  // measure 7
0001
0000
0100
0000
0010
0000
1000
0000
0100
0000
1000
0000
0100
0010
0100
0000
,  // measure 8
0010
0001
0100
0010
0100
0000
0110
0000
,  // measure 9
0010
0001
0010
0100
1000
0000
0110
0001
,  // measure 10
0010
0000
0100
0000
1000
0000
0100
0000
0001
0000
0100
0000
0001
0000
0100
0001
,  // measure 11
0100
0010
1000
0100
2000
3000
0200
0300
,  // measure 12
0020
0030
0200
0300
0020
0030
0002
0003
,  // measure 13
1000
0100
1000
0100
0010
0001
0100
0010
,  // measure 14
0200
0000
0300
0000
0020
0000
0030
0000
0001
0100
0000
0000
0010
0000
0000
0000
,  // measure 15
0100
0010
0001
0100
1000
0100
1000
0100
,  // measure 16
0020
0000
0030
0000
0002
0000
0003
0000
0001
0010
0000
0000
0010
0000
0000
0000
,  // measure 17
0100
1000
0100
0010
0001
0100
1000
0100
,  // measure 18
2000
0000
3000
0000
0200
0000
0300
0000
0001
0100
0000
0000
0010
0000
0000
0000
,  // measure 19
0100
0000
0010
0000
0200
0300
1000
0200
,  // measure 20
0300
0000
0100
0000
0010
0000
0001
0000
0100
1000
0000
0010
0000
0000
0010
0000
,  // measure 21
0100
0010
0100
1000
0100
0010
0001
0100
,  // measure 22
0001
1000
0000
0000
0100
0010
0000
0000
0001
0100
0000
0000
0022
0000
0033
0000
,  // measure 23
0010
0100
1000
0100
0010
0001
0100
0010
,  // measure 24
0100
0010
0000
0000
1000
0100
0000
0000
0100
0010
0000
0000
0202
0000
0303
0000
,  // measure 25
0010
0001
0100
0010
1000
0100
1000
0100
,  // measure 26
0010
0001
0000
0000
0100
1000
0000
0000
0100
0010
0000
0000
0022
0000
0033
0000
,  // measure 27
0010
0100
1000
0100
0020
0030
1000
0020
,  // measure 28
0030
0000
0100
0000
0010
0000
0100
0000
0010
0001
0000
1000
0000
0000
0010
0000
,  // measure 29
2000
3000
0200
0300
1000
0100
1000
0100
,  // measure 30
0010
0001
0100
0010
0200
0300
0020
0030
,  // measure 31
0100
0010
0100
0010
0001
0100
0010
1000
,  // measure 32
0200
0300
2000
3000
0100
0010
0001
0100
,  // measure 33
0020
0030
0200
0300
,  // measure 34
2000
3000
0200
0300
,  // measure 35
0020
0000
0000
0030
0002
0000
0003
0000
,  // measure 36
0001
0010
0100
1000
,  // measure 37
0200
0300
2000
3000
,  // measure 38
0200
0300
0020
0030
,  // measure 39
0200
0300
0000
0000
;
