#VERSION:0.83;
#TITLE:Therefore I Am;
#SUBTITLE:;
#ARTIST:Billie Eilish;
#TITLETRANSLIT:;
#SUBTITLETRANSLIT:;
#ARTISTTRANSLIT:;
#GENRE:Pop;
#CREDIT:Interscope;
#MUSIC:Therefore I Am.ogg;
#BANNER:Therefore I Am.png;
#BACKGROUND:BG.png;
#JACKET:Therefore I Am-jacket.png;
#DISCIMAGE:;
#CDIMAGE:;
#SELECTABLE:YES;
#LYRICSPATH:;
#CDTITLE:Popular.png;
#SAMPLESTART:3.829;
#SAMPLELENGTH:15.000;
#OFFSET:0.001;
#BPMS:0.000000=93.995000;
#STOPS:157.000000=0.638000;
#WARPS:;
#DELAYS:;
#SPEEDS:;
#SCROLLS:;
#TICKCOUNTS:;
#TIMESIGNATURES:;
#LABELS:;
#COMBOS:;
#FAKES:;
#BGCHANGES:0.000=Therefore I Am.avi=0.000=0=0=0=StretchNoLoop====,
99999=-nosongbg-=1.000=0=0=0 // don't automatically add -songbackground-
;
#FGCHANGES:;
#ATTACKS:;
#DISPLAYBPM:93.000;
#METERTYPE:DDR X;

//---------------dance-single - Wrland---------------
#NOTEDATA:;
#CHARTNAME:;
#CHARTSTYLE:Pad;
#CREDIT:Wrland;
#STEPSTYPE:dance-single;
#DESCRIPTION:Wrland;
#DIFFICULTY:Beginner;
#METER:1;
#METERF:1;
#RADARVALUES:0,0,0,0,0;
#NOTES:
// measure 0
0000
0000
0000
0000
,  // measure 1
0000
0000
0000
0000
,  // measure 2
0100
0000
0000
0000
,  // measure 3
0100
0000
0000
0000
,  // measure 4
0010
0000
0000
0000
,  // measure 5
1000
0000
0000
0000
,  // measure 6
0001
0000
0000
0000
,  // measure 7
0010
0000
0000
0000
,  // measure 8
0001
0000
0000
0000
,  // measure 9
0001
0000
0000
0000
,  // measure 10
0000
0100
0000
0010
,  // measure 11
0001
0000
0000
0000
,  // measure 12
0001
0000
0000
0000
,  // measure 13
0010
0000
0000
0000
,  // measure 14
0000
0100
0000
0000
,  // measure 15
0010
0000
0000
0000
,  // measure 16
0100
0000
0000
0000
,  // measure 17
1000
0000
0000
0000
,  // measure 18
0000
0010
0000
0100
,  // measure 19
0000
1000
0000
0000
,  // measure 20
1000
0000
0000
0000
,  // measure 21
0001
0000
0000
0000
,  // measure 22
1000
0000
0000
0000
,  // measure 23
0001
0000
0000
0000
,  // measure 24
0000
0001
0000
0000
,  // measure 25
0100
0000
0000
0000
,  // measure 26
0100
0000
0000
0000
,  // measure 27
0010
0000
0000
0000
,  // measure 28
0200
0000
0000
0300
,  // measure 29
0000
0000
0000
0000
,  // measure 30
0020
0000
0000
0030
,  // measure 31
0000
0000
0000
0000
,  // measure 32
0200
0000
0000
0300
,  // measure 33
0000
0000
0000
0000
,  // measure 34
2000
0000
0000
3000
,  // measure 35
0000
0000
0000
0000
,  // measure 36
0000
0000
0000
0000
,  // measure 37
0000
0000
0000
0000
,  // measure 38
0000
0000
0000
0000
,  // measure 39
0000
0000
0000
0100
,  // measure 40
0000
0000
0000
1000
,  // measure 41
0000
0000
0000
0001
,  // measure 42
0000
0000
0000
0001
,  // measure 43
0000
0000
0000
1000
,  // measure 44
0000
0000
0000
0001
,  // measure 45
0000
0000
0000
0010
,  // measure 46
0000
0000
0000
0100
;

//---------------dance-single - Wrland---------------
#NOTEDATA:;
#CHARTNAME:;
#CHARTSTYLE:Pad;
#CREDIT:Wrland;
#STEPSTYPE:dance-single;
#DESCRIPTION:Wrland;
#DIFFICULTY:Medium;
#METER:7;
#METERF:7;
#RADARVALUES:0,0,0,0,0;
#NOTES:
// measure 0
0000
0000
0000
0000
,  // measure 1
0000
0000
0000
0000
,  // measure 2
0100
0100
0010
0001
,  // measure 3
0200
0300
0010
0001
,  // measure 4
2000
3000
0100
0010
,  // measure 5
0002
0003
0100
0010
,  // measure 6
0001
0100
0010
0100
,  // measure 7
2000
3000
0100
0010
,  // measure 8
0001
0100
0010
0100
,  // measure 9
0020
0030
0000
0000
,  // measure 10
0000
0100
0010
0100
,  // measure 11
0010
0000
0001
0000
0100
0001
0100
0000
,  // measure 12
0010
0000
0100
0000
1000
0100
1000
0000
,  // measure 13
0100
0000
0010
0001
0100
0000
0010
0000
,  // measure 14
0000
0000
0100
0010
0001
0000
0100
1000
,  // measure 15
0100
0000
0100
0010
0001
0000
0100
0010
,  // measure 16
0100
0000
1000
0100
1000
0000
0100
0010
,  // measure 17
0001
0000
0100
0010
0001
0000
0000
0000
,  // measure 18
0001
1000
0001
1000
,  // measure 19
0001
1000
0001
0000
,  // measure 20
0100
0010
0100
0010
,  // measure 21
0002
0003
0100
0010
,  // measure 22
0001
0100
0000
0100
0010
0000
0001
0000
,  // measure 23
2000
3000
0100
0010
,  // measure 24
0000
0100
0010
0001
,  // measure 25
0200
0300
0010
0001
,  // measure 26
0100
0010
0001
0100
,  // measure 27
0020
0030
0100
0010
,  // measure 28
0001
0100
0000
0010
0000
0010
0000
0010
,  // measure 29
0000
0010
0100
0000
1000
0000
0100
0000
,  // measure 30
1000
0100
0000
0100
0000
0100
0000
0100
,  // measure 31
0000
0010
0001
0000
0100
0000
0010
0000
,  // measure 32
0001
0100
0000
0100
0000
0010
0000
0001
,  // measure 33
0000
1000
0100
1000
0100
0000
0100
0010
,  // measure 34
0001
0100
0010
0100
,  // measure 35
0020
0030
0001
0000
,  // measure 36
0100
0010
0000
0010
0000
0010
0000
0010
,  // measure 37
0100
1000
0000
1000
0000
1000
0000
1000
,  // measure 38
0100
0010
0000
0010
0000
0010
0000
0001
,  // measure 39
0100
0001
0000
0000
0000
0000
0100
0000
,  // measure 40
0010
0001
0100
0020
,  // measure 41
0030
0000
0100
0000
1000
0100
1000
0000
,  // measure 42
0100
0010
0001
0200
,  // measure 43
0300
0000
0100
0000
,  // measure 44
0001
0100
0010
0200
,  // measure 45
0300
1000
0100
1000
,  // measure 46
0100
0010
0001
0000
0100
0000
0010
0000
;

//---------------dance-single - Wrland---------------
#NOTEDATA:;
#CHARTNAME:;
#CHARTSTYLE:Pad;
#CREDIT:Wrland;
#STEPSTYPE:dance-single;
#DESCRIPTION:Wrland;
#DIFFICULTY:Hard;
#METER:9;
#METERF:9;
#RADARVALUES:0,0,0,0,0;
#NOTES:
// measure 0
0000
0000
0000
0000
,  // measure 1
0000
0000
0000
0000
0000
1000
0001
1000
,  // measure 2
0002
0000
0003
1000
0001
1000
0002
0003
,  // measure 3
1000
0000
0100
0000
0010
0001
0100
0010
,  // measure 4
0200
0000
0000
0300
1000
0000
0000
0000
0100
0000
1000
0000
0100
0000
0010
0000
,  // measure 5
0002
0000
0000
0003
0100
0000
0000
0000
0000
0000
0100
0000
0010
0000
0001
0000
,  // measure 6
0200
0000
0000
0300
0010
0000
0000
0000
0001
0000
0100
0000
0020
0000
0000
0030
,  // measure 7
0100
0000
1000
0100
1000
0100
0010
0001
,  // measure 8
0200
0000
0000
0300
0010
0000
0000
0000
0001
0000
0100
0000
0010
0000
0100
0000
,  // measure 9
0020
0000
0000
0030
0001
0000
0000
0000
0000
0000
0000
0000
0000
0000
0000
0000
,  // measure 10
1001
1000
0001
1000
,  // measure 11
0100
1000
0000
0100
1000
0100
0010
0000
,  // measure 12
0001
0100
0000
0100
0010
0001
0100
0000
,  // measure 13
0010
0001
0000
0100
0010
0000
0001
1000
,  // measure 14
1100
0000
0000
0000
0000
0000
0100
0000
0001
0010
0000
0000
0100
0000
1000
0100
0000
0000
0200
0000
0000
0300
0000
0010
,  // measure 15
0000
0000
0000
0000
0000
0000
0001
0000
0100
0001
0000
0100
0000
0000
0000
0010
0000
0000
0100
0000
0010
1000
0000
0200
,  // measure 16
0000
0300
0010
0001
0100
0000
0010
0100
,  // measure 17
0010
0000
0001
0100
0010
0000
0100
0000
,  // measure 18
1000
1001
0001
1001
,  // measure 19
1000
0000
1001
0000
0001
1000
0001
1000
,  // measure 20
0200
0000
0000
0300
0000
0000
0100
0000
0010
0000
0001
0000
0200
0000
0000
0300
,  // measure 21
0010
0000
0001
0100
0010
0100
1000
0100
,  // measure 22
2000
0000
0000
3000
0100
0000
0010
0000
0001
0000
0100
0000
0010
0000
0100
0000
,  // measure 23
0002
0000
0000
0003
0100
0000
0000
0000
0000
0000
0100
0000
0010
0000
0001
0000
,  // measure 24
0200
0000
0000
0300
0010
0000
0001
0000
0100
0000
0010
0000
0200
0000
0000
0300
,  // measure 25
1000
0000
0100
1000
0100
0010
0001
0100
,  // measure 26
0020
0000
0000
0030
0001
0000
0100
0000
0010
0000
0100
0000
1000
0000
0100
0000
,  // measure 27
2000
0000
0000
3000
0100
0000
0000
0000
0100
0000
0000
0000
0010
0000
0000
0000
,  // measure 28
0001
0001
0000
0100
0000
0100
0000
1000
,  // measure 29
0000
0100
1000
0000
0100
0000
0010
0000
,  // measure 30
0001
0100
0000
0010
0000
0010
0000
0100
,  // measure 31
0010
0001
0000
0100
0000
0100
0000
1000
,  // measure 32
0100
1000
0000
0100
0000
0010
0001
0000
,  // measure 33
0100
0000
0010
0100
0010
0001
0100
0000
,  // measure 34
0010
0001
0100
0000
0010
0100
1000
0000
,  // measure 35
0100
0010
0001
0000
0100
0010
0100
0000
,  // measure 36
0100
0010
0000
0100
0000
0100
0000
0010
,  // measure 37
0001
0100
0000
1000
0000
1000
0000
0001
,  // measure 38
1000
0001
0000
0001
0000
0001
0000
1000
,  // measure 39
0001
1000
0000
0001
1000
0001
2000
3000
,  // measure 40
0100
0000
1000
0000
0100
0000
0010
0000
0200
0000
0000
0300
0010
0000
0000
0000
,  // measure 41
0001
0000
0100
0000
0010
0000
0100
0000
1000
0000
0100
0000
2000
0000
0000
3000
,  // measure 42
0100
0000
0010
0001
0100
0010
0200
0300
,  // measure 43
0010
0000
0000
0000
0000
0000
0100
0000
0010
0000
0001
0000
0200
0000
0000
0300
,  // measure 44
0010
0001
0100
0001
2000
3000
0100
0000
,  // measure 45
1000
0000
0100
0000
1000
0000
0100
0000
0010
0000
0001
0000
0200
0000
0000
0300
,  // measure 46
0010
0100
0010
0001
0100
0010
0100
0000
;

//---------------dance-single - Wrland---------------
#NOTEDATA:;
#CHARTNAME:;
#CHARTSTYLE:Pad;
#CREDIT:Wrland;
#STEPSTYPE:dance-single;
#DESCRIPTION:Wrland;
#DIFFICULTY:Challenge;
#METER:11;
#METERF:11;
#RADARVALUES:0,0,0,0,0;
#NOTES:
// measure 0
0000
0000
0000
0000
,  // measure 1
0000
0000
0000
0000
0000
1000
0100
1000
,  // measure 2
0200
0000
0310
0010
0001
0100
0020
0000
,  // measure 3
0031
0000
0100
0001
0010
0001
0100
0010
,  // measure 4
0200
0000
1300
0010
0100
1000
0100
0010
,  // measure 5
0002
0000
0103
0000
0000
0010
0100
0010
,  // measure 6
0002
0000
0103
0001
0010
0001
0200
0000
,  // measure 7
1300
0000
0000
0000
0100
0000
0010
0000
0001
0000
0100
0001
0010
0000
0100
0000
,  // measure 8
2000
0000
3100
1000
0100
0010
0001
0100
,  // measure 9
0020
0000
0000
0000
0130
0000
0000
0000
0100
0000
0010
0100
0010
0000
0000
0000
,  // measure 10
0110
0000
0001
0100
0010
0000
0100
0000
,  // measure 11
1000
0000
0100
1000
0100
0010
0001
0100
,  // measure 12
0010
0100
0000
0010
0100
0010
0001
0100
,  // measure 13
0010
0000
0100
0000
0010
0100
0010
0000
0001
0000
0100
0000
1000
0100
1000
0000
,  // measure 14
0101
0000
0000
0000
0000
0000
0010
0000
0100
0010
0000
0000
0001
0000
0010
0100
0000
0000
2000
0000
0000
0000
0000
3100
,  // measure 15
0000
0000
0000
0000
0000
0000
0010
0000
0100
0010
0000
0002
0000
0003
0010
0100
0000
0000
0010
0000
0001
0100
0000
0010
,  // measure 16
0001
0000
0000
0020
0000
0000
0130
0000
0000
0000
0000
0000
1000
0000
0000
0100
0000
0000
1000
0000
0100
0010
0000
0200
,  // measure 17
0000
0000
0300
0000
0000
0000
0010
0000
0000
0000
0000
0000
0001
0000
0000
0000
0000
0000
0000
0000
0000
0000
0000
0000
0100
0000
0000
0000
0000
0000
0010
0000
0000
0000
0000
0000
0001
0000
0000
0100
0000
0000
0010
0000
0000
0000
0000
0000
,  // measure 18
0100
0010
0001
0100
,  // measure 19
1000
0000
0100
0000
0010
0100
0010
0001
,  // measure 20
0200
0000
0310
0001
0100
0010
0200
0000
,  // measure 21
1300
0000
0100
0010
0001
0100
0010
0100
,  // measure 22
0020
0000
0031
0100
0010
0100
1000
0100
,  // measure 23
1000
0001
0100
0000
0100
0010
0001
0100
,  // measure 24
0020
0000
0130
1000
0100
1000
0200
0000
,  // measure 25
0310
0000
0001
0100
0010
0100
1000
0100
,  // measure 26
2000
0000
3100
0010
0001
0100
0010
0100
,  // measure 27
0020
0000
0000
0000
0031
0100
0001
0000
0100
0000
0001
0000
0010
0000
0100
0000
,  // measure 28
1000
0100
0000
1000
0100
0010
0001
0100
,  // measure 29
0010
0100
0010
0001
0100
0010
0100
1000
,  // measure 30
0100
0010
0000
0001
0100
0010
0100
1000
,  // measure 31
0100
1000
0000
0100
1000
0100
0010
0001
,  // measure 32
0100
0010
0000
0100
0010
0001
0100
0010
,  // measure 33
0100
1000
0100
1000
0100
0010
0001
0100
,  // measure 34
0001
0000
0001
0100
0001
0000
1000
0100
1000
0000
0100
0010
0100
0000
0010
0001
,  // measure 35
0020
0000
0100
1000
0100
1000
0130
0000
,  // measure 36
0100
0100
0000
0100
0100
0100
0100
0100
,  // measure 37
0100
0010
0000
0010
0010
0010
0010
0010
,  // measure 38
0010
0010
0000
0001
0001
0001
0001
0001
,  // measure 39
0001
0001
0000
1000
0001
1000
0002
0000
,  // measure 40
0103
0010
0001
0100
0020
0000
0130
0000
,  // measure 41
0010
0100
1000
0100
0100
0010
0002
0000
,  // measure 42
0103
0010
0001
0100
1000
0100
2000
0000
,  // measure 43
3100
0000
0010
0001
0100
0010
0200
0000
,  // measure 44
1300
0100
1000
0100
0020
0000
0031
0000
,  // measure 45
0100
0010
0001
0100
0010
0100
2000
0000
,  // measure 46
3100
1000
0100
0010
0001
0100
0010
0000
;

//---------------dance-single - Wrland---------------
#NOTEDATA:;
#CHARTNAME:;
#CHARTSTYLE:Pad;
#CREDIT:Wrland;
#STEPSTYPE:dance-single;
#DESCRIPTION:Wrland;
#DIFFICULTY:Easy;
#METER:4;
#METERF:4;
#RADARVALUES:0,0,0,0,0;
#NOTES:
// measure 0
0000
0000
0000
0000
,  // measure 1
0000
0000
0000
0000
,  // measure 2
0100
1000
0100
1000
,  // measure 3
0200
0300
0000
0001
,  // measure 4
0100
0002
0003
0100
,  // measure 5
1000
0200
0300
0010
,  // measure 6
0001
0100
1000
0100
,  // measure 7
0020
0030
0000
0010
,  // measure 8
0001
0200
0300
0100
,  // measure 9
0001
2000
3000
0000
,  // measure 10
0000
0100
0000
0010
,  // measure 11
0001
0000
0100
0010
0100
0000
0010
0000
,  // measure 12
0001
0000
0100
1000
0100
0000
0100
0000
,  // measure 13
0010
0000
0001
0100
0001
0000
0000
0000
,  // measure 14
0000
0100
1000
0100
,  // measure 15
0010
0001
0100
0010
,  // measure 16
0100
0000
0100
0010
0001
0000
0100
0000
,  // measure 17
1000
0000
0100
1000
0100
0000
0100
0000
,  // measure 18
0000
0010
0000
0100
,  // measure 19
0000
1000
0000
0000
,  // measure 20
0001
1000
0001
0100
,  // measure 21
0020
0030
0000
0100
,  // measure 22
1000
0200
0300
0010
,  // measure 23
0001
0020
0030
0100
,  // measure 24
0010
0001
0100
1000
,  // measure 25
0200
0300
0000
0001
,  // measure 26
0100
2000
3000
0100
,  // measure 27
0010
0002
0003
0000
,  // measure 28
0100
0010
0000
0100
0000
0100
0000
1000
,  // measure 29
0000
0000
0100
0010
0000
0001
0100
0000
,  // measure 30
0010
0001
0000
0001
0000
0001
0000
1000
,  // measure 31
0000
0000
0100
0000
1000
0100
1000
0000
,  // measure 32
0100
0010
0000
0001
0000
0001
0000
0100
,  // measure 33
0010
0100
0010
0001
,  // measure 34
1000
0100
0000
0100
0000
0100
0000
0010
,  // measure 35
0100
0010
0000
0001
0000
0100
0000
0000
,  // measure 36
0000
0000
0000
0000
,  // measure 37
0000
0000
0000
0000
,  // measure 38
0000
0000
0000
0000
,  // measure 39
0000
0000
0000
0100
,  // measure 40
0010
0001
0100
2000
,  // measure 41
3000
0000
0010
0001
,  // measure 42
0200
0300
0010
0001
,  // measure 43
0200
0300
0000
1000
,  // measure 44
0001
0100
0010
0002
,  // measure 45
0003
0000
0100
0010
,  // measure 46
0200
0300
0010
0100
;
