#VERSION:0.83;
#TITLE:The Fear;
#SUBTITLE:;
#ARTIST:Lily Allen;
#TITLETRANSLIT:;
#SUBTITLETRANSLIT:;
#ARTISTTRANSLIT:;
#GENRE:Pop;
#CREDIT:Regal;
#MUSIC:The Fear.ogg;
#BANNER:The Fear.png;
#BACKGROUND:BG.png;
#CDTITLE:Popular.png;
#SAMPLESTART:36.258;
#SAMPLELENGTH:15.000;
#SELECTABLE:YES;
#OFFSET:0.011;
#BPMS:0.000=134.000;
#STOPS:;
#DISPLAYBPM:134.000;
#TAGS:DMCA;
#JACKET:The Fear-jacket.png;
#BGCHANGES:0.000=The Fear.avi=0.000=0=0=0=StretchNoLoop====,
99999=-nosongbg-=1.000=0=0=0 // don't automatically add -songbackground-
;
#FGCHANGES:;

//--------------- dance-single - Wrland ----------------
#NOTEDATA:;
#CHARTSTYLE:Pad;
#CREDIT:Wrland;
#STEPSTYPE:dance-single;
#DESCRIPTION:Wrland;
#DIFFICULTY:Beginner;
#METER:2;
#RADARVALUES:0,0,0,0,0;
#NOTES:
0000
0000
0000
0000
,
0000
0000
0000
0000
,
0000
0000
0000
0000
,
0000
0000
0000
0000
,
0000
0000
0000
0000
,
0000
0000
0000
0000
,
0000
0000
0000
0000
,
0000
0000
0000
0000
,
2000
0000
0000
0000
,
3000
0000
0000
0000
,
0002
0000
0000
0000
,
0003
0000
0000
0000
,
0100
0000
0000
0000
,
0100
0000
0000
0000
,
0010
0000
0000
0000
,
0001
0000
0000
0000
,
1000
0000
0000
0000
,
0100
0000
0000
0000
,
1000
0000
0000
0000
,
0000
0000
0000
0000
,
0001
0000
0000
0000
,
1000
0000
0000
0000
,
0100
0000
0000
0000
,
0010
0000
0000
0000
,
0100
0000
0000
0000
,
0010
0000
0000
0000
,
0001
0000
0000
0000
,
1000
0000
0000
0000
,
0100
0000
0000
0000
,
0010
0000
0000
0000
,
0001
0000
0000
0000
,
1000
0000
0000
0000
,
0100
0000
0000
0000
,
0010
0000
0000
0000
,
0100
0000
0000
0000
,
0100
0000
0000
0000
,
1000
0000
0000
0000
,
1000
0000
0000
0000
,
0001
0000
0000
0000
,
0001
0000
0000
0000
,
0100
0000
0000
0000
,
0010
0000
0000
0000
,
0100
0000
0000
0000
,
0010
0000
0000
0000
,
2000
0000
0000
0000
,
3000
0000
0000
0000
,
0002
0000
0000
0000
,
0003
0000
0000
0000
,
2000
0000
0000
0000
,
3000
0000
0000
0000
,
0002
0000
0000
0000
,
0003
0000
0000
0000
,
0100
0000
0000
0000
,
0100
0000
0000
0000
,
0010
0000
0000
0000
,
0100
0000
0000
0000
,
1000
0000
0000
0000
,
0100
0000
0000
0000
,
0010
0000
0000
0000
,
0001
0000
0000
0000
,
0100
0000
0000
0000
,
0010
0000
0000
0000
,
0100
0000
0000
0000
,
0010
0000
0000
0000
,
0100
0000
0000
0000
,
0010
0000
0000
0000
,
0001
0000
0000
0000
,
1000
0000
0000
0000
,
0200
0000
0000
0000
,
0300
0000
0000
0000
,
0200
0000
0000
0000
,
0300
0000
0000
0000
,
0020
0000
0000
0000
,
0030
0000
0000
0000
,
0002
0000
0000
0000
,
0003
0000
0000
0000
;

//--------------- dance-single - Wrland ----------------
#NOTEDATA:;
#CHARTSTYLE:Pad;
#CREDIT:Wrland;
#STEPSTYPE:dance-single;
#DESCRIPTION:Wrland;
#DIFFICULTY:Easy;
#METER:4;
#RADARVALUES:0,0,0,0,0;
#NOTES:
0000
0000
0000
0000
,
0000
0000
0000
0000
,
0000
0000
0000
0000
,
0000
0000
0000
0000
,
0000
0000
0000
0000
,
0000
0000
0000
0000
,
0000
0000
0000
0000
,
0000
0000
0000
0000
,
2000
0000
0000
0000
,
3000
0000
0000
0000
,
0002
0000
0000
0000
,
0003
0000
0000
0000
,
0100
0000
0010
0000
,
0100
0000
0010
0000
,
0010
0000
1000
0000
,
0001
0000
0001
0000
,
1000
0000
0010
0000
,
0100
0000
0001
0000
,
1000
0000
0100
0000
,
0220
0000
0330
0000
,
0001
0000
0001
0000
,
1000
0000
1000
0000
,
0100
0000
0010
0000
,
0010
0000
0001
0000
,
0100
0000
1000
0000
,
0010
0000
0100
0000
,
0001
0000
0010
0000
,
1000
0000
0001
0000
,
0100
0000
1000
0000
,
0010
0000
0100
0000
,
0001
0000
0010
0000
,
1000
0000
1000
0000
,
0100
0000
0001
0000
,
0010
0000
0001
0000
,
0100
0000
0010
0000
,
0100
0000
0010
0000
,
1000
0000
0100
0000
,
1000
0000
0001
0000
,
0001
0000
1000
0000
,
0001
0000
1000
0000
,
0100
0000
0001
0000
,
0010
0000
1000
0000
,
0100
0000
0001
0000
,
0010
0000
0000
0000
,
2000
0000
0000
0000
,
3000
0000
0000
0000
,
0002
0000
0000
0000
,
0003
0000
0000
0000
,
2000
0000
0000
0000
,
3000
0000
0000
0000
,
0002
0000
0000
0000
,
0003
0000
0000
0000
,
0100
0000
0001
0000
,
0100
0000
1000
0000
,
0010
0000
0001
0000
,
0100
0000
0010
0000
,
1000
0000
1000
0000
,
0100
0000
0010
0000
,
0010
0000
0001
0000
,
0001
0000
0010
0000
,
0100
0000
1000
0000
,
0010
0000
0100
0000
,
0100
0000
0001
0000
,
0010
0000
1000
0000
,
0100
0000
0010
0000
,
0010
0000
0001
0000
,
0001
0000
1000
0000
,
1000
0000
0010
0000
,
0200
0000
0000
0000
,
0300
0000
0000
0000
,
0200
0000
0000
0000
,
0300
0000
0000
0000
,
0020
0000
0000
0000
,
0030
0000
0000
0000
,
0002
0000
0000
0000
,
0003
0000
0000
0000
;

//--------------- dance-single - Wrland ----------------
#NOTEDATA:;
#CHARTSTYLE:Pad;
#CREDIT:Wrland;
#STEPSTYPE:dance-single;
#DESCRIPTION:Wrland;
#DIFFICULTY:Medium;
#METER:8;
#RADARVALUES:0,0,0,0,0;
#NOTES:
0000
0000
0000
0000
,
0000
0000
0000
0000
,
0000
0000
0000
0000
,
0000
0000
0000
0000
,
2000
0000
0000
0000
,
3000
0000
0000
0000
,
2000
0000
0000
0000
,
3000
0000
0000
0000
,
0002
0000
0000
0000
,
0003
0000
0000
0000
,
0002
0000
0000
0000
,
0003
0000
0000
0000
,
0100
0100
0010
0001
,
0100
0010
0100
1000
,
0100
1000
0100
0010
,
0001
0000
0100
0000
0010
0000
0001
0100
,
0001
0010
0100
1000
,
0100
1000
0100
0010
,
0001
0100
0010
0001
,
0200
0000
0000
0300
,
0001
0000
0100
0000
0001
0100
0001
0100
,
0000
0010
0000
0100
0000
1000
0100
0000
,
1000
0000
0100
0000
0010
0001
0100
0000
,
0010
0000
0100
0000
0010
0001
0100
0000
,
0010
0000
0100
0000
1000
0100
1000
0100
,
0000
0100
0000
0010
0000
0001
0100
0000
,
0010
0000
0100
0000
0010
0001
0100
0010
,
0100
1000
0100
1000
,
0100
0000
0010
0000
0001
0100
0001
0100
,
0000
0010
0000
0100
0000
0010
0100
0000
,
0010
0000
0001
0000
0100
0001
0100
0000
,
0010
0000
1000
0000
0100
1000
0100
0000
,
1000
0000
0100
0000
0010
0001
0100
0010
,
0000
0100
0010
0001
0100
0010
1000
0000
,
0100
0000
1000
0000
0100
1000
0100
0010
,
0100
0000
0010
0000
0001
0100
0001
0100
,
0020
0000
0030
0000
0100
0010
0100
0000
,
0020
0000
0030
0000
0001
0100
0001
0000
,
2000
0000
3000
0000
0100
1000
0100
0000
,
0020
0000
0030
0000
0100
0010
0001
0000
,
0200
0000
0300
0000
0010
0001
0100
0000
,
0020
0000
0030
0000
1000
0100
1000
0000
,
0200
0000
0300
0000
0100
0010
0001
0000
,
0200
0000
0000
0300
,
0020
0000
0000
0000
,
0030
0000
0000
0000
,
0002
0000
0000
0000
,
0003
0000
0000
0000
,
2000
0000
0000
0000
,
3000
0000
0000
0000
,
0200
0000
0000
0000
,
0300
0000
0000
0000
,
0010
0000
0100
0000
0010
0001
0100
0010
,
0000
0100
0000
0010
0000
0100
1000
0000
,
0100
0000
1000
0000
0100
1000
0100
0000
,
0010
0000
0001
0000
0100
0010
0100
0000
,
1000
0000
0100
0000
1000
0100
1000
0100
,
0000
0100
0000
0010
0000
0001
0100
0010
,
0100
0000
0010
0000
0001
0100
0001
0100
,
0010
0000
0100
0000
1000
0100
1000
0100
,
1000
0000
0100
0000
0010
0001
0100
0010
,
0000
0100
0000
0010
0000
0001
0100
0000
,
0010
0000
1000
0000
0100
1000
0100
0000
,
0100
0000
0010
0000
0001
0100
0001
0000
,
0010
0000
0100
0000
0010
0001
0100
0001
,
0000
0100
0010
0100
0000
0010
0001
0100
,
0010
0000
0100
0000
1000
0100
1000
0100
,
0010
0000
0001
0000
0100
0010
0100
0010
,
0002
0000
0000
0000
,
0003
0000
0000
0000
,
2000
0000
0000
0000
,
3000
0000
0000
0000
,
0002
0000
0000
0000
,
0003
0000
0000
0000
,
2000
0000
0000
0000
,
3000
0000
0000
0000
;

//--------------- dance-single - Wrland ----------------
#NOTEDATA:;
#CHARTSTYLE:Pad;
#CREDIT:Wrland;
#STEPSTYPE:dance-single;
#DESCRIPTION:Wrland;
#DIFFICULTY:Hard;
#METER:11;
#RADARVALUES:0,0,0,0,0;
#NOTES:
0000
0000
0000
0000
,
0000
0000
0000
0000
,
0000
0000
0000
0000
,
0000
0000
0000
0000
,
2000
0000
0000
3000
,
0002
0000
0000
0003
,
2000
0000
0000
3000
,
0002
0000
0000
0003
,
0200
0000
0000
0300
,
0020
0000
0000
0030
,
0200
0000
0000
0300
,
2000
0000
0000
3000
,
0010
0000
0001
0000
0100
0010
0100
0010
,
0000
0100
1000
0000
0100
0010
0001
0100
,
0000
0010
0100
0000
0010
0001
0100
0010
,
0000
0100
1000
0100
1000
0100
0010
0001
,
0100
0000
0010
0000
0100
0010
0001
0100
,
0000
0010
0100
0000
0010
0001
0100
0010
,
0100
0000
1000
0000
0100
1000
0100
1000
,
0200
0000
0000
0300
,
0010
0000
0001
0000
0010
0100
0010
0100
,
0000
0010
0000
0001
0000
0100
1000
0100
,
1000
0000
0100
0000
1000
0100
1000
0100
,
0010
0000
0001
0000
0100
0010
0100
0000
,
0100
0000
0010
0000
0001
0100
0001
0100
,
0000
0010
0000
0100
0000
1000
0100
0010
,
1000
0000
0100
0000
0010
0001
0100
0010
,
0100
0000
0010
0000
0001
0100
0010
0100
,
0010
0000
0001
0000
0100
0010
0100
1000
,
0000
0100
0001
0010
0000
0100
0010
0001
,
0100
0000
0010
0000
0100
1000
0100
1000
,
0000
0100
0010
0001
0100
0010
0100
0000
,
0010
0000
0100
0000
1000
0100
1000
0100
,
0000
0010
0100
0010
0001
0100
0010
0000
,
0100
0000
1000
0000
0100
1000
0100
0000
,
1000
0000
0100
0000
0010
0001
0100
0010
,
0100
0000
0010
0000
0001
0100
0001
0000
,
0010
0000
0100
0000
1000
0100
1000
0000
,
0100
0000
0010
0000
0001
0100
0001
0000
,
0010
0000
0100
0000
0010
0100
0010
0000
,
1000
0000
0100
0000
1000
0100
1000
0000
,
0100
0000
0010
0000
0001
0100
0001
0000
,
0010
0000
0100
0000
0010
0100
0010
0000
,
0200
0000
0000
0300
,
0020
0000
0000
0030
,
0200
0000
0000
0300
,
2000
0000
0000
3000
,
0002
0000
0000
0003
,
2000
0000
0000
3000
,
0200
0000
0000
0300
,
0020
0000
0000
0030
,
0002
0000
0000
0003
,
0100
0000
0010
0000
0100
1000
0100
1000
,
0000
0100
0000
0010
0000
0001
0100
0000
,
1000
0000
0100
0000
0010
0001
0100
0010
,
1000
0000
0100
0000
1000
0100
1000
0000
,
0100
0000
0010
0000
0001
0100
0001
0100
,
0000
0010
0000
0100
0000
1000
0100
0000
,
1000
0000
0100
0000
0010
0001
0100
0010
,
0100
0000
0010
0000
0001
0100
0001
0100
,
0010
0000
0100
0000
1000
0100
1000
0100
,
0000
1000
0000
0100
0000
0010
0001
0000
,
0100
0000
0010
0000
0001
0100
0001
0000
,
0010
0000
0100
0000
1000
0100
1000
0000
,
0100
0000
0010
0100
0000
0001
0000
0100
,
0000
1000
0100
0010
0000
0100
0010
0000
,
0001
0000
0100
0000
1000
0100
1000
0100
,
0010
0000
0001
0000
0100
0010
0100
0010
,
0200
0000
0000
0300
,
0020
0000
0000
0030
,
0002
0000
0000
0003
,
2000
0000
0000
3000
,
0200
0000
0000
0300
,
0020
0000
0000
0030
,
0200
0000
0000
0300
,
0020
0000
0000
0030
;
