#TITLE:Starlight Fantasia;
#SUBTITLE:;
#ARTIST:TAG;
#MUSIC:Starlight Fantasia.ogg;
#BANNER:Starlight Fantasia.png;
#BACKGROUND:Starlight Fantasia-bg.png;
#LYRICSPATH:;
#CDTITLE:DDR.png;
#SAMPLESTART:38.921;
#SAMPLELENGTH:15.000;
#OFFSET:0.001;
#BPMS:0.000000=147.988000;
#STOPS:;
#TIMESIGNATURES:;
#BGCHANGES:;
#FGCHANGES:;
#ATTACKS:;
#SPEEDS:;
#SCROLLS:;
#DISPLAYBPM:147.000;

//---------------dance-single - Wrland---------------
#NOTES:
     dance-single:
     Wrland:
     Beginner:
     5:
     0,0,0,0,0:
// measure 0
0000
0000
0000
0000
,  // measure 1
0000
0000
0000
0000
,  // measure 2
0000
0000
0000
0000
,  // measure 3
0000
0000
0000
0000
,  // measure 4
1000
0001
1000
0001
,  // measure 5
0100
0010
0100
0010
,  // measure 6
0001
0100
0001
0100
,  // measure 7
0002
0000
0000
0000
0000
0000
0000
0003
,  // measure 8
1000
0000
0100
0000
1000
0100
1000
0000
,  // measure 9
0100
0000
0010
0000
0001
0100
0001
0000
,  // measure 10
0100
0000
0010
0000
0100
0010
0100
0000
,  // measure 11
0010
0000
0001
0000
0100
0001
0100
0000
,  // measure 12
0010
0000
0100
0000
1000
0100
1000
0000
,  // measure 13
0100
0000
0010
0000
0001
0100
0001
0000
,  // measure 14
0100
0000
0010
0000
0001
0100
0001
0000
,  // measure 15
0100
0000
0010
0000
0100
0010
0100
0000
,  // measure 16
0010
0000
0001
0000
0100
0001
0100
0000
,  // measure 17
0010
0000
0100
0000
1000
0100
1000
0000
,  // measure 18
0100
0000
0010
0000
0001
0100
0001
0000
,  // measure 19
0100
0000
0010
0000
0100
1000
0100
0000
,  // measure 20
1000
0000
0100
0000
0010
0100
0010
0000
,  // measure 21
0001
0000
0100
0000
0010
0100
0010
0000
,  // measure 22
0001
0000
0100
0000
0010
0100
0010
0000
,  // measure 23
2000
0000
0000
0000
0000
0000
0000
3000
,  // measure 24
0002
0000
0000
0000
0000
0000
0003
2000
,  // measure 25
0000
0000
0000
0000
0000
0000
3000
0200
,  // measure 26
0000
0000
0000
0000
0000
0000
0300
0020
,  // measure 27
0000
0030
0001
0100
,  // measure 28
0020
0000
0000
0000
0000
0000
0030
0200
,  // measure 29
0000
0000
0000
0000
0000
0000
0300
2000
,  // measure 30
0000
0000
0000
0000
0000
0000
3000
0100
,  // measure 31
0000
0010
0001
0000
0100
0000
0010
0000
,  // measure 32
0100
0000
0010
0001
,  // measure 33
0100
0000
1000
0100
,  // measure 34
1000
0000
0100
0010
,  // measure 35
0001
0000
0100
0010
,  // measure 36
0100
0000
0010
0001
,  // measure 37
0100
0000
1000
0100
,  // measure 38
1000
0000
0001
0000
,  // measure 39
1000
0000
0001
0000
,  // measure 40
1000
0000
0000
0001
0000
0000
1000
0000
0000
0000
0000
0000
0000
0000
0000
0000
,  // measure 41
0100
0000
0000
0010
0000
0000
0001
0000
0000
0000
0000
0000
0000
0000
0000
0000
,  // measure 42
0100
0000
0000
0010
0000
0000
0001
0000
0000
0000
0000
0000
0000
0000
0000
0000
,  // measure 43
0100
0000
0000
0010
0000
0000
0100
0000
0000
0000
0000
0000
0000
0000
0000
0000
,  // measure 44
1000
0000
0100
0000
1000
0000
0100
0010
,  // measure 45
0001
0100
0010
0001
,  // measure 46
0100
0000
0010
0000
0001
0100
0001
0000
,  // measure 47
0100
0010
0100
1000
,  // measure 48
0000
0100
1000
0000
0100
0000
0010
0000
,  // measure 49
0000
0001
0100
0000
0010
0000
0100
0000
,  // measure 50
1000
0100
1000
0000
0100
0010
0100
0000
,  // measure 51
0010
0000
0100
0000
0010
0001
0100
0000
,  // measure 52
0010
0000
0001
0000
0100
0000
0010
0100
,  // measure 53
0000
0010
0100
0000
0010
0000
0001
0000
,  // measure 54
0100
0000
1000
0000
0100
0000
1000
0100
,  // measure 55
0000
1000
0100
0000
0010
0000
0001
0000
,  // measure 56
0100
0000
0010
0000
0001
0100
0001
0000
,  // measure 57
0100
0000
1000
0000
0100
1000
0100
0000
,  // measure 58
1000
0100
0010
0001
,  // measure 59
0100
0010
0001
0100
,  // measure 60
0020
0000
0000
0000
0000
0000
0000
0030
,  // measure 61
0200
0000
0000
0000
0000
0000
0000
0000
0000
0000
0000
0000
0000
0000
0000
0300
,  // measure 62
0020
0000
0000
0000
0000
0000
0000
0000
0000
0000
0000
0000
0000
0000
0000
0030
,  // measure 63
0200
0000
0000
0000
0000
0000
0000
0000
0000
0000
0000
0000
0000
0000
0000
0300
,  // measure 64
0010
0000
0001
0000
0100
0000
0010
0100
,  // measure 65
0010
0000
0100
0000
1000
0000
0100
1000
,  // measure 66
0100
0000
0100
0000
0010
0001
0100
0000
,  // measure 67
0010
0000
0100
0000
0001
0100
0001
0000
,  // measure 68
0002
0000
0000
0000
,  // measure 69
1003
0000
0000
0000
;

//---------------dance-single - Wrland---------------
#NOTES:
     dance-single:
     Wrland:
     Easy:
     7:
     0,0,0,0,0:
// measure 0
0000
0000
0000
0000
,  // measure 1
0000
0000
0000
0000
,  // measure 2
0000
0000
0000
0000
,  // measure 3
0000
0000
0000
0000
,  // measure 4
0100
0000
0100
0000
0010
0001
0100
0000
,  // measure 5
0010
0000
0100
0000
1000
0100
1000
0000
,  // measure 6
0100
0000
0010
0000
0001
0100
0001
0100
,  // measure 7
0001
0000
0000
0100
0000
0000
0001
0000
0000
0100
0000
0000
0001
0000
0100
0000
,  // measure 8
0010
0000
0100
0000
1000
0000
0100
1000
,  // measure 9
0100
0000
0100
0000
0010
0100
0010
0001
,  // measure 10
0100
0000
0010
0000
0100
0000
0001
0100
,  // measure 11
0001
0000
0100
0000
0010
0100
0010
0001
,  // measure 12
0100
0000
0010
0000
0100
1000
0100
1000
,  // measure 13
0100
0000
0010
0000
0001
0100
0010
0100
,  // measure 14
0010
0000
0001
0000
0100
0010
0100
1000
,  // measure 15
0100
0000
0000
0010
0000
0000
0100
0000
0000
0010
0000
0000
0001
0000
0100
0000
,  // measure 16
0010
0000
0100
0000
0010
0001
0100
0010
,  // measure 17
0100
0000
1000
0000
0100
0000
1000
0100
,  // measure 18
1000
0000
0100
0000
0010
0001
0100
0010
,  // measure 19
0100
0000
0010
0000
0001
0000
0100
0001
,  // measure 20
0100
0000
0010
0000
0100
1000
0100
0010
,  // measure 21
0100
0000
0010
0000
0001
0100
0001
0100
,  // measure 22
0010
0000
0100
0000
0010
0001
0100
0010
,  // measure 23
0100
0000
0000
0100
0000
0000
0100
0000
0000
0100
0000
0000
0100
0000
0010
0000
,  // measure 24
0200
0000
0001
0000
0001
0000
0300
0020
,  // measure 25
0000
1000
1000
0000
0000
0000
0030
0002
,  // measure 26
0003
0100
0001
0100
0001
0200
0300
0020
,  // measure 27
0030
0100
2000
3000
0200
0300
2000
3000
,  // measure 28
0200
0000
0001
0000
0010
0000
0300
0020
,  // measure 29
0000
1000
0100
1000
0100
0000
0030
0002
,  // measure 30
0000
0000
0100
0000
1000
0000
0000
0000
0100
0000
0000
0100
0003
0000
2000
0000
,  // measure 31
3000
0100
1000
0100
1000
0100
0020
0030
,  // measure 32
0001
0100
0001
0100
0010
0100
1000
0100
,  // measure 33
0010
0001
0100
0010
0100
0010
0100
0000
,  // measure 34
0010
0100
0010
0001
0100
0010
0100
0010
,  // measure 35
0100
1000
0100
0010
0001
0100
0010
0000
,  // measure 36
0100
0010
0001
0100
0010
0100
1000
0100
,  // measure 37
0010
0001
0100
0010
0100
1000
0100
0000
,  // measure 38
0010
0000
0000
0100
0000
0000
0010
0000
0001
0000
0000
0100
0000
0000
0010
0000
,  // measure 39
0100
0000
0000
1000
0000
0000
0100
0000
1000
0000
0000
0100
0000
0000
0010
0000
,  // measure 40
0001
0000
0000
0100
0000
0000
0010
0000
0100
0000
0000
1000
0000
0000
0100
0000
,  // measure 41
0010
0000
0000
0001
0000
0000
0100
0000
0010
0000
0000
0100
0000
0000
1000
0000
,  // measure 42
0100
0000
0000
1000
0000
0000
0100
0000
1000
0000
0000
0100
0000
0000
0010
0000
,  // measure 43
0001
0000
0000
0100
0000
0000
0010
0000
0001
0000
0000
0100
0000
0000
0010
0000
,  // measure 44
0100
0000
0100
0000
1000
0100
1000
0100
,  // measure 45
0010
0000
0100
0010
0001
0000
0100
0010
,  // measure 46
0100
0000
1000
0000
0100
1000
0100
1000
,  // measure 47
0100
0000
0010
0001
0100
0000
0010
0100
,  // measure 48
0000
0000
0001
0000
0100
0000
0000
0000
0001
0000
0000
0100
0000
0010
0000
0100
,  // measure 49
0000
0000
0010
0000
0100
0000
0000
0000
1000
0000
0000
0100
0000
1000
0000
0100
,  // measure 50
0010
0000
0000
0001
0000
0000
0100
0000
0010
0000
0000
0100
0000
0000
1000
0000
,  // measure 51
0100
0000
0000
1000
0000
0000
0100
0000
0010
0000
0000
0000
0001
0000
0000
0000
,  // measure 52
0100
0000
0010
0100
0010
0001
0100
0010
,  // measure 53
0000
0000
0100
0000
0010
0000
0000
1000
0000
0000
0001
0000
0100
0000
0010
0000
,  // measure 54
0100
0000
0010
0001
0010
0001
0100
0010
,  // measure 55
0000
0000
0100
0000
0010
0000
0000
0001
0000
0100
1000
0000
0100
0000
0010
0000
,  // measure 56
0100
0000
0010
0000
0100
0000
0000
0000
0010
0000
0000
0001
0000
0100
0000
0010
,  // measure 57
0000
0000
0100
0000
1000
0000
0000
0000
0100
0000
0000
0010
0000
0100
0000
0010
,  // measure 58
0001
0000
0100
0010
0100
0000
1000
0100
,  // measure 59
1000
0000
0100
0010
0001
0000
0100
0000
,  // measure 60
0010
0000
0000
0100
0000
0000
0010
0000
0100
0000
0000
0000
0000
0000
0000
0000
,  // measure 61
0001
0000
0000
0100
0000
0000
0001
0000
0100
0000
0000
0000
0000
0000
0000
0000
,  // measure 62
0100
0000
0000
0100
0000
0000
1000
0000
0100
0000
0000
0000
0000
0000
0000
0000
,  // measure 63
0100
0000
0000
0010
0000
0000
0001
0000
0100
0000
0000
0000
0000
0000
0000
0000
,  // measure 64
0100
0000
0000
0010
0000
0000
0001
0000
0100
0000
0010
0000
0100
0000
1000
0000
,  // measure 65
0100
0000
0000
0100
0000
0000
0010
0000
0100
0000
0000
0010
0000
0000
0001
0000
,  // measure 66
0100
0000
0000
0010
0000
0000
0100
0000
1000
0000
0000
0100
0000
0000
0010
0000
,  // measure 67
0001
0000
0000
0100
0000
0000
0010
0000
0100
0000
0000
0010
0000
0000
0001
0000
,  // measure 68
2000
0000
0000
0000
,  // measure 69
3001
0000
0000
0000
;

//---------------dance-single - Wrland---------------
#NOTES:
     dance-single:
     Wrland:
     Medium:
     11:
     0,0,0,0,0:
// measure 0
0000
0000
0000
0000
,  // measure 1
0000
0000
0000
0000
,  // measure 2
0000
0000
0000
0000
,  // measure 3
0000
0000
0000
0000
,  // measure 4
1000
0000
0001
0000
1000
0000
0000
0000
0010
0000
0000
0100
0000
0000
0010
0000
,  // measure 5
0001
0000
0100
0000
0010
0000
0000
0000
0100
0000
0000
1000
0000
0000
0100
0000
,  // measure 6
1000
0000
0100
0000
0010
0000
0000
0000
0001
0000
0000
0100
0000
0000
0010
0000
,  // measure 7
0100
0000
0000
0110
0000
0000
0010
0000
0000
0110
0000
0000
0001
0000
0100
0000
,  // measure 8
0010
0000
0000
0100
0000
0000
1000
0000
0000
0100
0000
0000
1000
0000
0100
0000
,  // measure 9
1000
0000
0000
0100
0000
0000
0010
0000
0000
0001
0000
0000
0100
0000
0001
0000
,  // measure 10
0100
0000
0000
0010
0000
0000
0100
0000
0000
0010
0000
0000
0100
0000
1000
0000
,  // measure 11
0100
0000
0000
1000
0000
0000
0100
0000
0000
0010
0000
0000
0001
0000
0100
0000
,  // measure 12
0001
0000
0000
0100
0000
0000
0010
0000
0000
0100
0000
0000
1000
0000
0100
0000
,  // measure 13
1000
0000
0000
0100
0000
0000
0010
0000
0000
0001
0000
0000
0100
0000
0010
0000
,  // measure 14
0100
0000
0000
0010
0000
0000
0001
0000
0000
0100
0000
0000
0010
0000
0100
0000
,  // measure 15
1000
0000
0000
0100
0000
0000
0010
0000
0000
0001
0000
0000
0100
0000
0010
0000
,  // measure 16
0100
0000
0000
0010
0000
0000
0001
0000
0000
0100
0000
0000
0001
0000
0100
0000
,  // measure 17
0001
0000
0000
0100
0000
0000
0010
0000
0000
0100
0000
0000
1000
0000
0100
0000
,  // measure 18
1000
0000
0000
0100
0000
0000
0010
0000
0000
0001
0000
0000
0100
0000
0010
0000
,  // measure 19
0100
0000
0000
1000
0000
0000
0100
0000
0000
1000
0000
0000
0100
0000
1000
0000
,  // measure 20
0100
0000
0000
0010
0000
0000
0001
0000
0000
0100
0000
0000
0010
0000
0100
0000
,  // measure 21
0010
0000
0000
0001
0000
0000
0100
0000
0000
0010
0000
0000
0001
0000
0100
0000
,  // measure 22
0001
0000
0000
0100
0000
0000
0010
0000
0000
0100
0000
0000
0010
0000
0010
0000
,  // measure 23
0001
0000
0000
0101
0000
0000
0010
0000
0000
0110
0000
0000
1000
0000
0100
0000
,  // measure 24
2000
0000
0001
0000
0010
0001
3000
0020
,  // measure 25
0000
0100
1000
0000
0100
0000
0030
0002
,  // measure 26
0000
0003
0100
0000
0010
0000
0100
0000
0010
0000
0200
0000
0300
0000
2000
0000
,  // measure 27
3000
0100
2000
3000
0010
0010
0100
0100
,  // measure 28
0002
0000
0010
0000
1000
0100
0103
0020
,  // measure 29
0000
0100
1000
0000
0100
0000
0030
2000
,  // measure 30
0000
0100
0010
0000
0001
0010
0100
3020
,  // measure 31
0030
0000
0001
0000
0100
0000
0010
0000
0100
0000
1000
0010
0100
0000
0010
0000
,  // measure 32
0010
0000
0100
0000
0010
0000
0100
0000
0010
0000
0001
0010
0100
0000
0010
0000
,  // measure 33
0100
0000
1000
0000
0100
0000
1000
0000
0100
0000
0010
1000
0001
0000
0100
0010
,  // measure 34
0010
0000
0100
0000
0010
0000
0001
0000
0100
0000
0010
0001
0100
0000
1000
0000
,  // measure 35
0100
0000
0010
0000
0100
0000
1000
0000
0100
0000
0010
0010
0001
0000
0100
0000
,  // measure 36
0010
0000
0100
0000
0010
0000
0001
0000
0100
0000
0010
1000
0100
0000
1000
0000
,  // measure 37
0100
0000
0010
0000
0001
0000
0100
0000
0010
0000
0100
0010
0100
0000
0010
0000
,  // measure 38
0002
0000
0000
0010
0000
0000
0100
0000
2003
0000
0000
0100
0000
0000
0010
0000
,  // measure 39
3002
0000
0000
0010
0000
0000
0100
0000
2003
0000
0000
0010
0000
0000
0100
0000
,  // measure 40
3100
0000
0000
0100
0000
0000
0010
0000
0000
0001
0000
0000
0100
0000
0010
0000
,  // measure 41
0100
0000
0000
0010
0000
0000
0100
0000
0000
1000
0000
0000
0100
0000
0010
0000
,  // measure 42
0001
0000
0000
0100
0000
0000
0010
0000
0000
0001
0000
0000
0100
0000
0010
0000
,  // measure 43
0100
0000
0000
0010
0000
0000
0100
0000
0000
0010
0000
0000
0001
0000
0100
0000
,  // measure 44
0010
0000
0100
0000
0001
0000
0010
0000
0100
1000
0001
0000
0100
0000
0010
0000
,  // measure 45
0100
0000
0000
0010
0000
0000
0100
0000
0000
0010
0000
0000
0001
0000
0100
0000
,  // measure 46
0010
0000
0001
0000
0100
0000
1000
0000
0001
0100
0010
0000
1000
0000
0100
0000
,  // measure 47
0010
0000
0000
0001
0000
0000
0100
0000
0000
0010
0000
0000
0100
0000
0010
0000
,  // measure 48
0000
0000
0001
0010
0100
0010
0001
0000
0100
0000
0010
0001
0000
0100
0000
0010
,  // measure 49
0000
0000
0100
1000
0100
0010
0001
0000
0100
0000
0010
0100
0000
1000
0000
0100
,  // measure 50
0010
0000
0000
0001
0000
0000
0100
0000
0010
0000
0000
0100
0000
0000
1000
0000
,  // measure 51
0100
0000
0000
0010
0000
0000
0100
0000
0010
0000
0000
0001
0000
0000
0100
0000
,  // measure 52
0010
0000
0100
0000
0010
0000
0001
0000
0100
0000
0010
0000
0100
0000
0010
0001
,  // measure 53
0000
0000
0100
0000
0010
0000
0000
0100
0000
0000
0001
0000
0100
0000
0001
0000
,  // measure 54
0100
0000
0000
0010
0000
0000
0100
0000
1000
0000
0100
0000
1000
0000
0100
0010
,  // measure 55
0000
0000
0100
0000
0010
0000
0000
0100
0000
0000
0001
0000
0100
0000
0001
0000
,  // measure 56
0100
0000
1000
0000
0100
0000
1000
0000
0100
0001
0010
0000
1000
0001
0000
0100
,  // measure 57
0000
0000
0010
0000
0100
0000
0010
0000
0001
0010
0000
0100
0000
0010
0000
0100
,  // measure 58
0010
0001
0100
0010
0001
1000
0100
0010
,  // measure 59
0100
0010
0100
0000
1000
0000
0100
0000
1000
0100
0010
0000
0100
0000
0100
0000
,  // measure 60
0010
0000
0000
0001
0000
0000
0100
0000
0000
0010
0000
0000
0100
0000
1000
0000
,  // measure 61
0100
0000
0000
0010
0000
0000
0001
0000
0100
0000
0000
0010
0000
0000
0100
0000
,  // measure 62
1000
0000
0000
0100
0000
0000
0010
0000
0000
0001
0000
0000
0100
0000
0010
0000
,  // measure 63
0100
0000
0000
1000
0000
0000
0100
0000
1000
0000
0000
0100
0000
0000
0010
0000
,  // measure 64
0001
0000
0100
0000
0010
0000
0100
0000
0010
0100
0001
0000
0100
0000
0010
0000
,  // measure 65
0100
0000
1000
0000
0100
0000
0010
0000
0001
0010
0100
0000
0010
0000
0100
0000
,  // measure 66
1000
0000
0000
0100
0000
0000
0010
0000
0000
0001
0000
0000
0100
0000
0010
0000
,  // measure 67
0100
0000
0000
1000
0000
0000
0100
0000
0000
0010
0000
0000
0001
0000
0100
0000
,  // measure 68
0001
0000
0000
0100
0000
0000
0010
0000
0000
0100
0000
0000
0010
0000
0100
0000
,  // measure 69
0110
0000
0000
0000
;

//---------------dance-single - Wrland---------------
#NOTES:
     dance-single:
     Wrland:
     Hard:
     13:
     0,0,0,0,0:
// measure 0
0000
0000
0000
0000
,  // measure 1
0000
0000
0000
0000
,  // measure 2
0000
0000
0000
0000
,  // measure 3
0000
0000
0000
0000
,  // measure 4
1000
0000
0001
0000
1000
0000
0100
0000
2000
0000
3000
0200
0000
0300
0010
0000
,  // measure 5
0001
0000
0100
0000
0010
0000
0100
0000
0020
0000
0030
0002
0000
0003
0100
0000
,  // measure 6
0010
0000
0100
0000
1000
0000
0100
0000
0010
0100
0001
0010
0100
0000
0010
0000
,  // measure 7
0100
0100
0000
0010
0010
0000
0100
0100
0000
0010
0010
0000
0001
0010
0100
1000
,  // measure 8
0010
0001
0000
0100
0010
0000
1000
0100
0000
0100
0010
0000
1000
0000
0100
0000
,  // measure 9
0010
0100
0000
0001
0010
0000
0100
1000
0000
0010
0001
0000
0100
0000
0010
0000
,  // measure 10
0001
0010
0000
1000
0100
0000
0010
0001
0000
0100
0010
0000
1000
0000
0100
0000
,  // measure 11
1000
0100
0000
0100
0010
0000
0010
0001
0000
0001
0010
0000
0100
0000
0010
0000
,  // measure 12
0100
1000
0000
0010
0100
0000
0001
0010
0000
0100
0001
0000
0010
0000
0100
0000
,  // measure 13
1000
1000
0000
0100
0010
0000
0010
0001
0000
0001
0010
0000
0100
0000
0010
0000
,  // measure 14
0100
0001
0000
1000
0100
0000
0100
1000
0000
0010
0100
0000
0001
0000
0100
0000
,  // measure 15
0010
0010
0000
0100
0100
0000
1000
1000
0000
0100
0010
0000
0010
0000
0001
0000
,  // measure 16
0100
1000
0100
0010
0001
0000
0100
0000
0010
1000
0100
0010
0100
0000
0010
0000
,  // measure 17
0100
0001
0100
1000
0100
0000
0100
0000
1000
0010
0100
0010
0001
0000
0100
0000
,  // measure 18
0010
0001
0010
0100
0010
0000
1000
0000
0010
0100
0001
1000
0010
0000
0001
0000
,  // measure 19
0100
0010
0001
0010
0001
0000
0100
0000
0010
1000
0100
0010
0100
0000
0010
0000
,  // measure 20
0001
0010
0000
0100
1000
0000
0010
0001
0000
0100
1000
0000
0010
0000
0001
0000
,  // measure 21
0100
0010
0000
0010
0001
0000
0100
0010
0000
1000
0100
0000
0100
0000
1000
0000
,  // measure 22
0100
0001
1000
0010
0100
0000
0001
0000
0010
0100
0001
1000
0010
0000
0100
0000
,  // measure 23
0110
0000
0000
0110
0000
0000
0110
0000
0000
0110
0000
0000
0110
0000
0110
0000
,  // measure 24
0100
0000
0010
0000
0100
0000
0010
0000
0100
0010
0100
0010
0001
0000
0010
0000
,  // measure 25
0100
0000
0010
0000
0100
0000
1000
0000
0100
0010
0100
0000
0010
0000
0002
0000
,  // measure 26
1003
0000
0200
0000
0310
0000
0200
0000
1300
0000
0200
0000
0000
0300
0020
0000
,  // measure 27
0031
0000
0200
0000
0310
0000
0000
0000
0001
0100
0010
0000
0100
0000
1000
0000
,  // measure 28
0010
0000
0100
0000
0001
0000
0100
0000
0001
0100
0010
0000
0001
0000
0100
0000
,  // measure 29
0010
0000
0100
0000
1000
0000
0100
0000
1000
0100
0010
0000
0001
0000
1000
0000
,  // measure 30
0100
0000
0010
0000
0100
0000
0010
0000
0001
0100
0001
0000
0010
0000
0200
0000
,  // measure 31
0300
0020
0130
0020
0031
0200
0310
0000
,  // measure 32
0010
0000
0001
0000
0100
0000
0010
0000
0100
0001
0010
0000
0100
0000
0010
0000
,  // measure 33
0100
0000
1000
0000
0100
0000
0010
0000
0001
0010
0100
0000
0010
0000
0100
0000
,  // measure 34
1000
0000
0100
0000
1000
0000
0100
0000
0010
0100
0001
0000
0100
0000
0010
0000
,  // measure 35
0001
0000
0100
0000
0010
0000
0100
0000
1000
0001
0100
0000
0010
0000
0001
0000
,  // measure 36
0100
0000
0010
0000
0100
0000
1000
0000
0100
0100
0010
0000
0001
0000
0100
0000
,  // measure 37
0010
0000
0100
0000
1000
0000
0100
0000
0010
0100
0001
0000
0100
0000
0010
0000
,  // measure 38
0001
0100
0001
0100
0001
0000
0001
0000
0100
0010
0100
0010
0100
0000
1000
0000
,  // measure 39
0100
0010
0100
0010
0001
0000
0010
0000
0100
1000
0100
1000
0100
0000
0010
0000
,  // measure 40
0001
0010
0001
0000
0100
1000
0100
0000
0100
0010
0100
0000
0010
0001
0010
0000
,  // measure 41
0100
0010
0100
0001
0010
0000
0100
0000
0010
0001
0100
0010
0001
0000
0100
0000
,  // measure 42
1000
0001
1000
0001
1000
0000
0100
0000
0010
0100
0010
0100
0010
0000
0001
0000
,  // measure 43
1000
1000
0000
0001
0001
0000
1000
1000
0000
0100
0100
0000
0220
0000
0330
0000
,  // measure 44
0010
1000
0100
0010
0100
0000
0100
0000
0010
0100
0001
0010
0100
0000
0010
0000
,  // measure 45
0001
0001
0000
1000
1000
0000
0100
0100
0000
0001
0001
0000
0010
0000
1000
0000
,  // measure 46
0100
0001
0010
0001
0010
0000
0001
0000
0100
1000
0010
0001
0100
0000
0001
0000
,  // measure 47
1000
1000
0000
0100
0100
0000
1000
1000
0000
0100
0100
0000
0010
0000
0100
0000
,  // measure 48
0000
0000
0010
0100
0010
0100
0010
0000
0001
0010
0100
1000
0000
0001
0000
1000
,  // measure 49
0000
0000
1000
0100
1000
0100
0010
0000
0001
0010
0100
0010
0000
0001
0000
0100
,  // measure 50
0001
0000
1000
0010
0100
0100
0010
0000
0001
0000
0100
0001
0001
0010
0100
0000
,  // measure 51
0010
0010
0000
0010
0010
0000
0100
0100
0000
1000
1000
0000
0010
0000
0100
0000
,  // measure 52
0001
0010
0001
0100
0010
0000
0100
0000
0010
0100
0010
0001
0100
0001
0010
0000
,  // measure 53
0000
0000
0101
0000
1000
0010
0000
0101
0000
0000
0010
0001
0100
0000
0010
0000
,  // measure 54
0101
0000
0010
0100
0010
0000
0001
0000
0100
1000
0010
0100
1000
0100
0010
0100
,  // measure 55
0000
0000
1100
0000
0001
0010
0000
0110
0000
0001
0010
0000
0100
0000
0010
0001
,  // measure 56
0110
0000
0010
0100
1000
0100
0010
0000
0100
0010
0100
1000
0000
0100
0000
0010
,  // measure 57
1001
0000
0100
0010
0010
0001
0100
0000
0010
0001
0000
1000
0000
0010
0000
0100
,  // measure 58
0010
0000
0010
0001
0100
0000
0010
0000
0100
0000
1000
0010
0100
0000
0010
0000
,  // measure 59
0001
0001
0000
1000
1000
0000
0100
0100
0000
1000
1000
0000
0100
0000
0010
0000
,  // measure 60
0002
0000
0000
0100
0000
0000
0010
0000
0000
0100
0000
0000
0010
0000
1000
0000
,  // measure 61
0203
0000
0000
0010
0000
0000
0001
0000
0320
0000
0000
1000
0000
0000
0100
0000
,  // measure 62
1032
0000
0000
0100
0000
0000
0010
0000
0000
0100
0000
0000
0010
0000
0100
0000
,  // measure 63
0203
0000
0000
0010
0000
0000
0001
0000
2310
0000
0000
0100
0000
0000
0010
0000
,  // measure 64
3001
0000
0010
0000
0100
0000
0010
0000
0001
0100
0001
0000
0010
0000
0100
0000
,  // measure 65
1000
0000
0100
0000
1000
0000
0100
0000
1000
0100
1000
0000
0100
0000
0010
0000
,  // measure 66
0001
0000
0100
0000
0010
0000
0100
0000
0100
0010
0100
0000
0010
0000
0001
0000
,  // measure 67
0100
0100
0000
0010
0010
0000
0001
0001
0000
0100
0100
0000
0010
0000
0100
0000
,  // measure 68
0010
0000
0000
0100
0000
0000
0010
0000
0000
0001
0000
0000
0100
0000
0010
0000
,  // measure 69
0110
0000
0000
0000
;
