#TITLE:물빛여름;
#SUBTITLE:;
#ARTIST:달담;
#TITLETRANSLIT:SUMMER;
#SUBTITLETRANSLIT:;
#ARTISTTRANSLIT:DALDAM;
#GENRE:K-Rock;
#CREDIT:Bugs!;
#TAGS:DMCA;
#MUSIC:SUMMER.ogg;
#BANNER:SUMMER.png;
#BACKGROUND:BG.png;
#CDTITLE:Korean.png;
#SAMPLESTART:66.707;
#SAMPLELENGTH:15.000;
#SELECTABLE:YES;
#OFFSET:-0.001;
#BPMS:0.000=85.000;
#STOPS:;
#DISPLAYBPM:85.000;
#JACKET:SUMMER-jacket.png;
#METERTYPE:DDR X;
#BGCHANGES:0.000=SUMMER.avi=0.000=0=0=0=StretchNoLoop====,
99999.000=-nosongbg-=1.000=0=0=0=StretchNoLoop====
;
#FGCHANGES:;

//--------------- dance-single - Wrland ----------------
#NOTES:
     dance-single:
     Wrland:
     Beginner:
     2:
     0,0,0,0,0:
0000
0000
0000
0000
,
0000
0000
0000
0000
,
0000
0000
0000
0000
,
0000
0000
0000
0000
,
1000
0000
0000
0000
,
0001
0000
0000
0000
,
1000
0000
0000
0000
,
0100
0000
0000
0000
,
0020
0000
0000
0000
,
0000
0000
0000
0030
,
0000
0000
0000
0000
,
0000
0000
0000
0000
,
2000
0000
0000
0000
,
0000
0000
0000
3000
,
0000
0000
0000
0000
,
0000
0000
0000
0000
,
1001
0110
0000
0000
1100
0110
0000
0000
,
1001
1100
0000
0000
1001
0110
0000
0000
,
1100
0110
0000
0000
0011
1100
0000
0000
,
1100
0110
0000
0000
0010
0000
0000
0000
,
0110
1001
0000
0000
1010
0011
0000
0000
,
0101
1010
0000
0000
0011
1100
0000
0000
,
0200
0000
0300
0000
,
0220
0000
0330
0000
,
0001
0000
1000
0000
,
1000
0000
0001
0000
,
0100
0000
0010
0000
,
0100
0000
1000
0000
,
0001
0000
0100
0000
,
0010
0000
0100
0000
,
0010
0000
0001
0000
,
1000
0000
0100
0000
,
0010
0000
0000
0000
,
0010
0000
0000
0000
,
1000
0000
0000
0000
,
0010
0000
0000
0000
,
1000
0000
0000
0000
,
0010
0000
0000
0000
,
1000
0000
0000
0000
,
0001
0000
0000
0000
,
2000
0000
0000
0000
,
0000
0000
0000
0000
0000
0000
0000
3000
,
0000
0000
0000
0000
,
0000
0000
0000
0000
,
0002
0000
0000
0000
,
0000
0000
0000
0000
0000
0000
0000
0003
;

//--------------- dance-single - Wrland ----------------
#NOTES:
     dance-single:
     Wrland:
     Easy:
     4:
     0,0,0,0,0:
0000
0000
0000
0000
,
0000
0000
0000
0000
,
0000
0000
0000
0000
,
0000
0000
0000
0000
,
1000
0000
0100
0000
,
0001
0000
0010
0000
,
1000
0000
0001
0000
,
0100
0000
1000
0000
,
0020
0000
0000
0000
,
0000
0000
0000
0030
,
0000
0000
0000
0000
,
0000
0000
0000
0000
,
2000
0000
0000
0000
,
0000
0000
0000
3000
,
0000
0000
0000
0000
,
0000
0000
0000
0000
,
1001
0110
0000
0000
1100
0110
0000
0000
,
1001
1100
0000
0000
1001
0110
0000
0000
,
1100
0110
0000
0000
0011
1100
0000
0000
,
1100
0110
0000
0000
0010
0000
0000
0000
,
0110
1001
0000
0000
1010
0011
0000
0000
,
0101
1010
0000
0000
0011
1100
0000
0000
,
0200
0000
0300
0000
,
0220
0000
0330
0000
,
0001
0000
1000
0000
,
1000
0000
0001
0000
,
0100
0000
0010
0000
,
0100
0000
1000
0000
,
0001
0000
0100
0000
,
0010
0000
0100
0000
,
0010
0000
0001
0000
,
1000
0000
0100
0000
,
0010
0000
0001
0000
,
0010
0000
1000
0000
,
1000
0000
0100
0000
,
0010
0000
0001
0000
,
1000
0000
0100
0000
,
0010
0000
0001
0000
,
1000
0000
1000
0000
,
0001
0000
0100
0000
,
2000
0000
0000
0000
,
0000
0000
0000
0000
0000
0000
0000
3000
,
0000
0000
0000
0000
,
0000
0000
0000
0000
,
0002
0000
0000
0000
,
0000
0000
0000
0000
0000
0000
0000
0003
;

//--------------- dance-single - Wrland ----------------
#NOTES:
     dance-single:
     Wrland:
     Medium:
     9:
     0,0,0,0,0:
0000
0000
0000
0000
,
0000
0000
0000
0000
,
0000
0000
0000
0000
,
0000
0000
0000
0000
,
1000
0000
0001
1000
0001
0000
1000
0000
,
0001
0000
1000
0001
1000
0000
0001
0000
,
0100
0000
0010
0100
0010
0000
0001
0000
,
0100
0000
0000
0000
1000
0000
0100
0000
0220
0000
0000
0000
0000
0000
0000
0330
,
2000
0000
0000
0000
,
3000
0000
0000
0000
,
0002
0000
0000
0000
,
0003
0000
0000
0000
,
0200
0000
0000
0000
,
0300
0000
0000
0000
,
0020
0000
0000
0000
,
0030
0000
0000
0000
,
1001
0110
0000
0000
1100
0110
0000
0000
,
0011
1100
0000
0000
0101
0110
1100
0110
,
1001
1100
0000
0000
1100
0110
0000
0000
,
0001
0000
1000
0001
0000
1000
0000
0100
0010
0000
0001
0000
0100
0000
0010
0000
,
1100
0110
0000
0000
0011
1100
0000
0000
,
0110
1000
0001
1000
0100
0010
0001
0100
,
0010
0000
0000
0000
0100
0000
0010
0000
0001
0000
0100
0010
0000
0100
0000
1000
,
0220
0000
0000
0330
0000
0000
0000
0000
,
1000
0000
0001
1000
0000
0000
0100
0000
1000
0000
0100
1000
0000
0000
0100
0000
,
0010
0001
0100
0001
0000
0100
0010
0001
,
0100
0000
0001
0100
0000
0000
0010
0000
0100
0000
1000
0100
0000
0000
0100
1000
,
0100
0000
0100
0000
0010
0001
0100
0000
0010
0000
0100
0000
0010
0000
0001
0000
,
0100
0000
0001
0100
0000
0000
0010
0000
0100
0000
1000
0100
0000
0000
1000
0000
,
0100
0010
0001
0100
0001
0100
0010
0100
,
1000
0000
0100
1000
0000
0000
0100
0000
0010
0000
0001
0000
0100
0000
0001
0000
,
0100
0000
0000
0000
0001
0000
0100
0001
0100
0000
0010
0000
0100
0000
1000
0000
,
2200
0000
0000
0000
0000
0000
0000
3300
,
0010
0000
0100
0000
0010
0000
0001
0000
0100
0000
0001
0100
0000
0000
0000
0000
,
0010
0000
0100
0000
1000
0000
0100
0000
1000
0000
0100
1000
0000
0000
0000
0000
,
0100
0000
0010
0000
0001
0000
0100
0000
0001
0000
0100
0001
0000
0000
0000
0000
,
0010
0000
0100
1000
0100
0000
0000
0000
1000
0000
0100
0010
0001
0000
0000
0000
,
0100
0000
0001
0100
0001
0000
0000
0000
0100
0000
0010
0100
0010
0000
0000
0000
,
1000
0000
0100
1000
0100
0000
0000
0000
0100
0000
0010
0001
0100
0000
0000
0000
,
0010
0000
0001
0100
0001
0000
0000
0000
0100
0000
0010
0000
0100
0000
0010
0000
,
0002
0000
0000
0000
,
0003
0000
0000
0000
,
2000
0000
0000
0000
,
3000
0000
0000
0000
,
0002
0000
0000
0000
,
0003
0000
0000
0000
,
2000
0000
0000
0000
,
3000
0000
0000
0000
;

//--------------- dance-single - Wrland ----------------
#NOTES:
     dance-single:
     Wrland:
     Hard:
     13:
     0,0,0,0,0:
0000
0000
0000
0000
,
0000
0000
0000
0000
,
1000
0000
0000
0001
0000
0000
1000
0000
0000
0001
0000
1000
0001
0000
0000
0100
0000
0000
0010
0000
0000
0001
0000
0000
,
0100
0000
0000
0010
0000
0000
0100
0000
0000
1000
0000
0100
1000
0000
0000
0100
0000
0000
0010
0000
0000
0000
0000
0000
,
0001
0000
0000
0010
0000
0000
0100
0000
0000
0010
0000
0001
0100
0000
0000
0010
0000
0000
0100
0000
0000
1000
0000
0000
,
0100
0000
0000
1000
0000
0000
0100
0000
0000
0010
0000
0001
0100
0000
0000
0010
0000
0000
0100
0000
0000
0000
0000
0000
,
1000
0000
0000
0001
0000
0000
1000
0000
0000
0001
0000
1000
0001
0000
0000
1000
0000
0000
0100
0000
0000
0000
0000
0000
,
0100
0000
0000
0010
0000
0000
0001
0000
0000
0100
0000
0001
0100
0000
0000
0000
0000
0000
0010
0000
0000
0001
0000
0000
,
0200
0000
0000
0300
,
0020
0000
0000
0030
,
2000
0000
0000
3000
,
0200
0000
0000
0300
,
0020
0000
0000
0030
,
0002
0000
0000
0003
,
2000
0000
0000
3000
,
0200
0000
0000
0300
,
0011
1100
0000
0100
0010
0101
0000
1000
,
0101
0000
1100
0000
0100
0000
0010
0000
0001
0000
1000
0001
1000
0000
0100
0000
,
1001
1100
0000
0100
0010
1001
0000
0101
,
1010
0000
0100
0010
0000
0001
0000
0100
0010
0000
0100
0000
0010
0001
0100
0000
,
0010
0000
0100
0000
0010
0000
0100
1000
0100
0000
1000
0000
0100
0000
0010
0000
,
0001
0000
0100
0000
0001
0000
0100
0001
0100
0000
0010
0000
0100
0000
1000
0000
,
0200
0000
0300
0000
0100
0000
0010
0000
0001
0000
1000
0100
0000
1000
0000
0001
,
2000
0000
0000
0000
0000
0000
3000
0000
0100
0000
0010
0001
0100
0000
0010
0000
,
0100
0000
0010
0001
0000
0000
0100
0000
0010
0000
0100
1000
0000
0000
0100
0000
,
1100
0100
0110
0001
0100
0010
0001
0100
,
0001
0000
0100
0001
0000
0000
0010
0000
0100
0000
1000
0100
0000
0000
1000
0100
,
1000
0000
0100
0000
0010
0001
0100
0000
0010
0000
0001
0000
0100
0000
0010
0000
,
0100
0000
0010
0001
0000
0000
0100
0000
0010
0000
0001
0100
0000
0000
0010
0000
,
0100
0000
1000
0100
1000
0000
0100
0000
0010
0000
0001
0000
0100
0000
0010
0000
,
0001
0000
0100
0010
0100
1000
0100
1000
,
0200
0000
0300
0000
0100
0000
0010
0001
0100
0000
0010
0001
0000
1000
0000
0100
,
0020
0000
0000
0000
0000
0000
0000
0030
,
0100
0000
0010
0000
0001
0000
0000
0000
0100
0000
1000
0100
1000
0000
0000
0000
,
0100
0000
0010
0000
0001
0000
0000
0000
0100
0000
0010
0100
0010
0000
0000
0000
,
0001
0000
0100
0001
0100
0000
0000
0000
0010
0000
0100
1000
0100
0000
0000
0000
,
0100
0000
1000
0000
0100
0000
0010
0000
0001
0000
0100
0001
0100
0000
0000
0000
,
0010
0000
0100
0000
1000
0000
0100
1000
0100
0000
1000
0100
1000
0000
0000
0000
,
0100
0000
0010
0000
0001
0000
0100
0000
0001
0000
0100
0001
0100
0000
0000
0000
,
0010
0000
0100
0000
1000
0000
0100
0000
1000
0000
0100
0010
0001
0000
0100
0000
,
0020
0000
0000
0000
0000
0000
0000
0030
0200
0000
0000
0000
0000
0000
0300
0000
,
0020
0000
0000
0000
0000
0000
0000
0030
,
2000
0000
0000
0000
0000
0000
3000
0000
0002
0000
0000
0000
0000
0003
0000
0000
,
2000
0000
0000
0000
0000
0000
0000
3000
,
0002
0000
0000
0000
0000
0000
0003
0000
2000
0000
0000
0000
0000
3000
0000
0000
,
0200
0000
0000
0000
0000
0000
0000
0300
,
0020
0000
0000
0030
0002
0000
0000
0003
,
2000
0000
0000
0000
0000
0000
0000
0000
0000
0000
0000
0000
0000
0000
0000
3000
;
