#TITLE:ストロボナイツ;
#SUBTITLE:;
#ARTIST:livetune;
#TITLETRANSLIT:STROBE NIGHTS;
#SUBTITLETRANSLIT:;
#ARTISTTRANSLIT:;
#GENRE:VOCALOID;
#CREDIT:Victor;
#MUSIC:STROBE NIGHTS.ogg;
#BANNER:STROBE NIGHTS.png;
#BACKGROUND:STROBE NIGHTS-bg.png;
#CDTITLE:VOCALOID.png;
#SAMPLESTART:78.000;
#SAMPLELENGTH:15.000;
#SELECTABLE:YES;
#OFFSET:0.000;
#BPMS:0.000=125.000;
#STOPS:;
#DISPLAYBPM:125.000;
#TAGS:DMCA;
#JACKET:STROBE NIGHTS-jacket.png;
#BGCHANGES:;
#FGCHANGES:;

//--------------- dance-single - Wrland ----------------
#NOTES:
     dance-single:
     Wrland:
     Beginner:
     3:
     0,0,0,0,0:
0000
0000
0000
0000
,
2000
0000
0000
0000
,
0000
0000
3000
0000
,
0002
0000
0000
0000
,
0000
0000
0003
0000
,
0100
0000
0000
0000
,
0010
0000
0000
0000
,
0002
0000
0000
0000
,
1003
0000
0000
0000
,
0200
0000
0000
0000
,
0000
0000
0000
0300
,
0020
0000
0000
0000
,
0000
0000
0030
0001
,
1000
0000
0000
0000
,
1000
0000
0000
0000
,
0010
0000
0000
0000
,
1001
0000
0000
0000
,
0100
0000
0000
0000
,
0001
0000
0000
0000
,
1000
0000
0000
0000
,
1000
0000
0000
0000
,
0010
0000
0000
0000
,
0100
0000
0000
0000
,
0100
0000
0000
0000
,
0010
0000
0000
0000
,
0100
0000
1000
0000
,
0100
1000
0100
0000
,
0100
0000
0100
0000
,
0010
0001
0100
0000
,
0001
0000
0100
0000
,
0100
0010
0001
0000
,
0100
0000
1000
0000
,
1000
0001
1000
0000
,
0100
0000
0100
0000
,
0010
0001
0100
0000
,
0100
0000
0010
0000
,
0001
0100
0001
0000
,
0100
0000
1000
0000
,
0100
1000
0100
0000
,
0100
0000
0010
0000
,
0200
0000
0000
0310
,
0001
0000
0000
0000
,
1000
0000
0000
0000
,
0010
0000
0000
0000
,
0010
0000
0000
0000
,
0100
0000
0000
0000
,
0001
0000
0000
0000
,
1000
0000
0000
0000
,
1000
0000
0000
0000
,
0010
0000
0000
0000
,
0010
0000
0000
0000
,
0100
0000
0000
0000
,
1000
0000
0000
0000
,
0010
0000
0000
0000
,
0100
0000
0000
0000
,
0001
0000
0000
0000
,
1001
0000
0000
0000
,
0100
0000
0000
0000
,
0010
0000
0000
0000
,
0010
0000
0000
0000
,
0100
0000
0000
0000
,
1000
0000
0000
0000
,
0001
0000
0000
0000
,
0010
0000
0000
0000
,
0100
0000
0000
0000
,
0100
0000
0000
0000
,
0100
0000
0000
0000
,
0100
0000
0000
0000
,
0100
0000
0000
0000
,
0100
0000
0000
0000
,
0001
0000
0000
0000
,
1000
0000
0000
0000
,
0010
0000
0000
0000
,
2002
0000
0000
3003
;

//--------------- dance-single - Wrland ----------------
#NOTES:
     dance-single:
     Wrland:
     Easy:
     6:
     0,0,0,0,0:
0000
0000
0000
0000
,
2000
0000
0000
0000
,
0000
0000
3000
0000
,
0002
0000
0000
0000
,
0000
0000
0003
0000
,
0100
0000
1000
0000
,
0010
0000
0100
0000
,
0002
0000
0000
0000
,
1003
0000
0000
0000
,
0200
0000
0000
0000
,
0000
0000
0000
0300
,
0020
0000
0000
0000
,
0000
0000
0030
0001
,
1000
0000
0100
0000
,
1000
0000
0100
0000
,
0010
0000
0001
0000
,
1001
0000
0000
0000
,
0100
0000
0010
0000
,
0001
0000
0100
0000
,
1000
0000
0100
0000
,
1000
0000
0100
0000
,
0010
0000
0100
0000
,
0100
0000
1000
0000
,
0100
0000
0100
0000
,
0010
0000
0001
0000
,
0100
0000
1000
0000
,
0100
1000
0100
0000
,
0100
0000
0100
0000
,
0010
0001
0100
0000
,
0001
0000
0100
0000
,
0100
0010
0001
0000
,
0100
0000
1000
0000
,
1000
0001
1000
0000
,
0100
0000
0100
0000
,
0010
0001
0100
0000
,
0100
0000
0010
0000
,
0001
0100
0001
0000
,
0100
0000
1000
0000
,
0100
1000
0100
0000
,
0100
0000
0010
0000
,
0200
0000
0000
0310
,
0001
0000
1000
0000
,
0001
0000
0100
0000
,
0010
0000
0100
0000
,
0010
0000
0001
0000
,
0100
0000
0010
0000
,
0001
0000
0100
0000
,
1000
0000
0100
0000
,
1000
0000
0100
0000
,
0010
0000
0100
0000
,
0010
0000
0001
0000
,
0100
0000
0010
0000
,
1000
0000
0100
0000
,
0010
0000
0001
0000
,
0100
0000
0010
0000
,
0001
0000
0100
0000
,
1001
0000
0000
0000
,
0100
0000
1000
0000
,
0010
0000
0100
0000
,
0010
0000
0001
0000
,
0100
0000
0100
0000
,
1000
0000
0100
0000
,
0001
0000
0100
0000
,
0010
0000
0001
0000
,
0100
0000
1000
0000
,
0100
0000
1000
0000
,
0100
0000
0010
0000
,
0100
0000
1000
0000
,
0100
0000
0001
0000
,
0100
0000
0010
0000
,
0001
0000
0100
0000
,
1000
0000
0100
0000
,
0010
0000
0001
0000
,
2002
0000
0000
3003
;

//--------------- dance-single - Wrland ----------------
#NOTES:
     dance-single:
     Wrland:
     Medium:
     9:
     0,0,0,0,0:
0000
0000
0000
0000
,
2000
0000
3000
0100
0020
0000
0000
0000
,
0000
0000
0030
0000
0002
0003
0200
0300
,
0020
0000
0030
0100
0020
0000
0000
0000
,
0000
0030
0001
0100
,
0010
0100
1000
0100
,
1000
0100
0010
0001
,
0200
0000
0000
0000
0300
0010
0100
0020
,
0000
0000
0000
0000
0030
0000
0002
0003
,
0200
0000
0300
0010
0200
0000
0000
0000
,
0300
0000
2000
3000
0200
0300
2000
3000
,
0200
0300
0020
0030
0001
0100
0001
0200
,
0000
0000
0000
0000
0300
0000
0020
0030
,
0200
0000
0300
1000
0200
0300
1000
0100
,
0010
0001
0100
0010
,
0001
0000
1000
0002
0000
0000
0000
0003
,
1001
0000
0000
0000
,
0100
0000
0000
0010
0000
0000
0001
0000
0100
0000
0000
0000
0010
0000
0000
0000
,
0100
0000
0000
1000
0000
0000
0100
0000
1000
0000
0000
0000
0100
0000
0000
0000
,
0100
0000
0000
0010
0000
0000
0001
0000
0100
0000
0000
0000
0010
0000
0000
0000
,
0001
0000
0000
0100
0000
0000
0001
0000
0100
0000
0000
0000
0010
0000
0000
0000
,
0100
0000
0000
1000
0000
0000
0100
0000
1000
0000
0000
0000
0100
0000
0000
0000
,
0100
0000
0000
0010
0000
0000
0001
0000
0100
0000
0000
0000
0010
0000
0000
0000
,
0100
0000
0000
1000
0000
0000
0100
0000
1000
0000
0000
0000
0100
0000
0000
0000
,
0100
0000
0000
0010
0000
0000
0001
0000
0100
0000
0000
0000
0010
0000
0000
0000
,
0100
0000
0010
0000
0001
0100
0000
0010
,
0100
0010
1000
0010
0100
0010
0100
0010
,
0001
0000
0100
0000
0010
0100
1000
0100
,
0000
1000
0100
0020
0000
0030
0000
0000
,
0100
0000
0010
0000
0001
0100
0001
0100
,
0000
0010
0100
0000
1000
0000
0100
1000
,
0000
0100
1000
0000
0100
0010
0000
0001
,
0100
0000
0000
0100
0000
0000
0010
0000
0001
0000
0000
0000
0100
0000
0000
0000
,
0010
0000
0100
0000
0010
0001
0100
0010
,
0000
0100
1000
0100
0000
1000
0100
0010
,
0000
0001
0100
0010
1000
0100
0010
0100
,
0000
0010
0100
0010
0000
0001
0100
0000
,
0010
0000
0100
0000
0001
0100
0001
0100
,
0000
0010
0100
0000
1000
0100
0010
0001
,
0000
0100
0010
0000
0001
0100
0010
1000
,
0100
0000
0000
0010
0000
0000
0100
0000
0010
0000
0001
0100
1001
0000
0000
0000
,
0200
0000
0000
0000
0000
0300
1000
0000
0200
0000
0000
0000
0000
0000
0300
0000
,
0100
0000
0010
0000
0002
0000
0000
0003
0200
0000
0000
0300
0020
0000
0000
0030
,
0200
0000
0000
0000
0000
0300
0010
0000
0002
0000
0000
0000
0000
0000
0000
0003
,
0100
0000
0000
0100
0000
0000
1000
0000
0100
0000
0010
0000
0100
0000
0020
0000
,
0000
0030
0002
0003
2000
3000
0100
2000
,
0000
3000
0200
0300
2000
3000
0200
0300
,
0010
0000
0000
0001
0000
0000
0100
0000
0010
0000
0100
0000
1000
0000
0100
0000
,
0010
0000
0000
0001
0000
0000
0100
0000
0010
0000
0000
0000
0200
0000
0300
0000
,
0020
0000
0030
0001
0200
0000
0000
0300
,
0010
0001
0200
0300
0020
0030
0002
0003
,
0200
0300
0020
0030
0100
1000
0100
2000
,
0000
3000
0200
0300
0020
0030
0001
0100
,
0020
0030
0100
0020
0030
0001
0100
0010
,
0200
0000
0300
0010
0000
0000
0100
0000
0010
0000
0000
0000
0002
0000
0003
0000
,
0200
0000
0300
0010
0000
0000
0100
0000
1000
0000
0100
0000
0010
0000
0001
0000
,
1001
0000
0000
0000
0200
0300
0002
0003
,
0200
0000
0000
0000
0000
0000
0000
0300
,
0010
0000
0000
0001
0000
0000
0100
0000
0020
0000
0000
0000
0030
0000
0100
0000
,
2000
0000
3000
0100
0000
0000
1000
0000
0100
0000
0000
0000
0100
0000
0000
0000
,
0010
0000
0000
0001
0000
0000
0100
0000
0010
0000
0000
0000
0100
0000
0000
0000
,
0010
0000
0000
0001
0000
0000
0100
0000
0001
0000
0000
0000
0100
0000
0000
0000
,
0010
0000
0000
0100
0000
0000
0010
0000
0100
0000
0000
0000
1000
0000
0000
0000
,
0100
0000
0000
1000
0000
0000
0100
0000
0010
0000
0000
0000
0001
0000
0000
0000
,
0100
0000
0000
0010
0000
0000
0001
0000
0100
0000
0000
0000
0010
0000
0000
0000
,
0001
0000
0000
0001
0000
0000
0100
0000
0010
0000
0000
0000
0100
0000
0000
0000
,
1000
0000
0000
1000
0000
0000
0100
0000
1000
0000
0000
0000
0100
0000
0000
0000
,
1000
0000
0000
0100
0000
0000
0010
0000
0001
0000
0000
0000
0100
0000
0000
0000
,
0010
0000
0000
0001
0000
0000
0100
0000
0010
0000
0000
0000
0001
0000
0000
0000
,
0100
0000
0000
1000
0000
0000
0100
0000
1000
0000
0000
0000
0100
0000
0000
0000
,
0010
0000
0000
0001
0000
0000
0100
0000
0010
0000
0000
0000
0100
0000
0000
0000
,
1000
0000
0000
0100
0000
0000
1000
0000
0100
0000
0000
0000
0010
0000
0000
0000
,
0100
0000
0000
0010
0000
0000
0001
0000
0100
0000
0001
0100
0001
0000
0100
0000
,
0020
0000
0000
0030
;

//--------------- dance-single - Wrland ----------------
#NOTES:
     dance-single:
     Wrland:
     Hard:
     12:
     0,0,0,0,0:
0000
0000
0000
0000
,
2000
0000
3000
0001
2000
0000
0100
0000
,
0010
0000
0000
0100
3000
0000
0000
0000
0002
0000
0003
0000
2000
0000
3000
0000
,
0200
0000
0300
1000
0200
0000
0001
0000
,
1000
0000
0000
0001
0300
0000
1000
0000
0010
0000
0100
0000
0010
0000
0002
0000
,
0000
0003
0200
0300
0020
0030
0001
0200
,
0000
0300
0020
0030
0200
0300
2000
3000
,
0200
0000
0000
0010
0000
0000
0001
0000
0310
0000
1000
0000
0100
0000
2000
0000
,
0100
0000
0000
0010
0000
0000
0001
0000
3100
0000
0000
0000
0200
0000
0300
0000
,
0002
0000
0003
0100
0002
0000
1000
0000
,
0100
0000
0103
1000
0020
0000
0030
0000
0200
0000
0300
0000
2000
0000
3000
0000
,
0200
0300
2000
3010
0100
0001
0100
0020
,
0100
0000
0000
1000
0000
0000
0100
0000
1030
0000
0000
0000
0200
0000
0300
0000
,
2000
0000
3000
0100
2000
0000
3000
0010
,
0002
0003
0200
0300
0020
0030
0200
0300
,
2000
3000
0100
2000
0000
0000
0100
3000
,
1001
0000
0000
0000
0200
0000
0300
0000
0010
0100
1000
0000
0001
0000
1000
0100
,
0002
0000
0003
0100
0000
0000
0010
0000
0001
0000
0100
1000
0010
0000
0100
0000
,
2000
0000
3000
0100
0000
0000
1000
0000
0100
0000
0010
0100
0001
0000
0100
0000
,
0020
0000
0030
0100
0000
0000
0010
0000
0001
0000
0100
0010
0010
0000
0100
0000
,
2000
0000
3000
0100
0000
0000
1000
0000
0100
0000
0010
0100
0001
0000
0100
0000
,
0020
0000
0030
0100
0000
0000
0010
0000
0001
0000
0100
1000
0010
0000
0100
0000
,
2000
0000
3000
0100
0000
0000
1000
0000
0100
0000
0010
0100
0001
0000
0100
0000
,
0020
0000
0030
0100
0000
0000
0010
0000
0001
0000
0100
0001
0010
0000
0100
0000
,
2000
0000
3000
0100
0000
0000
1000
0000
0100
0000
0010
1000
0001
0000
0100
0000
,
0020
0000
0030
0000
2000
0000
3000
0000
0010
0000
0002
0000
0000
0003
0100
0000
,
0010
0001
1000
0200
0300
1000
0100
0010
,
0100
0001
0100
0010
0100
1000
0100
2000
,
3000
0100
1000
0200
0300
0001
0200
0300
,
0020
0030
0002
0003
0100
0010
0100
0020
,
0030
0001
0200
0300
1000
0100
1000
0200
,
0300
0100
0020
0030
0001
0200
0300
0010
,
0200
0000
0300
0002
0000
0003
0100
0000
0010
0001
0100
0000
1000
0010
0100
0000
,
2000
3000
0200
0300
0010
0001
0100
0020
,
0030
0100
0010
0002
0003
0100
0010
0200
,
0300
1000
0100
1000
0100
0010
0001
0200
,
0300
0010
0100
0002
0003
0100
0010
0000
,
2000
0010
3100
0000
0002
0100
1003
0200
,
0300
0100
0020
0030
0001
0100
0001
0200
,
0300
0010
0200
0300
0010
0002
0003
0100
,
0020
0000
0000
0001
0000
0000
0130
0000
0010
0000
0100
0010
0200
0000
0000
0300
,
0020
0000
0000
0000
0030
0000
0001
0000
0200
0000
0300
0000
0010
0000
0100
0010
,
0100
0000
0010
0000
2000
0000
0000
3000
0100
0000
1000
0001
0200
0000
0000
0300
,
0002
0000
0000
0100
0003
0000
0020
0000
0230
0000
0300
0000
0100
0000
0010
0100
,
0010
0000
0100
0001
1000
0000
0100
0000
0010
0000
0001
0010
0100
0000
0020
0000
,
0031
0000
0020
0000
0130
0000
2000
0000
3010
0000
0200
0000
0301
0000
0100
0010
,
0002
0000
0000
0003
0020
0000
1030
0000
0200
0000
0310
0000
2000
0000
3100
0000
,
0200
0000
0000
1000
0000
0000
1000
0000
0010
0000
0301
0000
1000
0000
0020
0000
,
0001
0000
0000
0100
0000
0000
1000
0000
1030
0000
0100
0000
0010
0001
0100
0000
,
0200
0000
0300
0010
0200
0300
0010
0001
,
0100
0001
0100
0000
0010
0000
0100
0000
2000
0000
3000
0000
0100
0000
0010
0000
,
0200
0300
0001
0010
0100
0001
0100
0010
,
2000
3000
0200
0300
0020
0030
0001
0100
,
0020
0000
0030
0200
0000
0300
0010
0000
0001
0000
0100
0000
0010
0000
0100
0000
,
0200
0000
0300
2000
0000
3000
0100
0000
1000
0000
0100
0001
0010
0000
0100
0000
,
0002
0000
0003
2000
0000
3000
0010
0000
0100
0010
0001
0000
0100
0000
0010
0000
,
0200
0000
0000
1300
0000
0000
1000
0000
0010
0100
1000
0000
0001
0000
1000
0100
,
0002
0000
0003
0100
0000
0000
0010
0000
0001
0000
0100
1000
0010
0000
0100
0000
,
2000
0000
3000
0100
0000
0000
1000
0000
0100
0000
0010
0100
0001
0000
0100
0000
,
0020
0000
0030
0100
0000
0000
0010
0000
0001
0000
0100
0010
0010
0000
0100
0000
,
2000
0000
3000
0100
0000
0000
1000
0000
0100
0000
0010
0100
0001
0000
0100
0000
,
0020
0000
0030
0100
0000
0000
0010
0000
0001
0000
0100
1000
0010
0000
0100
0000
,
2000
0000
3000
0100
0000
0000
1000
0000
0100
0000
0010
0100
0001
0000
0100
0000
,
0020
0000
0030
0100
0000
0000
0010
0000
0001
0000
0100
0001
0010
0000
0100
0000
,
2000
0000
3000
0100
0000
0000
1000
0000
0100
0000
0010
1000
0001
0000
0100
0000
,
0002
0000
0003
0100
0000
0000
0010
0000
0001
0000
0100
1000
0010
0000
0100
0000
,
2000
0000
3000
0100
0000
0000
1000
0000
0100
0000
0010
0100
0001
0000
0100
0000
,
0020
0000
0030
0100
0000
0000
0010
0000
0001
0000
0100
0010
0010
0000
0100
0000
,
2000
0000
3000
0100
0000
0000
1000
0000
0100
0000
0010
0100
0001
0000
0100
0000
,
0020
0000
0030
0100
0000
0000
0010
0000
0001
0000
0100
1000
0010
0000
0100
0000
,
2000
0000
3000
0100
0000
0000
1000
0000
0100
0000
0010
0100
0001
0000
0100
0000
,
0020
0000
0030
0100
0000
0000
0010
0000
0001
0000
0100
0001
0010
0000
0100
0000
,
2000
0000
3000
0100
0000
0000
1000
0000
0100
0000
0010
1000
0001
0000
0100
0000
,
0100
0000
0000
0100
0000
0000
0010
0000
0000
0001
0000
1000
0100
0000
0010
0000
;
