#VERSION:0.83;
#TITLE:さんぽ;
#SUBTITLE:;
#ARTIST:♪♪♪♪♪;
#TITLETRANSLIT:SANPO;
#SUBTITLETRANSLIT:;
#ARTISTTRANSLIT:;
#GENRE:My Neighbor Totoro;
#CREDIT:Ghibli;
#MUSIC:SANPO.ogg;
#BANNER:SANPO.png;
#BACKGROUND:BG.png;
#CDTITLE:My Neighbor Totoro.png;
#SAMPLESTART:11.837;
#SAMPLELENGTH:15.000;
#SELECTABLE:YES;
#OFFSET:-0.034;
#BPMS:0.000=122.000;
#STOPS:;
#DISPLAYBPM:122.000;
#JACKET:SANPO-jacket;
#TAGS:DMCA;
#BGCHANGES:0.000=SANPO.avi=0.000=0=0=0=StretchNoLoop====,
99999=-nosongbg-=1.000=0=0=0 // don't automatically add -songbackground-
;
#FGCHANGES:;

//--------------- dance-single - Wrland ----------------
#NOTEDATA:;
#CHARTSTYLE:Pad;
#CREDIT:Wrland;
#STEPSTYPE:dance-single;
#DESCRIPTION:Wrland;
#DIFFICULTY:Beginner;
#METER:1;
#RADARVALUES:0,0,0,0,0;
#NOTES:
0000
0000
0000
0000
,
0000
0000
0000
0000
,
0000
0000
0000
0000
,
0000
0000
0000
0000
,
0000
0000
0000
0000
,
0000
0000
0000
0000
,
0100
0000
0000
0000
,
0100
0000
0000
0000
,
0010
0000
0000
0000
,
0001
0000
0000
0000
,
1000
0000
0000
0000
,
1000
0000
0000
0000
,
0001
0000
0000
0000
,
0001
0000
0000
0000
,
0100
0000
0000
0000
,
0100
0000
0000
0000
,
0010
0000
0000
0000
,
0200
0000
0300
0000
,
0010
0000
0000
0000
,
0001
0000
0000
0000
,
1000
0000
0000
0000
,
0100
0000
0000
0000
,
0100
0000
0000
0000
,
1000
0000
0000
0000
,
0010
0000
0000
0000
,
0001
0000
0000
0000
,
0100
0000
0000
0000
,
0010
0000
0000
0000
,
0000
1001
0000
0110
,
2002
0000
3003
0000
,
0100
0000
0000
0000
,
0010
0000
0000
0000
,
0001
0000
0000
0000
,
1000
0000
0000
0000
,
0100
0000
0000
0000
,
0100
0000
0000
0000
,
0010
0000
0000
0000
,
0001
0000
0000
0000
,
1000
0000
0000
0000
,
0100
0000
0000
0000
,
1000
0000
0000
0000
,
0020
0000
0030
0000
,
0100
0000
0000
0000
,
0010
0000
0000
0000
,
0001
0000
0000
0000
,
1000
0000
0000
0000
,
0100
0000
0000
0000
,
0010
0000
0000
0000
,
0001
0000
0000
0000
,
0100
0000
0000
0000
,
1000
0000
0000
0000
,
0001
0000
0000
0000
,
0000
1001
0000
0110
,
2002
0000
3003
0000
,
0100
0000
0000
0000
,
1000
0000
0000
0000
,
0000
0110
0000
1100
,
2002
0000
0000
0000
,
0000
0000
0000
0000
,
3003
0000
0000
0110
;

//--------------- dance-single - Wrland ----------------
#NOTEDATA:;
#CHARTSTYLE:Pad;
#CREDIT:Wrland;
#STEPSTYPE:dance-single;
#DESCRIPTION:Wrland;
#DIFFICULTY:Easy;
#METER:2;
#RADARVALUES:0,0,0,0,0;
#NOTES:
0000
0000
0000
0000
,
0000
0000
0000
0000
,
0000
0000
0000
0000
,
0000
0000
0000
0000
,
0000
0000
0000
0000
,
0000
0000
0000
0000
,
0100
0000
0100
0000
,
0010
0000
0010
0000
,
0001
0000
0001
0000
,
1000
0000
0000
0000
,
1000
0000
0001
0000
,
1000
0000
0001
0000
,
0001
0000
1000
0000
,
0001
0000
1000
0000
,
0100
0000
0010
0000
,
0100
0000
0010
0000
,
0010
0000
0001
0000
,
0200
0000
0300
0000
,
0010
0000
1000
0000
,
0001
0000
0100
0000
,
1000
0000
0010
0000
,
0100
0000
0001
0000
,
0100
0000
0010
0000
,
1000
0000
0100
0000
,
0010
0000
1000
0000
,
0001
0000
0001
0000
,
0100
0000
1000
0000
,
0010
0000
0000
0000
,
0000
1001
0000
0110
,
2002
0000
3003
0000
,
0100
0000
1000
0000
,
0010
0000
0001
0000
,
0001
0000
0100
0000
,
1000
0000
0010
0000
,
0100
0000
0001
0000
,
0100
0000
1000
0000
,
0010
0000
0100
0000
,
0001
0000
0000
0000
,
1000
0000
0010
0000
,
0100
0000
0001
0000
,
1000
0000
0100
0000
,
0020
0000
0030
0000
,
0100
0000
1000
0000
,
0010
0000
0001
0000
,
0001
0000
0010
0000
,
1000
0000
0100
0000
,
0100
0000
0001
0000
,
0010
0000
1000
0000
,
0001
0000
0100
0000
,
0100
0000
0010
0000
,
1000
0000
0001
0000
,
0001
0000
0000
0000
,
0000
1001
0000
0110
,
2002
0000
3003
0000
,
0100
0000
0010
0000
,
1000
0000
0000
0000
,
0000
0110
0000
1100
,
2002
0000
0000
0000
,
0000
0000
0000
0000
,
3003
0000
0000
0110
;

//--------------- dance-single - Wrland ----------------
#NOTEDATA:;
#CHARTSTYLE:Pad;
#CREDIT:Wrland;
#STEPSTYPE:dance-single;
#DESCRIPTION:Wrland;
#DIFFICULTY:Medium;
#METER:7;
#RADARVALUES:0,0,0,0,0;
#NOTES:
0000
0000
0000
0000
,
0000
0000
0000
0000
,
0000
0000
0000
0000
,
0000
0000
0000
0000
,
0000
0000
0000
0000
,
0000
0000
0000
0000
,
1000
0100
1000
0100
,
0010
0001
0100
0010
,
0100
0010
0001
0100
,
0010
0000
0000
0100
0010
0100
0010
0000
0000
0000
0000
0000
,
1000
0001
2000
3000
,
0001
1000
0002
0003
,
0100
0010
0100
0010
,
0002
0000
0003
0000
,
1000
0100
1000
0100
,
0020
0000
0030
0000
,
0100
0010
0001
0100
,
0020
0000
0030
0000
,
0100
1000
0200
0300
,
0010
0001
0020
0030
,
0100
1000
0100
1000
,
0200
0000
0300
0000
,
0010
0001
0010
0100
,
0020
0000
0030
0001
,
1000
0100
1000
0100
,
0020
0000
0030
0000
,
0100
0010
0001
0100
,
0020
0000
0030
0000
,
0100
0000
0110
0000
,
0020
0000
0030
0000
,
0001
1000
0001
1000
,
0100
0000
1000
0000
,
0100
0010
0001
0100
,
0010
0000
0000
0100
0010
0100
0010
0000
0000
0000
0000
0000
,
0001
1000
0002
0003
,
1000
0001
2000
3000
,
0100
1000
0100
1000
,
0200
0000
0300
0000
,
0100
0010
0001
0100
,
0020
0000
0030
0000
,
0010
0001
0100
0010
,
2000
0000
3000
0000
,
0100
0010
0200
0300
,
0010
0001
0020
0030
,
0100
1000
0100
1000
,
0200
0000
0300
0000
,
0010
0001
0100
0010
,
2000
0000
3000
0100
,
0010
0001
0100
0010
,
0200
0000
0300
0000
,
1000
0100
1000
0100
,
0020
0000
0030
0000
,
0100
0000
0011
0000
,
1000
0100
1000
0000
,
0100
0010
0001
1000
,
0002
0000
0003
0000
,
0000
1001
0000
0110
,
2002
0000
0000
0000
,
0000
0000
0000
0000
,
3003
0000
0000
0110
;

//--------------- dance-single - Wrland ----------------
#NOTEDATA:;
#CHARTSTYLE:Pad;
#CREDIT:Wrland;
#STEPSTYPE:dance-single;
#DESCRIPTION:Wrland;
#DIFFICULTY:Hard;
#METER:10;
#RADARVALUES:0,0,0,0,0;
#NOTES:
0000
0000
0000
0000
,
0000
0000
0000
0000
,
0000
0000
0000
0000
,
0000
0000
0000
0000
,
1000
0001
1000
0001
1000
0001
1000
0001
,
1000
0000
0000
0001
1000
0001
1000
0000
0000
1001
0000
0000
,
2000
0000
3000
0100
1000
0100
2000
0000
3000
0200
0000
0300
,
0020
0000
0030
0001
0100
0001
0200
0000
0300
0020
0000
0030
,
0200
0000
0000
0000
0300
0000
0010
0000
0001
0000
0100
0000
0001
0000
0000
0100
0000
0000
1000
0000
0000
0010
0000
0000
,
2000
0000
3000
0100
1000
0100
1000
0000
0000
0100
0000
0000
,
0020
0000
0030
0002
0000
0003
0200
0000
0300
0010
0100
0000
,
0200
0000
0300
2000
0000
3000
0200
0000
0300
0010
0100
0001
,
1000
0000
0100
1000
0000
0100
0020
0000
0030
0200
0000
0300
,
0002
0000
0000
0000
0003
0000
0010
0000
0100
0000
1000
0000
0100
0000
0000
0010
0000
0000
1000
0000
0010
0000
0001
0000
,
0100
0000
0100
2000
3000
0100
0000
0000
0010
0100
0000
0010
,
0002
0003
0100
1000
,
0100
0000
1000
0100
0000
0010
0002
0000
0003
0200
0000
0300
,
0020
0000
0030
0100
0010
0100
0010
0000
0000
0001
0000
0000
,
0100
0000
0010
0100
0000
0020
0000
0030
0001
0100
0000
0000
,
0010
0000
0100
1000
0000
0200
0000
0300
0000
1000
0000
0000
,
0100
0000
1000
0200
0000
0300
1000
0000
0100
2000
0000
3000
,
0200
0000
0300
0020
0000
0030
0001
0100
0001
0100
0010
0100
,
2000
0000
3000
0200
0000
0300
2000
0000
3000
0020
0000
0030
,
0002
0000
0003
0100
0010
0100
0010
0000
0001
0100
0000
1000
,
0200
0000
0300
0020
0000
0030
0200
0000
0300
2000
0000
3000
,
0200
0000
0300
1000
0100
1000
0100
0000
0000
0010
0100
0010
,
0100
0000
0001
0100
0000
0010
0100
0000
1000
0001
0000
1000
,
0200
0000
0000
0000
0000
0000
0310
0000
0000
0000
0000
0000
0010
0000
0100
0000
0000
0000
0010
0000
0000
0100
0000
0000
,
0010
0000
0000
0001
1000
0001
1000
0000
0000
0100
1000
0100
,
0020
0000
0030
0100
0000
0000
0001
0100
0001
0100
0000
0000
,
0010
0000
0000
0100
1000
0100
2000
0000
3000
0200
0000
0300
,
0020
0000
0030
0001
0100
0001
0200
0000
0300
0020
0000
0030
,
0200
0000
0000
0000
0300
0000
1000
0000
0100
0000
1000
0000
0100
0000
0000
0010
0000
0000
0100
0000
0000
0010
0000
0000
,
0100
0000
0000
0001
0100
0010
0100
0000
0000
1000
0000
0000
,
0200
0000
0300
0020
0000
0030
0002
0000
0003
0100
0001
0000
,
0020
0000
0030
0200
0000
0300
2000
0000
3000
0100
1000
0000
,
0100
0000
0010
0100
0000
0010
0002
0000
0003
0200
0000
0300
,
0020
0000
0030
0100
1000
0100
1000
0000
0000
0100
0000
0000
,
0010
0000
0001
0100
0000
0002
0000
0003
0010
0100
0000
0010
,
0002
0000
0003
0100
0000
0000
1000
0000
0000
0100
0000
0000
,
1000
0000
0100
1000
0000
0100
0020
0000
0030
0002
0000
0003
,
0200
0000
0300
0010
0100
0010
0200
0000
0300
0010
0000
0000
,
0001
0000
0100
0010
0000
0200
0000
0300
1000
0100
0000
0000
,
1000
0000
0100
1000
0000
0200
0000
0300
0000
0010
0000
0000
,
0100
0000
0010
0200
0000
0300
0020
0000
0030
0002
0000
0003
,
0200
0000
0300
0010
0000
0000
0100
0010
0100
0010
0000
0000
,
0001
0000
0100
0002
0000
0003
0200
0000
0300
0020
0000
0030
,
2000
0000
3000
0100
0000
0000
1000
0000
0010
0100
0000
1000
,
0020
0000
0030
0200
0000
0300
0020
0000
0030
0002
0000
0003
,
0200
0000
0300
0010
0100
0010
0200
0000
0300
0010
0000
0000
,
0001
0000
1000
0001
0000
1000
0002
0000
0003
0200
0000
0300
,
2000
0000
3000
0100
1000
0100
1000
0000
0000
0100
0000
0000
,
0010
0001
0100
0010
,
0200
0000
0300
0010
0100
0010
0100
0000
0000
0010
0000
0000
,
1001
0000
0010
0100
0000
0001
0020
0000
0030
0200
0000
0300
,
2000
0000
3000
0100
1000
0100
1000
0000
0000
0100
0000
0010
,
0100
0011
0001
1001
,
0220
0000
0330
1000
0100
1000
0200
0000
0300
2000
0000
3000
,
0020
0000
0030
0002
0000
0003
0100
0010
0100
0010
0100
0010
,
0100
0000
0000
0010
0001
0100
1001
0000
0000
0110
0000
0000
;
