#TITLE:Ocean Topaz;
#SUBTITLE:;
#ARTIST:avenew feat. 佐倉紗織;
#TITLETRANSLIT:;
#SUBTITLETRANSLIT:;
#ARTISTTRANSLIT:avenew feat. Saori Sakura;
#GENRE:J-Pop;
#CREDIT:produced by avenew a.k.a.dRESS;
#MUSIC:Ocean Topaz.ogg;
#BANNER:Ocean Topaz.png;
#BACKGROUND:Ocean Topaz-bg.png;
#CDTITLE:Japanese.png;
#SAMPLESTART:57.916;
#SAMPLELENGTH:15.000;
#SELECTABLE:YES;
#OFFSET:0.004;
#BPMS:0.000=174.000
,88.000=87.000
,96.000=174.000
,112.000=87.000
,128.000=174.000
;
#STOPS:160.000=0.345;
#DISPLAYBPM:87.000:174.000;
#TAGS:DMCA;
#JACKET:Ocean Topaz-jacket.png;
#BGCHANGES:;
#FGCHANGES:;

//--------------- dance-single - Wrland ----------------
#NOTES:
     dance-single:
     Wrland:
     Beginner:
     1:
     0,0,0,0,0:
0000
0000
0000
0000
,
0000
0000
0000
0000
,
0000
0000
0000
0000
,
1000
0000
0000
0000
,
0000
0000
0000
0000
,
0001
0000
0000
0000
,
0000
0000
0000
0000
,
1000
0000
0000
0000
,
0000
0000
0000
0000
,
2002
0000
0000
0000
,
3003
0000
0000
0000
,
0220
0000
0000
0000
,
0000
0000
0000
0000
,
0330
0000
0000
0000
,
0010
0000
0000
0000
,
0000
0000
0000
0000
,
1000
0000
0000
0000
,
0000
0000
0000
0000
,
0001
0000
0000
0000
,
0000
0000
0000
0000
,
1000
0000
0000
0000
,
0000
0000
0000
0000
,
0010
0000
0000
0000
,
0100
0000
0000
0000
,
0010
0000
0000
0000
,
0000
0000
0000
0000
,
0001
0000
0000
0000
,
0000
0000
0000
0000
,
1000
0000
0000
0000
,
0100
0000
0000
0000
,
1000
0000
0000
0000
,
0010
0000
0000
0000
,
0100
0000
0000
0000
,
0000
0000
0000
0000
0000
0000
0000
1000
,
0000
0000
0000
0000
0000
0000
0000
0220
,
0000
0000
0330
0000
,
1000
0000
0000
0000
,
0000
0000
0000
0000
,
0100
0000
0000
0000
,
0000
0000
0000
0000
,
0000
0100
0000
0000
0000
0000
0000
0000
0000
0000
0000
0000
0000
0000
0000
0000
0000
0000
0000
0000
0000
0000
0000
0000
0000
0000
0000
0000
0000
0000
0000
0000
0000
0000
0000
0000
0000
0000
0000
0000
0000
0000
0000
0000
0000
0000
0000
0000
0000
0000
0000
0000
0000
0000
0000
0000
0000
0000
0000
0000
0000
0000
0000
0000
0000
0000
0000
0000
0000
0000
0000
0000
0000
0000
0000
0000
0000
0000
0000
0000
0000
0000
0000
0000
0000
0000
0000
0000
0000
0000
0000
0000
0000
0000
0000
0000
0000
0000
0000
0000
0000
0000
0000
0000
0000
0000
0000
0000
0000
0000
0000
0000
0000
0000
0000
0000
0000
0000
0000
0000
0000
0000
0000
0000
0000
0000
0000
0000
0000
0000
0000
0000
0000
0000
0000
0000
0000
0000
0000
0000
0000
0000
0000
0000
0000
0000
0000
0000
0000
0000
0000
0000
0000
0000
0000
0000
0000
0000
0000
0000
0000
0000
0000
0000
0000
0000
0000
0000
0000
0000
0000
0000
0000
0000
0000
0000
0000
0000
0000
0000
0000
0000
0000
0000
0000
0000
0000
0000
0000
0000
0000
0000
,
0000
0000
0000
0010
,
0000
0000
0000
0000
,
0000
0000
0000
0001
,
0000
0000
0000
0000
,
0000
0000
0000
1000
,
0000
0000
0000
0000
,
0000
0000
0000
0001
,
0000
0000
0000
0000
,
0000
0000
0000
1000
,
0000
0000
0000
0000
,
0000
0000
0000
0100
,
0000
0000
0000
0000
,
0000
0000
0000
0010
,
0000
0000
0000
0000
,
0000
0000
0000
0001
,
0000
0000
0000
0000
,
0000
0000
0000
1000
,
0000
0000
0000
0000
,
0000
0000
0000
0100
,
0000
0000
0000
0000
,
0000
0000
0000
0010
,
0000
0000
0000
0220
,
0000
0000
0000
0000
,
0000
0000
0000
0000
,
0000
0000
0000
0000
,
0000
0000
0000
0000
,
0000
0000
0000
0000
,
0000
0000
0000
0000
,
0000
0000
0000
0000
,
0330
0000
0000
0000
;

//--------------- dance-single - Wrland ----------------
#NOTES:
     dance-single:
     Wrland:
     Easy:
     3:
     0,0,0,0,0:
0000
0000
0000
0000
,
0000
0000
0000
0000
,
0000
0000
0000
0000
,
1000
0000
0000
0000
0000
0000
0000
1000
,
0000
0000
0000
0000
,
0001
0000
0000
0000
0000
0000
0000
0001
,
0000
0000
0000
0000
,
1000
0000
0000
0000
0000
0000
0000
0100
,
0000
0000
0000
0000
,
2002
0000
0000
0000
,
3003
0000
0000
0000
,
0220
0000
0000
0000
,
0000
0000
0000
0000
,
0330
0000
0000
0000
,
0010
0000
0000
0000
,
0100
0000
0000
0000
,
1000
0000
0000
0000
0000
0000
0000
0001
,
0000
0000
0000
0000
,
0001
0000
0000
0000
,
1000
0000
0000
0000
,
1000
0000
0000
0000
,
0100
0000
0000
0000
,
0010
0000
0000
0000
0000
0000
0000
0001
0000
0000
0000
0000
0000
0000
0000
0000
,
0100
0000
0000
0000
0000
0000
0000
1000
0000
0000
0000
0000
0000
0000
0000
0000
,
0010
0000
0000
0000
0000
0000
0000
0100
,
0000
0000
0000
0000
,
0001
0000
0000
0000
,
0010
0000
0000
0000
,
1000
0000
1000
0000
,
0100
0000
0001
0000
,
1000
0000
0100
0000
,
0010
0000
0010
0000
,
0100
0000
0000
0000
0000
0000
0000
0001
,
0000
0000
0000
0000
0000
0000
0000
1000
,
0000
0000
0000
0000
0000
0000
0000
0220
,
0000
0000
0330
0000
,
1000
0000
0000
0000
0000
0000
0000
1000
,
0000
0000
0000
0000
,
0100
0000
0000
0000
,
0001
0000
0000
0000
,
0000
0100
0000
0000
0000
0000
0000
0000
0000
0000
0000
0000
0000
0000
0000
0000
0000
0000
0000
0000
0000
0000
0000
0000
0000
0000
0000
0000
0000
0000
0000
0000
0000
0000
0000
0000
0000
0000
0000
0000
0000
0000
0000
0000
0000
0000
0000
0000
0000
0000
0000
0000
0000
0000
0000
0000
0000
0000
0000
0000
0000
0000
0000
0000
0000
0000
0000
0000
0000
0000
0000
0000
0000
0000
0000
0000
0000
0000
0000
0000
0000
0000
0000
0000
0000
0000
0000
0000
0000
0000
0000
0000
0000
0000
0000
0000
0000
0000
0000
0000
0000
0000
0000
0000
0000
0000
0000
0000
0000
0000
0000
0000
0000
0000
0000
0000
0000
0000
0000
0000
0000
0000
0000
0000
0000
0000
0000
0000
0000
0000
0000
0000
0000
0000
0000
0000
0000
0000
0000
0000
0000
0000
0000
0000
1000
0000
0000
0000
0000
0000
0000
0000
0000
0000
0000
0000
0000
0000
0000
0000
0000
0000
0000
0000
0000
0000
0000
0000
0000
0000
0000
0000
0000
0000
0000
0000
0000
0000
0000
0000
0000
0000
0000
0000
0000
0000
0000
0000
0000
0000
0000
0000
,
0000
0000
0000
0010
,
0000
0000
0000
0100
,
0000
0000
0000
0001
,
0000
0000
0000
0010
,
0000
0000
0000
1000
,
0000
0000
0000
0100
,
0000
0000
0000
0001
,
0000
0000
0000
0010
,
0000
0000
0000
1000
,
0000
0000
0000
0001
,
0000
0000
0000
0100
,
0000
0000
0000
0010
,
0000
0000
0000
0010
,
0000
0000
0000
0000
0000
1000
0000
0000
,
0000
0000
0000
0001
,
0000
0000
0000
0000
0000
0001
0000
0000
,
0000
0000
0000
1000
,
0000
0000
0000
0100
,
0000
0000
0000
0100
,
0000
0000
0000
0001
,
0000
0000
0000
0010
,
0000
0000
0000
0220
,
0000
0000
0000
0000
,
0000
0000
0000
0000
,
0000
0000
0000
0000
,
0000
0000
0000
0000
,
0000
0000
0000
0000
,
0000
0000
0000
0000
,
0000
0000
0000
0000
,
0330
0000
0000
0000
;

//--------------- dance-single - Wrland ----------------
#NOTES:
     dance-single:
     Wrland:
     Medium:
     8:
     0,0,0,0,0:
0000
0000
0000
0000
,
0000
0000
0000
0000
,
0000
0000
0000
0000
,
0100
0000
0000
0010
0000
0000
0000
0100
,
0000
1000
0000
0100
0000
1000
0000
0000
,
0100
0000
0000
0010
0000
0100
0010
0200
,
0000
0000
0000
0300
,
0001
0000
1000
0001
0000
1000
0100
1000
,
0000
0100
0000
0010
0000
0001
0000
0000
,
0100
0000
0000
0010
0000
0000
0100
0000
,
0010
0000
0000
0001
0000
0000
0100
0000
,
2002
0000
0000
0000
,
0000
0000
0000
0000
,
3003
0000
0000
0100
,
0010
0000
0001
0000
0100
0010
0000
0100
,
0000
0010
0100
0010
,
0001
0000
0100
0000
0010
0100
0000
1000
,
0000
0000
0100
0000
1000
0100
0000
0200
,
0000
0000
0300
0010
,
0001
0000
0100
0000
,
0010
0100
0010
0001
,
0100
0000
0000
2000
0000
0000
3000
0000
,
0100
0000
1000
0000
0100
0010
0100
0000
,
0001
0000
0100
0000
0001
0000
0000
0010
0000
0000
0000
0000
0100
0000
1000
0000
,
0100
1000
0100
0010
,
0001
0100
0010
0100
,
0010
0100
0010
0001
,
0100
0001
0100
0001
0100
0001
0100
0000
,
0010
0000
0100
0000
1000
0100
0000
0010
0100
0000
0010
0001
0000
0100
0001
0100
,
0001
0000
0000
0000
0010
0000
0100
0000
1000
0000
0100
1000
0000
0100
0010
0000
,
0100
0000
0010
0000
0001
0000
0100
0000
0010
0000
0100
1000
0000
0100
1000
0100
,
0010
0000
0000
0000
0001
0000
0000
0000
0100
0000
0010
0000
0001
0100
0001
0000
,
0010
0000
0100
0000
1000
0000
0100
1000
,
0000
0000
0100
0000
0010
0001
0000
0200
,
0000
0000
0300
0000
0010
0000
0000
0200
,
0000
0000
0000
0300
,
1000
0000
1000
1000
0000
0001
0000
0001
,
0000
0000
0100
0000
0010
0100
0000
0000
,
0010
0000
0001
0100
0000
0001
0000
0000
,
0010
0100
1000
0100
,
0000
0100
0000
0000
0000
0000
0000
0000
0000
0000
0000
0000
0000
0000
0000
0000
0000
0000
0000
0000
0000
0000
0000
0000
0000
0000
0000
0000
0000
0000
0000
0000
0000
0000
0000
0000
0000
0000
0000
0000
0000
0000
0000
0000
0000
0000
0000
0000
0010
0000
0000
0000
0000
0000
0000
0000
0000
0000
0000
0000
0000
0000
0000
0000
0000
0000
0000
0000
0000
0000
0000
0000
0100
0000
0000
0000
0000
0000
0000
0000
0000
0000
0000
0000
0000
0000
0000
0000
0000
0000
0000
0000
0000
0000
0000
0000
0000
0000
0000
0000
0000
0000
0000
0000
0000
0000
0000
0000
0000
0000
0000
0000
0000
0000
0000
0000
0000
0000
0000
0000
0010
0000
0000
0000
0000
0000
0000
0000
0000
0000
0000
0000
0000
0000
0000
0000
0000
0000
0000
0000
0000
0000
0000
0000
0100
0000
0000
0000
0000
0000
0000
0000
0000
0000
0000
0000
0000
0000
0000
0000
0000
0000
0000
0000
0000
0000
0000
0000
0000
0000
0000
0000
0000
0000
0000
0000
0000
0000
0000
0000
0000
0000
0000
0000
0000
0000
0000
0000
0000
0000
0000
0000
,
0001
0100
0000
0000
1000
0000
0100
0000
,
1000
0000
0100
0010
0000
0000
0100
0000
,
0010
0001
0000
0100
0000
0000
0010
0000
,
0100
0010
0000
0100
0000
1000
0000
0000
,
0100
0000
1000
0100
0000
0000
0100
0000
,
0010
0001
0000
0100
0000
0010
0000
0200
,
0000
0000
0300
0010
,
0001
0000
0100
0001
0100
0001
0000
0000
,
0010
1000
0100
1000
,
0000
0100
1000
0000
0000
0000
0100
0000
,
0010
0000
0001
0100
0001
0000
0010
0000
,
0000
1000
0000
0000
0100
0000
0000
0000
,
0000
1000
0100
0010
,
0100
0000
0010
0001
0000
0100
0000
0000
,
1000
0100
1000
0100
,
0100
0000
0010
0001
0000
0100
0000
0000
,
0010
0000
0100
0010
0000
0002
0000
0000
,
0000
0003
0100
0010
,
0000
1000
0000
0100
,
1000
0100
0010
0001
,
0100
0001
0000
0000
0000
0000
0010
0000
,
0000
0100
0000
0000
0010
0000
2002
0000
,
0000
0000
0000
0000
,
0000
0000
0000
0000
,
0000
0000
0000
0000
,
0000
0000
0000
0000
,
0000
0000
0000
0000
,
0000
0000
0000
0000
,
0000
0000
0000
0000
,
3003
0000
0000
0000
;

//--------------- dance-single - Wrland ----------------
#NOTES:
     dance-single:
     Wrland:
     Hard:
     11:
     0,0,0,0,0:
0000
0000
0000
0000
,
0000
0000
0000
0000
,
0000
0000
0000
0000
,
1000
0000
0100
1000
0000
0100
0010
0001
,
0000
0100
0000
0010
0000
0100
0000
0000
,
0100
0000
0010
0000
0100
0010
1000
0000
0000
0000
0100
0000
1000
0000
0200
0000
,
0000
0000
0310
0000
0100
0010
0001
0000
,
0100
0000
0001
0100
0000
0010
0100
1000
,
0000
0100
0000
1000
0000
0100
0000
0000
,
2000
0000
0000
3000
0000
0000
0100
0000
0000
0000
0000
0000
0010
0000
0000
0000
,
0002
0000
0000
0003
0000
0000
0100
0000
0000
0000
0000
0000
0010
0000
0000
0000
,
0220
0000
0000
0000
,
0000
0000
0000
0330
,
1000
0000
0000
0000
0001
0000
1000
0000
0001
1000
0001
0000
1000
0000
0000
0000
,
0100
0000
1000
0000
0100
1000
0000
0100
,
0000
0000
0010
0000
0001
0100
0000
0010
,
0000
0000
0100
0000
0010
0001
0000
0100
,
0000
0000
0010
0000
0100
1000
0000
0100
,
1000
0000
0100
0000
0010
0001
0100
0000
,
0010
0000
0100
0010
1000
0000
0100
0000
,
0010
0001
0100
0010
,
0200
0000
0300
0002
0000
0000
0003
0000
,
0100
0000
0010
0000
0001
0100
0000
0010
0000
0000
0100
0000
1000
0001
0000
0000
,
0100
0000
0010
0100
0000
0010
0000
0002
0000
0000
0000
0000
0003
0000
0000
0000
,
0100
0000
1000
0001
0100
0010
0000
1000
,
0000
0100
0010
0001
,
0100
0000
0010
0100
0000
0000
0010
0000
,
0001
0000
0100
0000
1000
0100
1000
0000
,
0100
0000
0010
0000
0100
0010
0000
0001
0010
0000
0100
0001
0000
0010
0100
0001
,
2000
0000
0000
0000
3000
0000
0100
0000
0010
0000
0001
0100
0000
0001
0100
0000
,
0010
0000
0100
0000
1000
0000
0100
0000
1000
0000
0100
1000
0000
0100
0010
0001
,
0200
0000
0000
0300
2000
0000
0000
3000
0001
0000
0100
0000
1000
0100
1000
0000
,
0100
0000
0010
0000
0001
0100
0000
0010
,
0000
0000
0100
0000
1000
0100
0000
0010
,
0000
0000
0100
0000
0010
0000
0000
0002
,
0000
0000
0003
0000
,
1000
0000
0100
1000
0000
0100
0000
0010
,
0000
0000
0001
0000
0100
0001
0000
0000
,
0010
0000
0100
0010
0000
0001
0000
0000
,
0100
0000
0001
0000
0100
0001
0100
0000
,
0000
0010
0000
0000
0000
0000
0000
0000
0000
0000
0000
0000
0000
0000
0000
0000
0000
0000
0000
0000
0000
0000
0000
0000
0000
0000
0000
0000
0000
0000
0000
0000
0000
0000
0000
0000
0000
0000
0000
0000
0000
0000
0000
0000
0000
0000
0000
0000
0100
0000
0000
0000
0000
0000
0000
0000
0000
0000
0000
0000
0000
0000
0000
0000
0000
0000
0000
0000
0000
0000
0000
0000
0010
0000
0000
0000
0000
0000
0000
0000
0000
0000
0000
0000
0000
0000
0000
0000
0000
0000
0000
0000
0000
0000
0000
0000
0000
0000
0000
0000
0000
0000
0000
0000
0000
0000
0000
0000
0000
0000
0000
0000
0000
0000
0000
0000
0000
0000
0000
0000
0100
0000
0000
0000
0000
0000
0000
0000
0000
0000
0000
0000
0000
0000
0000
0000
0000
0000
0000
0000
0000
0000
0000
0000
0010
0000
0000
0000
0000
0000
0000
0000
0000
0000
0000
0000
0000
0000
0000
0000
0000
0000
0000
0000
0000
0000
0000
0000
0000
0000
0000
0000
0000
0000
0000
0000
0000
0000
0000
0000
0000
0000
0000
0000
0000
0000
0000
0000
0000
0000
0000
0000
,
0001
1000
0000
0000
0100
0000
1000
0000
,
0100
0000
0000
0000
0010
0000
0001
0000
0000
0000
0000
0000
0100
0000
0001
1000
,
0010
0100
0000
0010
0000
0000
0100
0000
,
1000
0100
0000
0010
0000
0001
0000
0000
,
0100
0000
0010
0100
0000
0000
0010
0001
,
0100
0010
0000
0100
0000
1000
0000
0200
,
0000
0000
0300
0100
,
0010
0000
0001
0100
0001
0100
0000
0000
,
0010
0100
1000
0100
,
0100
1000
0100
0000
0010
0000
0001
0000
,
0100
0000
0010
0100
0010
0000
1001
0000
,
0000
0101
0000
0000
2200
0000
0000
0000
,
3300
0001
1000
1000
,
0001
0000
1000
0001
0000
0100
0000
0000
,
0010
0000
0100
0010
0000
0001
0000
0000
,
0100
0000
0010
0001
0000
0100
0000
0000
,
1000
0000
0100
1000
0000
0100
0010
0000
,
0001
0100
0010
0200
,
0300
0010
0000
0001
,
0100
0010
0100
1000
,
0000
0100
0000
0000
0000
0000
0110
0000
,
1000
0001
0000
1000
0100
0010
1001
0000
,
0000
0100
0000
0000
0010
0000
0100
0000
,
0000
0010
0000
0000
0001
0000
1000
0000
,
0000
0100
0000
0000
1000
0000
0001
0000
,
0000
1000
0000
0000
0010
0000
0100
0000
,
0000
0010
0000
0000
0001
0000
0100
0000
,
0000
0010
0000
0000
0001
0000
2000
0000
,
0000
0000
0000
0000
,
3000
0000
0000
0000
;
