#VERSION:0.83;
#TITLE:ă‚ȘăƒˆăƒŽă‚±;
#SUBTITLE:;
#ARTIST:Creepy Nuts;
#TITLETRANSLIT:OTONOKE;
#SUBTITLETRANSLIT:;
#ARTISTTRANSLIT:;
#GENRE:J-Pop;
#CREDIT:Blowout;
#MUSIC:OTONOKE.ogg;
#BANNER:OTONOKE.png;
#BACKGROUND:BG.png;
#JACKET:OTONOKE-jacket;
#DISCIMAGE:;
#CDIMAGE:;
#SELECTABLE:YES;
#LYRICSPATH:;
#CDTITLE:DANDADAN.png;
#SAMPLESTART:49.850;
#SAMPLELENGTH:15.000;
#BPMS:0.000000=170.000000,
16.000000=137.000000,
17.000000=170.000000
;
#STOPS:24.000000=0.176000,
31.500000=0.176000,
39.000000=0.176000,
43.500000=0.176000
;
#WARPS:;
#DELAYS:;
#SPEEDS:;
#SCROLLS:;
#TICKCOUNTS:;
#TIMESIGNATURES:;
#LABELS:;
#COMBOS:;
#FAKES:;
#BGCHANGES:0.000=OTONOKE.avi=0.000=0=0=0=StretchNoLoop====,
99999=-nosongbg-=1.000=0=0=0 // don't automatically add -songbackground-
;
#FGCHANGES:;
#ATTACKS:;
#DISPLAYBPM:170.000;
#TAGS:DMCA;

//---------------dance-single - Wrland---------------
#NOTEDATA:;
#CHARTNAME:;
#CHARTSTYLE:Pad;
#CREDIT:Wrland;
#STEPSTYPE:dance-single;
#DESCRIPTION:Wrland;
#DIFFICULTY:Beginner;
#METER:3;
#METERF:3;
#RADARVALUES:0,0,0,0,0;
#NOTES:
// measure 0
0000
0000
0000
0000
,  // measure 1
0000
0000
0000
0000
,  // measure 2
0000
0000
0000
0000
,  // measure 3
0000
0000
0000
0000
,  // measure 4
0000
0000
0000
0000
,  // measure 5
0000
0000
0000
0000
,  // measure 6
0000
0000
0000
0000
,  // measure 7
0000
0000
0000
0000
,  // measure 8
1000
0000
0000
1000
,  // measure 9
0000
0000
0000
0000
1000
0000
1001
0001
,  // measure 10
0000
0000
0000
0000
0000
0001
0000
1001
,  // measure 11
0000
0000
0000
0100
,  // measure 12
0000
0000
0000
0100
,  // measure 13
0000
0000
0000
0001
,  // measure 14
0000
0000
0000
0010
,  // measure 15
0000
0000
0000
1000
,  // measure 16
0000
0000
0000
0100
,  // measure 17
0000
0000
0000
0001
,  // measure 18
0000
0000
0000
1000
,  // measure 19
0000
0000
0000
1000
,  // measure 20
0000
1000
0000
0001
,  // measure 21
0000
0001
0000
0100
,  // measure 22
0000
0100
0000
0010
,  // measure 23
0000
0010
0000
0001
,  // measure 24
0000
0001
0000
0100
,  // measure 25
0000
0100
0000
1000
,  // measure 26
1000
0100
0001
0100
,  // measure 27
0010
0100
0000
0020
,  // measure 28
0000
0000
0000
0000
,  // measure 29
0030
0000
0000
0200
,  // measure 30
0000
0000
0000
0000
,  // measure 31
0300
0000
0000
0002
,  // measure 32
0000
0000
0000
0000
,  // measure 33
0003
0000
0000
2000
,  // measure 34
0000
0000
0000
0000
,  // measure 35
3000
0000
0000
0100
,  // measure 36
0000
0010
0000
0001
,  // measure 37
0000
0100
0000
0010
,  // measure 38
0000
0100
0000
0010
,  // measure 39
0000
0100
0000
0100
,  // measure 40
0000
0000
0000
0000
0100
1000
0000
0000
,  // measure 41
0100
0000
0100
0010
,  // measure 42
0100
0010
0100
0010
,  // measure 43
0000
0100
0000
0100
,  // measure 44
0000
0100
0000
0100
,  // measure 45
0100
1000
0000
0010
,  // measure 46
0000
0100
0010
0010
,  // measure 47
0000
0100
0000
0100
,  // measure 48
1000
0000
0100
0000
1000
0001
0100
0000
,  // measure 49
0010
0000
0100
0000
,  // measure 50
0100
0010
0100
1000
,  // measure 51
0000
1000
0000
0001
,  // measure 52
0000
0001
0000
0001
,  // measure 53
0000
0010
0000
0100
,  // measure 54
0000
0100
0000
0100
,  // measure 55
0000
0001
0000
0100
,  // measure 56
0000
0100
0000
0100
,  // measure 57
0000
0001
0000
0100
,  // measure 58
0000
0100
0000
0100
,  // measure 59
0000
0100
0000
1000
,  // measure 60
0000
0001
0000
1000
,  // measure 61
0000
0001
0000
0001
,  // measure 62
0000
1000
0000
0001
,  // measure 63
0000
1000
0000
1000
,  // measure 64
0000
1000
0000
1000
,  // measure 65
0001
1000
0000
0100
,  // measure 66
0000
0100
0000
0100
,  // measure 67
0010
0001
0000
0100
,  // measure 68
0000
0100
0000
0000
0100
0000
0000
0100
,  // measure 69
0000
0100
0010
0001
,  // measure 70
0000
0001
0000
0000
0001
0000
0000
0001
,  // measure 71
0000
0001
1000
1000
,  // measure 72
0000
1000
0000
0000
1000
0000
0000
1000
,  // measure 73
0000
1000
0001
0100
,  // measure 74
0000
0100
0000
0000
0100
0000
0010
0000
,  // measure 75
0000
0000
0100
0000
0010
0100
0000
0000
;

//---------------dance-single - Wrland---------------
#NOTEDATA:;
#CHARTNAME:;
#CHARTSTYLE:Pad;
#CREDIT:Wrland;
#STEPSTYPE:dance-single;
#DESCRIPTION:Wrland;
#DIFFICULTY:Easy;
#METER:6;
#METERF:6;
#RADARVALUES:0,0,0,0,0;
#NOTES:
// measure 0
0000
0000
0000
0000
,  // measure 1
0000
0000
0000
0000
,  // measure 2
0000
0000
0000
0000
,  // measure 3
0000
0000
0000
0000
,  // measure 4
0000
0000
0000
0000
,  // measure 5
0000
0000
0000
0000
,  // measure 6
0000
0000
0000
0000
,  // measure 7
0000
0000
0000
0000
,  // measure 8
1000
0000
0000
1000
0000
0000
1000
0000
,  // measure 9
0000
1000
0000
0000
1000
0000
1001
0001
,  // measure 10
0000
0000
0001
0000
0000
0001
0000
1001
,  // measure 11
0000
0000
0000
0100
,  // measure 12
0000
0100
0000
0100
,  // measure 13
0000
0010
0000
0001
,  // measure 14
0000
0100
0000
0010
,  // measure 15
0000
0100
0000
1000
,  // measure 16
0000
0010
0000
0100
,  // measure 17
0000
0010
0000
0001
,  // measure 18
0000
0100
0000
1000
,  // measure 19
0000
0100
0000
1000
,  // measure 20
1000
1000
0000
0001
,  // measure 21
0001
0001
0000
0100
,  // measure 22
0100
0100
0000
0010
,  // measure 23
0010
0010
0000
0001
,  // measure 24
0100
0001
0000
0100
,  // measure 25
1000
0000
0100
0000
0000
0000
1000
0100
,  // measure 26
1000
0000
0100
0010
0001
0000
0100
0000
,  // measure 27
0010
0100
0000
0020
,  // measure 28
0000
0000
0000
0000
,  // measure 29
0030
0000
0000
0200
,  // measure 30
0000
0000
0000
0000
,  // measure 31
0300
0000
0000
0002
,  // measure 32
0000
0000
0000
0000
,  // measure 33
0003
0000
0000
2000
,  // measure 34
0000
0000
0000
0000
,  // measure 35
3000
0000
0000
0100
,  // measure 36
0100
0010
0010
0001
,  // measure 37
0001
0100
0100
0010
,  // measure 38
0010
0100
0100
0010
,  // measure 39
0000
0100
1000
0100
,  // measure 40
1000
0000
0000
0000
0100
1000
0000
0000
,  // measure 41
0100
0000
0010
0000
0100
0000
0010
0001
,  // measure 42
0100
0000
0010
0000
0100
1000
0010
0000
,  // measure 43
0001
0100
0010
0100
,  // measure 44
1000
0000
0100
0000
1000
0000
0100
1000
,  // measure 45
0100
1000
0100
0010
,  // measure 46
0001
0000
0100
0000
0010
0100
0010
0000
,  // measure 47
0001
0100
0010
0100
,  // measure 48
1000
0000
0100
0000
1000
0001
0100
0000
,  // measure 49
0010
0001
0100
0001
,  // measure 50
0100
0000
0000
0000
0010
0000
0000
0000
0100
0000
0000
0001
1000
0000
0000
0000
,  // measure 51
0100
1000
0100
0001
,  // measure 52
0100
0001
0100
0001
,  // measure 53
0100
0010
0000
0100
,  // measure 54
1000
0100
1000
0100
,  // measure 55
0010
0001
0000
0100
,  // measure 56
1000
0100
0010
0100
,  // measure 57
0010
0001
0000
0100
,  // measure 58
0010
0100
1000
0100
,  // measure 59
1000
0100
0000
1000
,  // measure 60
1000
0001
0001
1000
,  // measure 61
1000
0001
0000
0001
,  // measure 62
0001
1000
1000
0001
,  // measure 63
0001
1000
0000
1000
,  // measure 64
0001
1000
0001
1000
,  // measure 65
0001
1000
0000
0100
,  // measure 66
1000
0100
1000
0100
,  // measure 67
0010
0001
0000
0100
,  // measure 68
0000
0100
0000
0000
0100
0000
0000
0100
,  // measure 69
0000
0100
0010
0001
,  // measure 70
0000
0001
0000
0000
0001
0000
0000
0001
,  // measure 71
0000
0001
1000
1000
,  // measure 72
0000
1000
0000
0000
1000
0000
0000
1000
,  // measure 73
0000
1000
0001
0100
,  // measure 74
0000
0100
0000
0000
0100
0000
0010
0000
,  // measure 75
0000
0000
0100
0000
0010
0100
0000
0000
;

//---------------dance-single - Wrland---------------
#NOTEDATA:;
#CHARTNAME:;
#CHARTSTYLE:Pad;
#CREDIT:Wrland;
#STEPSTYPE:dance-single;
#DESCRIPTION:Wrland;
#DIFFICULTY:Medium;
#METER:11;
#METERF:11;
#RADARVALUES:0,0,0,0,0;
#NOTES:
// measure 0
0000
0000
0000
0000
,  // measure 1
0000
0000
0000
0000
,  // measure 2
0000
0000
0000
0000
,  // measure 3
0000
0000
0000
0000
,  // measure 4
0000
0000
0000
0000
1000
0000
0000
0001
0000
0000
1000
0000
0000
0001
0000
0000
,  // measure 5
1000
0000
0000
0001
0000
0000
1000
0000
0000
0001
0000
0000
1000
0000
0001
1000
,  // measure 6
0100
0000
0010
0000
0000
0100
0000
0000
0010
0000
0000
0100
0000
0000
0010
0000
,  // measure 7
0000
0100
0000
0000
0010
0000
0000
0100
0000
0000
0010
0000
0000
0001
0010
0000
,  // measure 8
0001
0000
0000
1000
0000
0000
0001
0000
0000
1000
0000
0000
0001
0000
0000
1000
,  // measure 9
0000
0000
0001
0000
0000
1000
0000
0000
0001
0000
0000
1000
0001
0000
0100
0000
,  // measure 10
0000
1000
0000
0000
0100
0000
0000
1000
0000
0000
0100
0000
0000
1000
0100
0000
,  // measure 11
0000
0000
0000
0000
0000
0000
0010
0100
,  // measure 12
0010
0000
0001
0000
0100
0000
0010
0000
0100
0000
1000
0001
0100
0000
0010
0000
,  // measure 13
1000
0000
0100
0000
0010
0000
0100
0001
0010
0000
0000
0000
0100
0000
0010
0000
,  // measure 14
0100
1000
0100
0010
0001
0100
0010
0100
,  // measure 15
1000
0000
0100
0000
0010
0000
0001
0010
0100
0000
0000
0000
0010
0000
0100
0000
,  // measure 16
0010
0000
0001
0000
0100
0000
0010
0001
0100
0000
1000
0000
0100
0000
0010
0000
,  // measure 17
0001
0000
0100
0000
0010
0000
0100
1000
0010
0000
0000
0000
0100
0000
1000
0000
,  // measure 18
0100
0010
0001
0100
0010
0100
1000
0100
,  // measure 19
0010
0000
0001
0000
0100
0000
0010
0001
0100
0000
0000
0000
1000
0000
0100
0000
,  // measure 20
1000
0100
1000
0100
0010
0001
0100
0010
,  // measure 21
0100
0000
1000
0000
0010
0000
0100
0001
0010
0000
0000
0000
0100
0000
0010
0000
,  // measure 22
0100
1000
0100
0010
0001
0100
0010
0100
,  // measure 23
1000
0000
0100
0000
0010
0000
0001
1000
0100
0000
0000
0000
0100
0000
0100
0000
,  // measure 24
0010
0000
0100
0000
0010
0000
0100
0000
0001
0000
0100
1000
0010
0000
0001
0000
,  // measure 25
0100
0000
0010
0000
0100
0000
1000
0001
0100
0000
0010
0000
0001
0000
0100
0000
,  // measure 26
0010
0000
0100
0000
0010
0000
0001
1000
0100
0000
0010
0000
1000
0000
0100
0000
,  // measure 27
0010
0000
0001
0000
0100
0000
0010
0001
0100
0000
1000
0000
0200
0000
0000
0000
,  // measure 28
0310
0200
0000
0310
0200
0000
0310
0200
,  // measure 29
0000
0310
0100
0010
0200
0000
0320
0000
,  // measure 30
0130
0020
0000
0130
0020
0000
0130
0020
,  // measure 31
0000
0130
0010
1000
0020
0000
0032
0000
,  // measure 32
1003
0002
0000
1003
0002
0000
1003
0002
,  // measure 33
0000
1003
0001
1000
0002
0000
1003
0100
,  // measure 34
0010
0000
0001
0000
0100
0000
0010
0001
2000
0000
0000
0000
0000
0000
0000
0000
,  // measure 35
3001
0000
0000
0000
0000
0000
0000
0000
0000
0000
0000
0000
0100
0000
0001
1000
,  // measure 36
0010
0000
0100
0000
1000
0000
0100
0000
0010
0000
0001
0000
0100
0000
0010
0001
,  // measure 37
0100
0000
0010
0000
0100
0000
1000
0000
0100
0000
0010
0000
0001
0000
0100
1000
,  // measure 38
0010
0001
0100
0010
0100
0010
0200
0300
,  // measure 39
0000
0100
1000
0100
0010
0001
0100
0010
,  // measure 40
0100
0000
0010
0000
0001
0100
0002
0003
,  // measure 41
0100
0010
0100
0010
0001
0100
0010
0100
,  // measure 42
1000
0000
0100
0000
1000
0100
2000
3000
,  // measure 43
0100
0000
0010
0000
0001
0000
0100
0000
0010
0000
0100
0000
0010
0000
0100
0001
,  // measure 44
1000
0000
0100
0000
0010
0000
0001
0000
0100
0000
0010
0000
0100
0000
0010
1000
,  // measure 45
0001
0100
0010
0100
1000
0100
0010
0001
,  // measure 46
0100
0010
0100
1000
0100
0010
2000
3000
,  // measure 47
0100
1000
0100
0010
0001
0100
0010
0100
,  // measure 48
0010
0000
0001
0000
0100
0001
2000
3000
,  // measure 49
0010
0100
1000
0100
0010
0001
0100
0010
,  // measure 50
0100
0000
1000
0000
0100
1000
0200
0300
,  // measure 51
0010
0001
0100
0010
0100
1000
0200
0300
,  // measure 52
0020
0030
0001
0100
0001
0100
0002
0003
,  // measure 53
0100
0010
1000
0000
1001
0000
0010
1000
,  // measure 54
0100
0010
0100
0010
0001
0100
0010
0100
,  // measure 55
0010
0001
0200
0300
1001
0000
0100
1000
,  // measure 56
0100
0010
0001
0100
0010
0100
1000
0100
,  // measure 57
0010
0000
0001
0000
1000
0000
0000
1000
0000
0000
0100
0000
2000
0000
3000
0000
,  // measure 58
0100
0000
0000
0000
0010
0000
0001
0000
0000
0100
0000
0000
0002
0000
0003
0000
,  // measure 59
0100
0000
0010
0100
0010
0000
0001
0000
,  // measure 60
0100
0000
0010
0000
0000
0000
0100
0000
0000
0000
1000
0000
0100
0000
1000
0010
,  // measure 61
0100
1000
0100
0000
0010
0000
0001
0100
,  // measure 62
0001
0000
0100
0000
0000
0000
0100
0000
0000
0000
0010
0000
0100
0000
0010
1000
,  // measure 63
0001
0100
0010
0000
0100
0000
1000
0100
,  // measure 64
1000
0000
0100
0000
0000
0000
1000
0000
0000
0000
0100
0000
0010
0000
0001
0010
,  // measure 65
0100
0010
0100
0000
0010
0000
0100
0010
,  // measure 66
0001
0000
0100
0000
0000
0000
0010
0000
0000
0000
0100
0000
1000
0000
0100
0001
,  // measure 67
0010
0000
0001
0000
0100
0000
0000
0000
0010
0000
0000
0000
0100
0000
0000
0100
,  // measure 68
0000
0000
0100
0000
0000
0100
0000
0000
0100
0000
0000
0100
0000
0000
0100
0000
,  // measure 69
0000
0100
0000
0000
0100
0000
0100
0000
0010
0000
0000
0000
0001
0000
0000
0001
,  // measure 70
0000
0000
0001
0000
0000
0001
0000
0000
0001
0000
0000
0001
0000
0000
0001
0000
,  // measure 71
0000
0001
0000
0000
1000
0000
0001
0000
1000
0000
0000
0000
1000
0000
0000
1000
,  // measure 72
0000
0000
1000
0000
0000
1000
0000
0000
1000
0000
0000
1000
0000
0000
1000
0000
,  // measure 73
0000
1000
0000
0000
0001
0000
1000
0000
0001
0000
0000
0000
0100
0000
0000
0100
,  // measure 74
0000
0000
0100
0000
0000
0100
0000
0000
0100
0000
0010
0000
0100
0000
0000
0000
,  // measure 75
0010
0000
0000
0000
;

//---------------dance-single - Wrland---------------
#NOTEDATA:;
#CHARTNAME:OKARUUUUUUU!!!!;
#CHARTSTYLE:Pad;
#CREDIT:Wrland;
#STEPSTYPE:dance-single;
#DESCRIPTION:Wrland;
#DIFFICULTY:Hard;
#METER:14;
#METERF:14;
#RADARVALUES:0,0,0,0,0;
#NOTES:
// measure 0
0000
0000
0000
0000
,  // measure 1
0000
0000
0000
0000
,  // measure 2
0000
0000
0000
0000
,  // measure 3
0000
0000
0000
0000
,  // measure 4
0000
0000
0000
0000
1000
0000
0000
1000
0001
0000
1000
0000
0000
1000
0001
0000
,  // measure 5
1000
0000
0000
1000
0001
0000
1000
0000
0000
1000
0001
0000
1000
0000
0000
1000
,  // measure 6
0001
0000
0001
0000
0000
0001
1000
0000
0001
0000
0000
0001
1000
0000
0001
0000
,  // measure 7
0000
0001
1000
0000
0001
0000
0000
0001
1000
0000
0001
0000
0000
0001
1000
0000
,  // measure 8
1000
0000
0000
1000
0001
0000
1000
0000
0000
1000
0001
0000
1000
0000
0000
1000
,  // measure 9
0001
0000
1000
0000
0000
1000
0001
0000
1000
0000
0000
1000
0001
0000
0001
0000
,  // measure 10
0000
0001
1000
0000
0001
0000
0000
0001
1000
0000
0001
0000
0000
0001
1000
0000
,  // measure 11
0000
0000
0100
1000
0010
0001
0100
0000
0010
0000
0100
0000
0010
0000
0001
1000
,  // measure 12
0010
0000
0100
0000
0010
0001
0100
0000
0010
0000
0001
1000
0100
0000
0010
0100
,  // measure 13
0010
0100
0010
0000
0001
0000
0010
1000
0100
0000
0010
0000
0100
0000
0010
0100
,  // measure 14
0010
0000
0001
0000
0010
0001
0010
0000
0100
0000
0100
0010
0001
0000
0001
0100
,  // measure 15
1000
0100
0010
0001
1000
0000
0010
0100
1000
0000
0001
0000
1000
0001
1000
0001
,  // measure 16
1000
0000
0001
0000
0100
0000
1000
0010
0100
0000
0010
0001
0100
0000
0010
0000
,  // measure 17
0100
0000
1000
0000
0010
0000
0001
1000
0100
0000
1001
0000
0100
0000
1000
0100
,  // measure 18
0010
0000
0100
0001
0100
0000
0010
0100
0001
0000
0100
0000
1000
0001
0100
1000
,  // measure 19
0010
0000
0100
0000
0010
0000
0100
0010
0100
0000
0010
0000
0001
0000
1000
0000
,  // measure 20
0100
0000
0010
0000
0100
0000
0010
0000
0100
0000
0010
0001
0100
0000
1000
0010
,  // measure 21
0100
0010
0001
0010
0100
0001
0000
1000
0100
0000
0010
0000
0100
0000
0010
0100
,  // measure 22
0010
0000
0001
0000
0100
0001
0100
0000
1000
0000
0001
0000
1000
0001
1000
0000
,  // measure 23
0100
0000
1000
0000
0100
0000
0010
0100
0000
0000
0001
0000
1010
0000
0000
0000
,  // measure 24
1000
0000
0100
0000
0010
0000
0100
0000
0010
0000
0000
0100
1000
0000
0100
0010
,  // measure 25
1000
0001
0100
0000
0010
0000
0000
1000
0100
0000
0001
0000
0000
0000
0100
1000
,  // measure 26
0100
0010
0001
0000
0100
0000
0010
0001
0100
0000
1000
0000
0110
0000
0000
0000
,  // measure 27
0001
0000
0100
0000
0010
0000
0000
0100
1000
0000
0100
0000
0010
0000
0000
0100
,  // measure 28
0001
0000
0010
0000
0000
0100
0001
0000
0010
0000
0000
0100
0001
0000
0010
0000
,  // measure 29
0000
0100
0001
0000
0010
0000
0100
0000
0010
0000
0000
0000
1000
0000
0000
0001
,  // measure 30
1000
0000
0001
0000
0100
0000
0000
0010
0100
0000
0001
0000
0000
0000
0100
0000
,  // measure 31
1000
0100
0010
0000
0001
0000
0000
1000
0002
0000
0000
0000
0000
0000
0003
0000
,  // measure 32
1000
0100
0010
0000
0001
0000
0000
1000
0001
0000
0000
0000
0100
0000
0001
0010
,  // measure 33
0100
0000
0010
0000
0100
0000
0000
0010
0100
0000
0000
0000
0001
0100
0010
0001
,  // measure 34
0100
0010
0100
1000
0010
0000
0000
1000
0200
0000
0000
0000
0000
0000
0300
0000
,  // measure 35
0000
0000
0100
0010
0001
0100
0010
0000
0100
0000
0010
0000
0100
0000
0010
0001
,  // measure 36
0100
0000
0010
0000
0001
0000
0100
0000
0010
0000
0100
0000
1000
0000
0100
0010
,  // measure 37
1000
0000
0100
0000
0010
0000
0001
0000
0100
0000
0010
0000
0100
0000
0010
0001
,  // measure 38
0100
0000
0010
1000
0100
0000
1000
0000
0100
0001
1000
0000
0200
0000
0000
0000
,  // measure 39
0300
0000
1000
0010
0100
0001
1000
0000
0100
0000
0010
0000
0001
0000
0100
0000
,  // measure 40
0020
0000
0230
0000
0310
0011
0000
0000
,  // measure 41
0100
0000
1000
0010
0100
0000
1000
0000
0100
0000
0010
0000
0001
0000
0100
0000
,  // measure 42
0020
0000
0230
0000
1300
1100
0000
0000
,  // measure 43
0100
0000
0010
0010
0001
0000
0100
0000
0010
0000
0100
0000
1000
0000
0100
0001
,  // measure 44
0010
0000
0100
0000
0010
0000
0001
0000
0100
0000
0010
0000
0100
0000
1000
0010
,  // measure 45
0100
0000
0010
0000
0001
0000
0100
0000
0010
0000
0100
0000
1000
0000
0100
0001
,  // measure 46
0010
0000
0001
1000
0100
0000
0010
0000
0100
0000
1000
0000
0200
0000
0000
0000
,  // measure 47
0300
0000
1000
0001
0100
0000
1000
0100
1000
0000
0010
0000
0001
0000
1000
0000
,  // measure 48
0002
0000
2003
0000
3001
1001
0000
0000
,  // measure 49
0000
0000
1000
0100
0010
0000
0001
0000
0100
0000
0001
0000
0100
0000
0010
0000
,  // measure 50
0200
0000
0320
0000
0230
0000
0310
0001
,  // measure 51
0100
0000
0010
0000
0100
0000
0000
0100
0000
0000
0010
0000
1000
0000
0100
0000
,  // measure 52
0010
0000
0001
0000
0100
0000
0000
0010
0000
0000
0100
0000
0010
0000
0001
0000
,  // measure 53
0100
0000
0010
0000
0200
0000
0000
0000
0310
0000
0000
0000
1000
0000
0000
0100
,  // measure 54
0000
0000
0010
0000
0001
0000
0100
0000
0010
0000
0001
0000
0100
0000
0000
1000
,  // measure 55
0000
0100
2000
0000
3100
0000
0010
0001
,  // measure 56
0100
0000
0010
0000
0100
0000
0000
0010
0000
0000
0100
0000
0010
0000
0000
0100
,  // measure 57
0000
0000
0010
0000
0200
0000
0300
0001
0000
0000
1000
0000
0100
0000
0010
0000
,  // measure 58
0200
0300
0010
0200
0300
0001
0200
0300
,  // measure 59
2000
0000
3000
0000
0100
0000
0100
0010
0100
0000
0001
0000
0100
0000
0010
0000
,  // measure 60
0100
0000
0010
0000
0001
0000
1000
0001
1000
0000
0100
0000
1000
0000
0100
0000
,  // measure 61
1000
0000
0100
0000
1000
0000
0100
1000
0100
0000
0010
0000
0100
0000
0010
0000
,  // measure 62
0001
0000
0100
0000
0010
0000
0100
0010
0100
0000
0010
0000
0100
0000
0010
0000
,  // measure 63
0001
0000
0100
0000
0001
0000
0100
0001
0100
0000
0000
0000
0100
0000
1000
0000
,  // measure 64
0100
0000
1000
0000
0100
0000
1000
0010
0001
0000
0100
0000
0010
0000
0100
0000
,  // measure 65
0010
0001
0100
0000
0010
0000
0100
0010
,  // measure 66
0001
0000
0100
0000
0010
0000
0100
0010
1000
0000
0100
0000
0010
0000
0100
0000
,  // measure 67
0010
0000
0001
0000
0100
0000
0000
0000
0010
0000
0000
0000
1000
0000
0000
1000
,  // measure 68
0001
0000
1000
0000
0000
1000
0001
0000
1000
0000
0000
1000
0001
0000
1000
0000
,  // measure 69
0000
1000
0001
0000
1000
0000
0000
1000
0001
0000
0000
0000
0001
0000
0000
0001
,  // measure 70
1000
0000
0001
0000
0000
0001
1000
0000
0001
0000
0000
0001
1000
0000
0001
0000
,  // measure 71
0000
0001
1000
0000
0001
0000
0000
0001
1000
0000
0000
0000
1000
0000
0000
1000
,  // measure 72
0001
0000
1000
0000
0000
1000
0001
0000
1000
0000
0000
1000
0001
0000
1000
0000
,  // measure 73
0000
1000
0001
0000
1000
0000
0000
1000
0001
0000
0000
0000
0001
0000
0000
0001
,  // measure 74
1000
0000
0001
0000
0000
0001
1000
0000
0001
0000
0000
0001
1000
0000
0000
0000
;
