#TITLE:NO TE RECUERDO;
#SUBTITLE:;
#ARTIST:Nicole Pillman;
#TITLETRANSLIT:;
#SUBTITLETRANSLIT:;
#ARTISTTRANSLIT:;
#GENRE:AL FONDO HAY SITIO;
#CREDIT:américa;
#MUSIC:NO TE RECUERDO.ogg;
#BANNER:NO TE RECUERDO.png;
#BACKGROUND:BG.png;
#CDTITLE:AL FONDO HAY SITIO.png;
#SAMPLESTART:45.160;
#SAMPLELENGTH:15.000;
#SELECTABLE:YES;
#OFFSET:0.000;
#BPMS:0.000=102.000
,1.000=140.000
;
#STOPS:;
#DISPLAYBPM:140.000;
#JACKET:NO TE RECUERDO-jacket.png;
#DISCIMAGE:;
#CDIMAGE:;
#BGCHANGES:0.000=NO TE RECUERDO.avi=0.000=0=0=0=StretchNoLoop====,
99999=-nosongbg-=1.000=0=0=0 // don't automatically add -songbackground-
;
#FGCHANGES:;

//--------------- dance-single - Wrland ----------------
#NOTES:
     dance-single:
     Wrland:
     Beginner:
     2:
     0,0,0,0,0:
0000
0000
0000
0000
,
0000
0000
0000
0000
,
0000
0000
0000
0000
,
0000
0000
0000
0000
,
0000
0002
0000
0000
,
0000
0000
0000
0003
,
0000
2000
0000
0000
,
0000
0000
3000
0000
,
0000
0000
0000
0010
,
0000
0000
0000
0000
,
0000
2000
0000
3000
,
0000
0002
0000
0003
,
0000
0000
0000
0010
,
0000
0000
0000
0000
,
0000
0002
0000
0003
,
0000
0200
0000
0300
,
0000
0000
0000
0001
,
0000
0000
0000
0000
,
0000
0200
0000
0300
,
0000
0020
0000
0030
,
0000
0000
0000
0100
,
0000
0000
0000
0000
,
0000
2000
0000
3000
,
0000
0200
0000
0300
,
0000
0020
0000
0000
,
0000
0000
0030
0000
,
0000
0100
0000
0000
,
0000
0010
0000
0000
,
0000
0100
0000
0000
,
0000
0000
0000
0000
,
0000
0001
0000
0000
,
0000
0100
0000
0000
,
0000
0100
0000
0000
,
0000
0000
0000
0000
,
0000
0001
0000
0000
,
0000
1000
0000
0000
,
0000
0100
0000
0000
,
0000
0000
0000
0000
,
0000
0010
0000
0000
,
0000
0100
0000
0000
,
0000
0100
0000
0000
,
0000
0000
0000
0000
,
0000
0001
0000
0000
,
0000
1000
0000
0000
,
0000
0010
0000
0000
,
0000
0000
0000
0000
,
0000
0100
0000
0000
,
0000
0100
0000
0000
,
0000
0010
0000
0000
,
0000
0000
0000
0000
,
0000
0001
0000
0000
,
0000
0010
0000
0000
,
0000
1000
0000
0000
,
0000
0000
0000
0000
,
0000
0010
0000
0000
,
0000
0100
0000
0000
,
0000
0001
0000
0000
,
0000
0000
0000
0000
,
0000
2000
0000
0000
,
0000
0000
0000
0000
,
3000
0002
0000
0000
,
0000
0000
0000
0000
,
0003
2000
0000
0000
,
0000
0000
0000
3000
,
0200
0000
0000
0000
,
0000
0000
0000
0000
,
0000
0300
0000
0000
;

//--------------- dance-single - Wrland ----------------
#NOTES:
     dance-single:
     Wrland:
     Easy:
     5:
     0,0,0,0,0:
0000
0000
0000
0000
,
0000
0000
0000
0000
,
0000
0000
0000
0000
,
0000
0000
0000
0000
,
0000
0002
0000
0000
,
0000
0000
0000
0003
,
0000
2000
0000
0000
,
0000
0000
3000
0000
,
0000
0100
0000
0010
,
0000
0001
0000
0100
,
0000
2000
0000
3000
,
0000
0002
0000
0003
,
0000
0100
0000
0010
,
0000
0100
0000
0010
,
0000
0002
0000
0003
,
0000
0200
0000
0300
,
0000
0010
0000
0001
,
0000
0100
0000
1000
,
0000
0200
0000
0300
,
0000
0020
0000
0030
,
0000
0001
0000
0100
,
0000
0010
0000
0100
,
0000
2000
0000
3000
,
0000
0200
0000
0300
,
0000
0020
0000
0000
,
0000
0000
0030
0000
,
0000
0100
0000
0100
,
0000
0010
0000
0001
,
0000
0100
0000
0000
,
0000
0010
0000
0000
,
0000
0001
0000
1000
,
0000
0100
0000
1000
,
0000
0100
0000
0000
,
0000
0010
0000
0000
,
0000
0001
0000
0100
,
0000
1000
0000
0100
,
0000
1000
0000
0000
,
0000
0100
0000
0000
,
0000
0010
0000
0001
,
0000
0100
0000
0010
,
0000
0100
0000
0000
,
0000
0010
0000
0000
,
0000
0001
0000
0100
,
0000
1000
0000
0100
,
0000
0010
0000
0000
,
0000
0001
0000
0000
,
0000
0100
0000
1000
,
0000
0100
0000
1000
,
0000
0100
0000
0000
,
0000
0010
0000
0000
,
0000
0001
0000
0100
,
0000
0010
0000
0100
,
0000
1000
0000
0000
,
0000
0100
0000
0000
,
0000
0010
0000
0001
,
0000
0100
0000
0010
,
0000
0001
0000
0000
,
0000
0100
0000
0000
,
0000
2000
0000
0000
,
0000
0000
0000
0000
,
3000
0002
0000
0000
,
0000
0000
0000
0000
,
0003
2000
0000
0000
,
0000
0000
0000
3000
,
0200
0000
0000
0000
,
0000
0000
0000
0000
,
0000
0310
0000
0000
;

//--------------- dance-single - Wrland ----------------
#NOTES:
     dance-single:
     Wrland:
     Medium:
     8:
     0,0,0,0,0:
0000
0000
0000
0000
,
0000
0000
0000
0000
,
0000
0000
0000
0000
,
0000
0000
0000
0000
,
0000
2000
0000
3000
,
0100
2000
0000
3000
,
0100
0020
0000
0030
,
0001
0200
0000
0000
,
0000
0310
0000
0001
,
0100
0000
0010
0000
0100
0000
1000
0001
,
0200
0000
0000
0000
0000
0000
0300
0010
,
0001
0000
0100
0000
0010
0100
0000
1000
,
0100
1000
0000
0100
,
1000
0100
0010
0001
,
0100
0002
0000
0000
0003
0000
0100
0000
,
0010
0000
0001
0100
0000
0010
0000
0100
,
0000
2000
0000
0000
3000
0000
0100
0000
,
1000
0100
0010
0001
,
0100
0000
0020
0000
0000
0030
0001
0000
,
0100
0000
0010
0000
0000
0100
0000
1000
,
0000
0200
0000
0000
0300
0000
1000
0000
,
0100
0010
0001
0100
,
0010
0200
0300
0010
,
0000
0000
0001
0000
0100
0001
0000
0000
,
0100
0020
0000
0000
,
0000
0130
0000
0000
,
0000
1000
1000
0001
,
1000
0002
0000
0003
0100
0000
1000
0000
,
0100
1000
0000
0200
0000
0300
0000
0000
,
0100
0010
0001
0100
,
0020
0000
0030
0100
,
1000
0000
0100
0000
0000
0010
0000
0001
,
0000
0200
0000
0000
0300
0000
0010
0000
,
0001
0100
0000
1000
,
0100
1000
0100
0000
0000
0000
0100
0000
,
0010
0001
0100
0010
,
0100
0010
0000
0200
0000
0000
0300
0000
,
1000
0000
0100
1000
0000
0100
0000
0010
,
0000
0002
0000
0000
0003
0000
0100
0000
,
0010
0001
0100
0010
,
0002
0000
0000
0003
0000
0000
0100
0000
,
1000
0100
1000
0100
,
0010
0000
1000
0000
1000
0000
0001
0010
,
1000
0001
0010
0000
0100
0000
1000
0000
,
0100
1000
0000
0200
0000
0000
0300
0000
,
0100
0010
0001
0100
,
0010
0002
0003
0100
,
1000
0000
0100
0000
0000
0010
0000
0001
,
0000
0200
0000
0000
0300
0000
0010
0000
,
0001
0200
0300
1000
,
0100
1000
0100
0000
0000
0000
0100
0000
,
0010
0001
0100
0010
,
0100
0010
0000
0200
0000
0000
0300
0000
,
1000
0000
0100
1000
0000
0100
0000
0010
,
0000
0002
0000
0000
0003
0000
0100
0000
,
0010
0001
0100
0010
,
0002
0000
0003
0100
,
1000
0100
1000
0100
,
0010
0000
0002
0000
0003
0200
0000
0300
,
1000
0200
0000
0300
,
0000
0000
0200
0000
0300
0020
0000
0030
,
0001
0200
0000
0300
,
0000
0000
0020
0000
0030
0200
0000
0300
,
1000
0200
0000
0300
,
0000
0000
0200
0000
0300
0020
0000
0030
,
0001
0200
0000
0300
,
0000
0020
0000
0000
,
0000
0000
0000
0000
,
0130
0000
0000
0000
;

//--------------- dance-single - Wrland ----------------
#NOTES:
     dance-single:
     Wrland:
     Hard:
     11:
     0,0,0,0,0:
0000
0000
0000
0000
,
0000
0000
0000
0000
,
0000
0000
0000
0000
,
0000
0000
0000
0000
,
0000
2000
0000
3000
,
0001
0000
0200
0000
0300
0020
0000
0030
,
0001
0000
0200
0000
0300
0020
0000
0030
,
0100
0000
0020
0000
0030
0002
0000
0003
,
0100
0001
0020
0000
0030
0100
0010
0200
,
0300
0020
0030
0002
0003
0200
0300
1000
,
0200
0000
0000
0000
0300
0000
0000
0100
,
0010
0001
0200
0300
0010
0200
0300
0010
,
0002
0000
0000
0003
0000
0100
0010
0200
,
0300
2000
3000
0200
0300
2000
3000
0100
,
2000
0000
0000
0000
3000
0000
0000
0010
,
0001
0100
0010
0200
0300
0020
0030
0002
,
0003
0200
0000
0300
0000
0100
0010
0200
,
0300
0020
0030
0002
0003
0200
0300
0020
,
0030
0200
0000
0000
0000
0300
0000
0000
,
0010
0001
0100
0002
0003
0200
0300
2000
,
3000
0200
0000
0300
0000
1000
0100
2000
,
3000
0200
0300
0020
0030
0002
0003
0200
,
0300
0020
0000
0000
0000
0000
0030
0000
,
0000
0000
0200
0300
0010
0002
0003
0100
,
0020
0000
0000
0000
,
0000
0000
0130
0000
0000
0000
1000
0001
,
0000
1001
1000
0100
,
1000
0200
0000
0000
0310
0000
0010
0000
,
0001
0200
0000
0310
0000
0000
0001
0000
,
0100
0010
0100
0010
0000
0001
0000
0100
,
0000
0010
0100
0000
1000
0000
0100
1000
,
0100
1000
0100
0020
0030
0002
0003
0200
,
0300
0020
0030
0001
0000
0100
0010
0100
,
0010
0100
0020
0030
0002
0003
0200
0000
,
1300
0000
0110
0000
0000
0000
0010
0001
,
0100
0010
0200
0300
2000
3000
0200
0300
,
0010
0002
0003
0200
0300
0000
0010
0100
,
0010
0001
0100
0020
0030
0200
0300
0020
,
0030
0001
0100
0000
0010
0000
0100
1000
,
0100
1000
0100
0020
0030
0002
0003
0100
,
0020
0000
0130
0000
0010
0001
0100
0010
,
0100
1000
0200
0300
2000
3000
0200
0300
,
0010
0000
1001
0000
0100
0000
1000
0100
,
1000
0100
0020
0030
0002
0003
0200
0300
,
0010
0200
0300
0020
0000
0030
0000
0001
,
0100
0001
0100
0002
0003
0200
0300
2000
,
3000
0100
2000
3000
0100
0000
0010
0001
,
0100
0010
0100
0020
0030
0002
0003
0200
,
0300
0020
0030
0100
0000
1000
0100
1000
,
0100
1000
0200
0300
0020
0030
0002
0003
,
0100
0000
0011
0000
0000
0000
0100
0010
,
0100
0010
0002
0003
0200
0300
0020
0030
,
0100
2000
3000
0200
0300
0000
0000
1000
,
0100
1000
0100
0020
0030
0002
0003
0200
,
0300
0020
0000
0000
0030
1000
0001
0100
,
0010
0100
1000
0200
0300
0020
0030
0001
,
0200
0300
0010
0000
0001
0100
0010
0100
,
1000
0100
2000
3000
0200
0300
0020
0030
,
0002
0003
0200
0000
0300
0020
0000
0030
,
0001
0000
0200
0000
0300
2000
0000
3000
,
0100
0000
2000
0000
3000
0200
0000
0300
,
0010
0000
0002
0000
0003
0100
0000
0010
,
0001
0000
0200
0000
0300
2000
0000
3000
,
0100
0000
2000
0000
3000
0200
0000
0300
,
0010
0000
0002
0000
0003
0200
0000
0300
,
0010
0000
0002
0000
0003
0200
0000
0300
,
0010
0000
0200
0000
0000
0300
0010
0000
,
0001
0000
0200
0000
0000
0300
2000
0000
,
0000
3001
0000
0000
;
