#VERSION:0.83;
#TITLE:NEON PULSE;
#SUBTITLE:;
#ARTIST:NIXIE AURA;
#TITLETRANSLIT:;
#SUBTITLETRANSLIT:;
#ARTISTTRANSLIT:;
#GENRE:AI VOCALOID;
#CREDIT:NIXIE AURA;
#MUSIC:NEON PULSE.ogg;
#BANNER:NEON PULSE.png;
#BACKGROUND:BG.png;
#JACKET:NEON PULSE-jacket.png;
#DISCIMAGE:;
#CDIMAGE:;
#SELECTABLE:YES;
#LYRICSPATH:;
#CDTITLE:VOCALOID.png;
#SAMPLESTART:39.755;
#SAMPLELENGTH:15.000;
#OFFSET:-0.034;
#BPMS:0.000000=106.493000;
#STOPS:;
#WARPS:;
#DELAYS:;
#SPEEDS:;
#SCROLLS:;
#TICKCOUNTS:;
#TIMESIGNATURES:;
#LABELS:;
#COMBOS:;
#FAKES:;
#BGCHANGES:0.000=NEON PULSE.avi=0.000=0=0=0=StretchNoLoop====,
99999=-nosongbg-=1.000=0=0=0 // don't automatically add -songbackground-
;
#FGCHANGES:;
#ATTACKS:;
#DISPLAYBPM:106.000;

//---------------dance-single - Wrland---------------
#NOTEDATA:;
#CHARTNAME:;
#CHARTSTYLE:Pad;
#CREDIT:Wrland;
#STEPSTYPE:dance-single;
#DESCRIPTION:Wrland;
#DIFFICULTY:Beginner;
#METER:3;
#METERF:3;
#RADARVALUES:0,0,0,0,0;
#NOTES:
// measure 0
0000
0000
0000
0000
,  // measure 1
0000
0000
0000
0000
,  // measure 2
0100
0000
0010
0000
,  // measure 3
0010
0000
1000
0000
,  // measure 4
0001
0000
0001
0000
,  // measure 5
0110
0000
0000
0000
,  // measure 6
0100
0000
0100
0000
,  // measure 7
0100
0000
0001
0000
,  // measure 8
0100
0000
1000
0000
,  // measure 9
1000
0000
0001
0000
,  // measure 10
0100
0000
0010
0000
,  // measure 11
0001
0000
1000
0000
,  // measure 12
0100
0000
0001
0000
,  // measure 13
0100
0000
0000
0000
,  // measure 14
1000
0000
0000
0000
,  // measure 15
0100
0000
0000
0000
,  // measure 16
0100
0000
0000
0000
,  // measure 17
1000
0000
0000
0000
,  // measure 18
1000
0000
1000
0000
,  // measure 19
0100
0000
0001
0000
,  // measure 20
0100
0000
0100
0000
,  // measure 21
0010
0000
0100
0000
,  // measure 22
0100
0000
0100
0000
,  // measure 23
1000
0000
0010
0000
,  // measure 24
0001
0000
0010
0000
,  // measure 25
0001
0000
0001
0000
,  // measure 26
0020
0000
0000
0000
,  // measure 27
0000
0000
0000
0000
0000
0030
0000
0000
,  // measure 28
0200
0000
0000
0000
,  // measure 29
0000
0000
0000
0300
0000
0000
0000
0000
;

//---------------dance-single - Wrland---------------
#NOTEDATA:;
#CHARTNAME:;
#CHARTSTYLE:Pad;
#CREDIT:Wrland;
#STEPSTYPE:dance-single;
#DESCRIPTION:Wrland;
#DIFFICULTY:Medium;
#METER:9;
#METERF:9;
#RADARVALUES:0,0,0,0,0;
#NOTES:
// measure 0
0000
0000
0000
0000
,  // measure 1
0000
0000
0000
0000
,  // measure 2
0100
0000
0100
0010
0001
0000
0100
0000
,  // measure 3
0010
0000
0001
0000
0100
0010
0200
0000
,  // measure 4
0310
0000
0001
0000
0100
1000
0100
0000
,  // measure 5
1000
0100
0001
0010
1001
0000
0000
0000
,  // measure 6
0100
0001
0010
0100
0001
0100
0020
0000
,  // measure 7
0130
0000
0000
0001
0000
0000
1000
0000
0000
0010
0000
0000
0100
0000
0010
1000
0000
0000
0100
0000
0000
0010
0000
0000
,  // measure 8
0001
0000
0000
0010
0000
0000
0100
0000
0000
0010
0000
0000
0001
0000
0100
0010
0000
0000
0100
0000
0000
0010
0000
0000
,  // measure 9
0001
0000
0010
0100
0000
0000
1000
0000
0000
0100
0000
0000
1000
0000
0100
1000
0000
0000
0200
0000
0000
0000
0000
0000
,  // measure 10
0310
0001
0100
0010
0001
0100
0020
0000
,  // measure 11
0130
1000
0100
1000
0100
0010
0002
0000
,  // measure 12
1003
0000
0000
0100
0000
0010
0000
0000
0001
0000
0000
1000
0001
0000
0000
1000
0000
0000
0100
0000
0000
0010
0000
0000
,  // measure 13
0100
0000
0001
0010
0000
0100
0001
0000
0000
0010
0000
0000
0200
0000
0000
0000
0000
0000
0000
0000
0000
0000
0000
0000
,  // measure 14
0310
0000
0001
0100
0000
0000
0001
0100
0001
0000
0100
0000
0020
0000
0000
0000
,  // measure 15
0130
0000
0000
1000
0000
0010
0100
0000
0000
0001
0000
0010
0100
0000
1000
0100
0000
0010
0002
0000
0000
0000
0000
0000
,  // measure 16
0103
0000
0000
0000
0000
0000
0010
0000
0000
0100
0000
0000
0000
0000
0000
0000
0000
0000
0010
0000
0000
0000
0000
0000
0001
0000
0000
0000
0000
0000
0100
0000
0000
0000
0000
0000
0010
0000
0000
0000
0001
0000
0010
0000
0000
0000
0000
0000
,  // measure 17
0100
0000
1000
0001
0000
0000
0100
0000
0001
0010
0000
0000
0200
0000
0000
0000
0000
0000
0000
0000
0000
0000
0000
0000
,  // measure 18
0310
0001
1000
0100
1000
0000
0100
1000
,  // measure 19
0100
0010
0001
0100
0010
0000
0001
0100
,  // measure 20
0010
0000
0001
0100
0010
0000
0100
1000
,  // measure 21
0100
0010
0001
0100
0010
0000
0001
0100
,  // measure 22
0010
0000
0000
0000
0000
0000
0100
0000
0000
0001
0000
0100
0002
0000
0000
0000
0000
0000
0103
0000
0000
1000
0000
0000
,  // measure 23
0100
0000
0000
0010
0000
0000
0001
0000
0000
0100
0000
0010
0200
0000
0000
0000
0000
0000
0310
0000
0000
0001
0000
0000
,  // measure 24
0100
0000
0000
0010
0000
0000
1000
0000
0000
0100
0000
1000
0200
0000
0000
0000
0000
0000
0310
0000
0000
0001
0000
0000
,  // measure 25
0100
0010
0001
0100
0020
0000
0130
0000
,  // measure 26
0010
0001
0100
0010
,  // measure 27
0100
0000
1000
0000
0100
1000
0100
0000
,  // measure 28
1000
0100
1000
0000
0100
0010
0001
0000
,  // measure 29
1000
0001
1000
0001
1001
0000
0000
0000
;

//---------------dance-single - Wrland---------------
#NOTEDATA:;
#CHARTNAME:;
#CHARTSTYLE:Pad;
#CREDIT:Wrland;
#STEPSTYPE:dance-single;
#DESCRIPTION:Wrland;
#DIFFICULTY:Hard;
#METER:11;
#METERF:11;
#RADARVALUES:0,0,0,0,0;
#NOTES:
// measure 0
0000
0000
0000
0000
,  // measure 1
0000
0000
0000
0000
,  // measure 2
0001
0001
1000
0000
0001
1000
0100
0000
,  // measure 3
1000
0000
0000
0100
0000
0000
0010
0000
0000
0001
0000
0100
0001
0000
0000
0100
0000
0000
0020
0000
0000
0000
0000
0000
,  // measure 4
0130
0100
0010
0000
0001
0001
0100
0000
,  // measure 5
0010
0100
0010
0100
0020
0000
0030
0000
,  // measure 6
0001
0000
0000
0100
0000
0000
0010
0000
0000
0001
0000
0000
0100
0000
0001
0000
0000
0200
0000
0000
0000
0300
0000
0000
,  // measure 7
0010
0000
0000
0100
0000
0000
1000
0000
0000
0100
0000
0000
1000
0000
0100
0000
0000
2000
0000
0000
0000
3000
0000
0000
,  // measure 8
0100
0010
0001
0100
0010
0100
0010
0001
,  // measure 9
0100
1000
0010
0100
0001
0000
0010
0000
0100
0010
0100
0000
0002
0000
0000
0000
,  // measure 10
1003
0000
0000
0100
0000
0000
0010
0000
0000
0001
0000
0000
0100
0000
0100
1000
0000
0000
0002
0000
0000
0000
0000
0000
,  // measure 11
0103
0000
0010
0100
0000
0001
0010
0000
0000
0100
0000
0000
1000
0000
0000
0100
0000
0000
2000
0000
0000
0000
0000
0000
,  // measure 12
3001
0000
0000
0100
0000
0010
0000
0000
0001
0000
0000
0100
0010
0000
0000
0100
0000
0000
1000
0000
0000
0001
0000
1000
,  // measure 13
0100
0010
0001
0100
0010
0100
0020
0000
,  // measure 14
0130
0000
0100
1000
0000
0000
0100
0000
0010
0000
0001
0000
0200
0000
0000
0000
,  // measure 15
1300
0000
0000
0010
0000
0000
0001
0000
0000
0100
0000
0001
0010
0000
1000
0100
0000
0001
0020
0000
0000
0000
0000
0000
,  // measure 16
0130
0000
0000
0000
0000
0000
0010
0000
0000
0001
0000
0000
0000
0000
0000
0000
0000
0000
0100
0000
0000
0000
0000
0000
0010
0000
0000
0000
0100
0000
0001
0000
0000
0000
0010
0000
0100
0000
0000
0000
0000
0000
0010
0000
0000
0000
0000
0000
,  // measure 17
0001
0000
0100
0010
0000
0000
0001
0000
0100
0001
0000
0000
0200
0000
0000
0000
0000
0000
0000
0000
0000
0000
0000
0000
,  // measure 18
0311
0000
0000
0001
0000
0000
1000
0000
0000
0100
0000
0010
1000
0000
0000
0001
0000
0000
0100
0000
0000
1000
0000
0000
,  // measure 19
0100
0000
0000
0010
0000
0000
0100
0000
0000
0010
0000
0100
0001
0000
0000
0010
0000
0000
0100
0000
0000
0010
0000
0000
,  // measure 20
1001
0000
0000
0000
0000
0010
0100
0000
1000
0010
0000
0000
0100
0000
0000
0000
0000
0001
0100
0000
0000
0010
0000
0000
,  // measure 21
0100
1000
0100
0010
0001
0100
0010
0001
,  // measure 22
1100
0000
0000
0000
0000
0010
0100
0000
0000
0010
0000
0000
0002
0000
0000
0000
0000
0000
0103
0000
0000
1000
0000
0000
,  // measure 23
0100
0000
0000
1000
0000
0000
0100
0000
0001
0010
0000
0000
0002
0000
0000
0000
0000
0000
0103
0000
1000
0010
0000
0100
,  // measure 24
0001
0000
0000
0100
0000
0001
0010
0000
0001
0100
0000
0000
2000
0000
0000
0000
0000
0000
3100
0000
0000
1000
0000
0000
,  // measure 25
0100
0000
0010
0100
0000
0000
0001
0000
0100
0001
0000
0000
0100
0000
0000
0010
0000
0000
0100
0000
0000
0000
0000
0000
,  // measure 26
1000
0100
1000
0100
,  // measure 27
0010
0000
0001
0000
0100
0010
0100
0000
,  // measure 28
0010
0001
0100
0000
0010
0100
1000
0000
,  // measure 29
1000
0100
1000
0100
0001
0000
0000
0000
;

//---------------dance-single - Wrland---------------
#NOTEDATA:;
#CHARTNAME:;
#CHARTSTYLE:Pad;
#CREDIT:Wrland;
#STEPSTYPE:dance-single;
#DESCRIPTION:Wrland;
#DIFFICULTY:Challenge;
#METER:13;
#METERF:13;
#RADARVALUES:0,0,0,0,0;
#NOTES:
// measure 0
0000
0000
0000
0000
,  // measure 1
0000
0000
0000
0000
,  // measure 2
0001
0000
0000
1000
0000
0000
0100
0000
0010
0100
0000
0000
1000
0000
0000
0100
0000
0000
0010
0000
0001
0100
0000
0000
,  // measure 3
0010
0000
0000
0100
0000
0000
1000
0000
0000
0010
0000
0001
0100
0000
0000
1000
0000
0100
1000
0000
0000
0100
0000
0010
,  // measure 4
0100
0000
0000
0001
0000
0000
0100
0000
0000
0010
0000
0000
0100
0000
0010
0100
0000
0000
1000
0000
0000
0100
0000
0010
,  // measure 5
0002
0000
0000
1003
0000
0010
0200
0000
0000
1300
0000
0010
0002
0000
0000
0023
0000
0000
1030
0000
0001
1000
0000
0001
,  // measure 6
1001
0000
0000
0100
0000
0010
0200
0000
0300
0001
0000
0100
0001
0000
0200
0000
0300
0020
0000
0030
0100
0010
0000
0000
,  // measure 7
0002
0000
0003
0100
0000
0010
0200
0000
0300
0010
0000
0001
0100
0000
2000
0000
3000
0200
0000
0300
1000
0100
0000
0000
,  // measure 8
0001
0000
0100
0010
0000
0001
0200
0000
0300
1000
0000
0100
0020
0000
0030
0002
0000
0003
0100
0000
0010
0100
0000
1000
,  // measure 9
0010
0000
0001
0100
0000
0001
2000
0000
3000
0100
0000
0010
1000
0000
0100
0010
0000
0000
2002
0000
3003
0100
0000
0000
,  // measure 10
0010
0000
0001
0100
0000
0001
0100
0000
1000
0010
0000
0001
0100
0000
0010
0100
0000
0001
0020
0000
0000
0100
0000
0000
,  // measure 11
1030
0000
0100
0010
0000
0001
0100
0000
0010
0100
0000
0001
0100
0000
0010
0100
0000
1000
0200
0000
0000
0001
0000
0001
,  // measure 12
0320
0000
0000
0000
0030
0000
0100
0000
0000
0002
0000
0000
0003
0000
0000
0100
0000
0000
0000
0000
0000
0000
0010
0000
0100
0000
0000
0000
1000
0000
0001
0000
0000
0000
0010
0000
0100
0000
0000
0000
0000
0000
0100
0000
0000
0000
0000
0000
,  // measure 13
0010
0000
0001
0100
0000
0001
0100
0000
0000
0010
0000
0100
1000
0000
0000
0100
0000
0000
0020
0000
0000
0000
0000
0000
,  // measure 14
0031
0000
0000
0100
0000
0010
0000
0000
0000
0001
0000
0100
0001
0000
0010
0000
0000
0200
0000
0300
0000
0001
0000
0010
,  // measure 15
0100
0000
0000
0010
0000
0001
0100
0000
0000
0010
0000
0100
1000
0000
0001
0000
0000
2000
0000
3000
0100
1000
0000
0100
,  // measure 16
0010
0000
0000
0100
0000
0002
0000
0003
0000
0010
0000
1000
0100
0000
0010
0100
0000
0010
0100
0000
0001
0010
0000
0100
,  // measure 17
1000
0000
0100
0010
0000
0100
0001
0000
0000
0020
0000
0000
0130
0000
0000
0001
0000
0100
0001
0000
0000
1000
0000
0000
,  // measure 18
0110
0000
0000
1000
0000
0100
1000
0000
0000
0100
0000
0001
0100
0000
0000
0001
0000
0010
0100
0000
0000
1000
0000
0000
,  // measure 19
0100
0000
0001
0100
0000
0000
0010
0000
0001
0100
0000
0000
0010
0000
0001
0100
0000
0010
0100
0000
0010
0001
0000
0000
,  // measure 20
0200
0000
0300
0000
0000
0001
0010
0000
0100
1000
0000
0000
0200
0000
0300
0010
0000
0100
0010
0000
1000
0001
0000
0100
,  // measure 21
0010
0000
0000
0100
0000
0000
0010
0000
0000
0001
0000
0010
0100
0000
0010
0001
0000
1000
0100
0000
0000
0020
0000
0000
,  // measure 22
0130
0000
0000
0000
0000
0010
0100
0000
0001
0010
0000
0000
0002
0000
0000
0003
0000
0100
1000
0000
0010
0100
0000
0010
,  // measure 23
0001
0000
0010
0100
0000
0100
0010
0000
0001
0100
0000
1000
0200
0000
0000
0300
0000
0001
0010
0000
0001
0100
0000
0001
,  // measure 24
0100
0000
1000
0000
0000
0010
0100
0000
0001
0100
0000
0001
0020
0000
0000
0030
0000
1000
0100
0000
0100
1000
0000
0001
,  // measure 25
0020
0000
0000
0130
0000
0000
0020
0000
0000
0031
0000
0000
0200
0000
0000
0300
0000
0001
0010
0000
0100
0010
0000
0000
,  // measure 26
0100
0000
1000
0100
1000
0000
0100
0010
,  // measure 27
0001
0000
1000
0000
0001
0000
1000
0001
1000
0000
0100
0000
2000
0000
0000
0000
,  // measure 28
3100
0000
0000
0010
0000
0000
0100
0000
0000
0001
0000
0010
0100
0000
0000
1000
0000
0010
0100
0000
0000
0001
0000
0000
,  // measure 29
2000
3001
2000
3001
1000
0000
0000
0000
;

//---------------dance-single - Wrland---------------
#NOTEDATA:;
#CHARTNAME:;
#CHARTSTYLE:Pad;
#CREDIT:Wrland;
#STEPSTYPE:dance-single;
#DESCRIPTION:Wrland;
#DIFFICULTY:Easy;
#METER:5;
#METERF:5;
#RADARVALUES:0,0,0,0,0;
#NOTES:
// measure 0
0000
0000
0000
0000
,  // measure 1
0000
0000
0000
0000
,  // measure 2
0100
0000
0100
0000
0010
0001
0100
0000
,  // measure 3
0010
0100
1000
0100
,  // measure 4
0001
0000
0100
0000
0001
0100
0010
0000
,  // measure 5
0110
0110
0110
0000
,  // measure 6
0100
0000
1000
0000
0100
1000
0100
0000
,  // measure 7
0100
0000
0010
0000
0001
0100
0001
0000
,  // measure 8
0100
0000
0010
0000
0100
0010
0100
0000
,  // measure 9
1000
0000
0100
0000
1000
0100
1000
0000
,  // measure 10
0100
0000
0001
0000
0100
0001
0100
0000
,  // measure 11
0010
0000
0100
0000
1000
0100
1000
0000
,  // measure 12
0100
0000
0010
0000
0001
0100
0001
0000
,  // measure 13
0100
0010
0002
0000
,  // measure 14
0103
0000
1000
0000
0100
1000
0100
0000
,  // measure 15
0100
0000
0010
0000
0001
0100
0001
0000
,  // measure 16
0100
0000
0010
0000
0100
0010
0001
0000
,  // measure 17
0100
0010
0002
0000
,  // measure 18
1003
0100
1000
0000
,  // measure 19
0100
0010
0001
0000
,  // measure 20
0100
1000
0100
0000
,  // measure 21
0010
0001
0100
0000
,  // measure 22
0100
1000
0100
0000
,  // measure 23
1000
0100
0010
0000
,  // measure 24
0001
0100
0010
0000
,  // measure 25
0001
0100
0001
0100
,  // measure 26
0020
0000
0230
0000
,  // measure 27
2300
0000
3200
0000
,  // measure 28
0310
0010
0100
0100
,  // measure 29
0110
0110
1001
0000
;
