#TITLE:My Man on Willpower;
#SUBTITLE:;
#ARTIST:Sabrina Carpenter;
#TITLETRANSLIT:;
#SUBTITLETRANSLIT:;
#ARTISTTRANSLIT:;
#GENRE:Pop;
#CREDIT:Island;
#MUSIC:My Man on Willpower.ogg;
#BANNER:My Man on Willpower.png;
#BACKGROUND:BG.png;
#CDTITLE:Popular.png;
#SAMPLESTART:27.966;
#SAMPLELENGTH:15.000;
#SELECTABLE:YES;
#OFFSET:0.034;
#BPMS:0.000=120.000;
#STOPS:;
#DISPLAYBPM:120.000;
#JACKET:My Man on Willpower-jacker.png;
#TAGS:DMCA;
#BGCHANGES:0.000=My Man on Willpower.avi=0.000=0=0=0=StretchNoLoop====,
99999=-nosongbg-=1.000=0=0=0 // don't automatically add -songbackground-
;
#FGCHANGES:;

//--------------- dance-single - Wrland ----------------
#NOTES:
     dance-single:
     Wrland:
     Beginner:
     1:
     0,0,0,0,0:
0000
0000
0000
0000
,
0000
0000
0000
0000
,
0000
0000
0000
0000
,
0000
0000
0000
0000
,
0000
0000
0000
0000
,
0000
0000
0000
0000
,
0001
0000
0000
0000
,
1000
0000
0000
0000
,
0001
0000
0000
0000
,
1000
0000
0000
0000
,
0100
0000
0000
0000
,
0100
0000
0000
0000
,
0010
0000
0000
0000
,
0001
0000
0000
0000
,
0010
0000
0000
0000
,
0100
0000
0000
0000
,
1000
0000
0000
0000
,
0100
0000
0000
0000
,
0010
0000
0000
0000
,
0100
0000
0000
0000
,
0010
0000
0000
0000
,
0001
0000
0000
0000
,
1000
0000
0000
0000
,
1000
0000
0000
0000
,
0100
0000
0000
0000
,
0010
0000
0000
0000
,
0001
0000
0000
0000
,
1000
0000
0000
0000
,
0001
0000
0000
0000
,
1000
0000
0000
0000
,
0100
0000
0000
0000
,
0010
0000
0000
0000
,
0000
0000
0000
0000
,
0000
0000
0000
0000
,
0001
0000
0000
0000
,
1000
0000
0000
0000
,
0100
0000
0000
0000
,
0000
0000
0000
0000
,
0010
0000
0000
0000
,
0100
0000
0000
0000
,
0010
0000
0000
0000
,
0001
0000
0000
0000
,
1000
0000
0000
0000
,
0100
0000
0000
0000
,
0010
0000
0000
0000
,
0100
0000
0000
0000
,
0010
0000
0000
0000
,
0001
0000
0000
0000
,
1000
0000
0000
0000
,
0100
0000
0000
0000
,
0010
0000
0000
0000
,
0100
0000
0000
0000
,
0010
0000
0000
0000
,
0001
0000
0000
0000
,
2000
0000
0000
0000
,
0000
0000
0000
0000
,
3000
0000
0000
0000
,
0000
0000
0000
0000
,
0002
0000
0000
0000
,
0000
0000
0000
0000
,
0003
0000
0000
0000
;

//--------------- dance-single - Wrland ----------------
#NOTES:
     dance-single:
     Wrland:
     Easy:
     3:
     0,0,0,0,0:
0000
0000
0000
0000
,
0000
0000
0000
0000
,
0000
0000
0000
0000
,
0000
0000
0000
0000
,
0000
0000
0000
0000
,
0000
0000
0000
0000
,
0001
0000
0001
0000
,
1000
0000
1000
0000
,
0001
0000
0001
0000
,
1000
0000
1000
0000
,
0100
0000
0010
0000
,
0100
0000
0010
0000
,
0010
0000
1000
0000
,
0001
0000
0100
0000
,
0010
0000
0001
0000
,
0100
0000
0010
0000
,
1000
0000
0001
0000
,
0100
0000
1000
0000
,
0010
0000
0100
0000
,
0100
0000
0010
0000
,
0010
0000
0001
0000
,
0001
0000
1000
0000
,
1000
0000
0100
0000
,
1000
0000
0001
0000
,
0100
0000
1000
0000
,
0010
0000
0100
0000
,
0001
0000
0010
0000
,
1000
0000
0100
0000
,
0001
0000
0010
0000
,
1000
0000
1000
0000
,
0100
0000
0001
0000
,
0010
0000
0000
0000
1000
0000
0000
2002
,
0000
0000
0000
0000
,
0000
0000
3003
0000
,
0001
0000
0001
0000
,
1000
0000
1000
0000
,
0100
0000
0010
0000
,
0001
0000
1000
0000
,
0010
0000
0100
0000
,
0100
0000
0010
0000
,
0010
0000
0001
0000
,
0001
0000
0100
0000
,
1000
0000
0010
0000
,
0100
0000
0001
0000
,
0010
0000
1000
0000
,
0100
0000
1000
0000
,
0010
0000
0100
0000
,
0001
0000
0010
0000
,
1000
0000
0001
0000
,
0100
0000
0001
0000
,
0010
0000
1000
0000
,
0100
0000
0010
0000
,
0010
0000
0100
0000
,
0001
0000
0010
0000
,
2000
0000
0000
0000
,
0000
0000
0000
0000
,
3000
0000
0000
0000
,
0000
0000
0000
0000
,
0002
0000
0000
0000
,
0000
0000
0000
0000
,
0003
0000
0000
0000
;

//--------------- dance-single - Wrland ----------------
#NOTES:
     dance-single:
     Wrland:
     Medium:
     8:
     0,0,0,0,0:
0000
0000
0000
0000
,
0000
0000
0000
0000
,
0000
0000
0000
0000
,
0000
0000
0000
0000
,
0000
0000
0000
0000
,
0000
0000
0000
0000
,
0100
0100
0000
0000
0010
0010
0000
0000
,
0001
0000
0100
0001
0000
0100
0010
0000
,
1000
1000
0000
0000
0100
0100
0000
0000
,
1000
0000
0100
1000
0000
0100
1000
0000
,
0100
0100
0000
0000
0010
0010
0000
0000
,
0001
0000
0100
0001
0000
0100
0010
0000
,
2000
0000
0000
0000
3000
0000
0200
0000
0000
0300
0000
0000
2000
0000
0000
3000
,
0000
0000
0200
0000
0000
0300
0000
0000
0100
0000
0000
0000
0010
0000
0000
0000
,
0001
0100
0000
0000
0010
0100
0000
0000
,
1000
0100
1000
0100
0000
0100
0010
0000
,
0001
0100
0000
0000
0010
0100
0000
0000
,
1000
0100
1000
0100
0000
0100
0010
0000
,
0001
0100
0000
0000
0010
0100
0000
0000
,
1000
0100
0010
0001
0000
0100
0001
0000
,
0200
0000
0000
0000
0300
0000
0020
0000
0000
0030
0000
0000
0200
0000
0000
0300
,
0000
0000
2000
0000
0000
3000
0000
0000
0100
0000
0000
0000
1000
0000
0100
0000
,
1000
0000
0100
0000
0010
0001
0000
0100
,
0010
0000
0100
0000
0010
0001
0000
0100
,
0010
0100
1000
0100
0010
0001
0000
0100
,
0010
0000
0100
0000
0000
0000
0100
0010
,
0001
0100
1000
0000
,
0100
0000
1000
0000
0100
1000
0000
0100
,
0010
0000
0001
0000
0100
0001
0000
0100
,
0010
0000
0000
0000
0000
0000
0100
0010
,
0001
0100
0000
0010
0100
0000
0001
0100
,
0001
0100
0000
1000
0100
0000
0100
0010
,
0000
0001
0100
0000
0010
0100
1000
0100
,
1000
0000
0000
0000
0100
0000
0010
0001
,
0100
0000
0010
0000
0100
0010
0000
0100
,
0010
0000
0001
0000
0100
0001
0000
0010
,
1000
0100
1000
0100
0010
0001
0100
0010
,
0100
0010
0100
0010
0001
0100
0010
0100
,
1000
0000
0100
0000
1000
1000
1000
0000
,
0100
0000
0010
0000
0001
0001
0001
0000
,
0001
0000
0100
0000
0010
0100
1000
0000
,
0100
0000
1000
0000
0100
0010
0001
0000
,
0100
0000
0010
0000
0001
0100
0010
0000
,
0100
0000
1000
0000
0100
1000
0100
0000
,
0100
0000
0010
0000
0001
0100
0001
0000
,
0010
0000
0100
0000
0010
0100
1000
0000
,
0100
0010
0100
0010
,
0001
0000
0100
0000
0010
0100
0010
0000
,
0001
0000
0100
0000
1000
0000
0100
1000
,
0000
0100
0010
0000
0001
0000
0100
0000
,
0010
0000
0001
0000
0100
0000
0010
0100
,
0000
1000
0100
1000
0100
0000
0100
0000
,
0010
0001
0100
0010
,
0100
0000
1000
0000
0100
1000
0100
0000
,
0200
0000
0000
0300
,
0020
0000
0000
0030
,
0002
0000
0000
0003
,
2000
0000
0000
3000
,
0200
0000
0000
0300
,
0020
0000
0000
0030
,
0200
0000
0000
0300
,
0020
0000
0000
0000
,
0030
0000
0000
0000
;

//--------------- dance-single - Wrland ----------------
#NOTES:
     dance-single:
     Wrland:
     Hard:
     11:
     0,0,0,0,0:
0000
0000
0000
0000
,
0000
0000
0000
0000
,
0000
0000
0000
0000
,
0000
0000
0000
0000
,
0000
0000
0000
0000
,
0000
0000
0000
0000
0000
0000
0000
1000
,
0001
1000
0000
0001
0100
1000
0000
0100
,
0010
0001
0100
0010
0000
0100
0010
0000
,
0001
0100
0000
0010
0100
0010
0000
0100
,
1000
0100
1000
0100
0000
0100
0010
0001
,
0100
0010
0000
0100
0010
0001
0000
0000
,
0100
0010
0001
0100
0000
0010
0100
0001
,
2000
3000
0100
2000
3000
0100
0020
0030
,
0001
0200
0300
0010
0200
0300
0010
0000
,
0001
0001
1001
0000
1000
1000
1001
0000
,
0100
1000
0100
1000
0000
0100
0010
0000
,
0100
0100
0110
0000
0010
0010
0110
0000
,
0010
0001
0100
0010
0000
0100
1000
0000
,
0100
1000
0100
0010
0100
0010
0001
0000
,
0100
0010
0001
0100
0000
0010
0100
0000
,
2000
0000
0000
3000
0000
0000
0200
0000
0000
0300
0000
0000
0020
0000
0000
0030
,
0000
0000
0200
0000
0000
0300
0000
0000
0020
0000
0030
0000
0001
0000
0100
0000
,
0010
0100
0010
0000
0001
0100
0000
0010
,
0100
1000
0100
0000
1000
0100
0000
0100
,
0010
0001
0100
0010
0100
1000
0000
0100
,
1000
0000
0100
0010
0001
0100
0010
0100
,
1000
0000
0100
0000
1000
0100
0000
0100
,
0010
0000
0001
0000
0100
0010
0000
0100
,
0010
0001
0100
0010
0100
1000
0100
1000
,
0100
0000
0000
0000
0100
0000
0000
0000
0010
0000
0100
0000
0010
0000
0100
0001
,
0000
0100
1000
0000
0100
0000
0010
0000
0001
0000
0100
0000
0010
0000
0100
0010
,
0000
0100
1000
0000
0100
0000
0010
0000
0001
0000
0100
0000
0010
0000
0100
0000
,
0000
0010
0100
0010
0001
0100
0010
1000
,
0100
0000
0000
0010
0100
0000
0000
0001
0100
0000
0010
0000
0100
0000
1000
0000
,
0100
0000
1000
0000
0100
0010
0001
0100
,
0010
0000
0100
0000
1000
0100
0010
0001
,
0100
0010
0100
0010
0001
0100
0000
0010
,
0100
0010
0100
0010
0001
0100
0010
1000
,
0200
0000
0000
0300
1000
0000
0000
0000
0100
0000
0010
0000
0001
0000
0100
0000
,
0010
0000
0100
0000
0010
0001
0100
0010
,
0100
0000
1000
0000
0100
1000
0100
1000
,
0100
0100
0010
0001
,
0100
0100
0110
0000
0010
0010
0011
0000
,
0001
0001
1100
0000
0100
0100
1100
0000
,
0100
0010
0001
0100
0010
0100
0000
0010
,
0001
0100
0010
0100
1000
0100
1000
0100
,
0010
0000
0001
0000
0100
1000
0100
0010
,
0100
0000
0010
0000
0001
0000
0100
0000
0010
0000
0001
1000
0000
0000
0100
0000
,
0010
0001
0100
0010
0100
0000
1000
0100
,
1000
0000
0100
0000
0010
0000
0001
1000
0100
0000
0010
0000
0100
0000
0010
0000
,
0001
0000
0100
0000
0010
0100
0010
0001
,
0000
0100
0010
0100
1000
0100
0000
0010
,
0100
0000
0010
0001
0100
0010
0100
1000
,
0100
0000
1000
0000
0100
1000
0100
0010
,
0002
0000
0000
0000
0003
0000
0000
0000
2002
0000
0000
0000
0000
3003
0000
0000
,
2000
0000
0000
0000
0000
3000
0000
0000
2002
0000
0000
0000
0000
0000
0000
3003
,
0200
0000
0000
0000
0000
0000
0300
0000
0220
0000
0000
0000
0000
0330
0000
0000
,
0020
0000
0000
0000
0000
0000
0030
0000
0220
0000
0000
0000
0000
0000
0000
0330
,
0002
0000
0000
0000
0000
0000
0003
0000
0202
0000
0000
0000
0000
0000
0000
0303
,
2000
0000
0000
0000
0000
3000
0000
0000
2200
0000
0000
0000
0000
3300
0000
0000
,
0200
0000
0000
0300
0220
0000
0000
0330
,
0002
0000
0000
0003
2002
0000
0000
0000
,
0000
0000
3003
0000
;
