#VERSION:0.83;
#TITLE:胸がドキドキ;
#SUBTITLE:;
#ARTIST:↑ザ・ハイロウズ↓;
#TITLETRANSLIT:Mune ga DOKIDOKI;
#SUBTITLETRANSLIT:;
#ARTISTTRANSLIT:↑THE HIGH-LOWS↓;
#GENRE:J-Pop;
#CREDIT:Kitty;
#MUSIC:Mune ga DOKIDOKI.ogg;
#BANNER:Mune ga DOKIDOKI.png;
#BACKGROUND:BG.png;
#JACKET:Mune ga DOKIDOKI-jacket.png;
#DISCIMAGE:;
#CDIMAGE:;
#SELECTABLE:YES;
#LYRICSPATH:;
#CDTITLE:DETECTIVE CONAN.png;
#SAMPLESTART:57.175;
#SAMPLELENGTH:15.000;
#BPMS:0.000000=153.575000,
6.000000=157.575000
;
#STOPS:;
#WARPS:;
#DELAYS:;
#SPEEDS:;
#SCROLLS:;
#TICKCOUNTS:;
#TIMESIGNATURES:;
#LABELS:;
#COMBOS:;
#FAKES:;
#BGCHANGES:0.000=Mune ga DOKIDOKI.avi=0.000=0=0=0=StretchNoLoop====,
99999=-nosongbg-=1.000=0=0=0 // don't automatically add -songbackground-
;
#FGCHANGES:;
#ATTACKS:;
#DISPLAYBPM:157.000;
#TAGS:DMCA;

//---------------dance-single - Wrland---------------
#NOTEDATA:;
#CHARTNAME:;
#CHARTSTYLE:Pad;
#CREDIT:Wrland;
#STEPSTYPE:dance-single;
#DESCRIPTION:Wrland;
#DIFFICULTY:Beginner;
#METER:2;
#METERF:2;
#RADARVALUES:0,0,0,0,0;
#NOTES:
// measure 0
0000
0000
0000
0000
,  // measure 1
0000
0000
0000
0000
,  // measure 2
0000
0000
0000
0000
,  // measure 3
0000
0000
0000
0000
,  // measure 4
0000
0000
0000
0000
,  // measure 5
0000
0000
0000
0000
,  // measure 6
0000
0000
0000
0000
,  // measure 7
0000
0000
2000
0000
,  // measure 8
0000
3000
1000
0000
,  // measure 9
0000
0000
0002
0000
,  // measure 10
0000
0003
0001
0000
,  // measure 11
0000
0000
0100
0000
,  // measure 12
0000
0000
0010
0000
,  // measure 13
0000
0000
0001
0000
,  // measure 14
0000
0000
0100
0000
,  // measure 15
0000
0000
1000
0000
,  // measure 16
0000
0000
0100
0000
,  // measure 17
0000
0000
0010
0000
,  // measure 18
0000
0000
0100
0000
,  // measure 19
0000
0000
0200
0000
,  // measure 20
0000
0300
0001
0000
,  // measure 21
1000
0000
0020
0000
,  // measure 22
0000
0030
0100
0000
,  // measure 23
1000
0000
0100
0000
,  // measure 24
0000
0000
0010
0000
,  // measure 25
0000
0000
0100
0000
,  // measure 26
0000
0000
0100
0000
,  // measure 27
0000
0000
0100
0000
,  // measure 28
0000
0000
0001
0000
,  // measure 29
0000
0000
0010
0000
,  // measure 30
0000
0000
1000
0000
,  // measure 31
0000
0000
0010
0000
,  // measure 32
0000
0000
1000
0001
,  // measure 33
0000
0100
0010
0000
,  // measure 34
0100
0000
0010
0000
,  // measure 35
0001
0000
0100
0000
,  // measure 36
1000
0100
1000
0100
,  // measure 37
0000
0100
0010
0000
,  // measure 38
0000
0000
0100
0000
,  // measure 39
0000
0000
1000
0000
,  // measure 40
0000
0000
0001
0000
,  // measure 41
0000
0000
0100
0000
,  // measure 42
0000
0000
0010
0000
,  // measure 43
0000
0000
0001
0000
,  // measure 44
0000
0000
0100
0000
,  // measure 45
0000
0000
1000
0000
,  // measure 46
0000
0000
1000
0001
,  // measure 47
1000
0001
0100
0000
,  // measure 48
0000
0000
0010
0000
,  // measure 49
0000
0000
0100
0000
,  // measure 50
0000
0000
0010
0000
,  // measure 51
0000
0000
0100
0000
,  // measure 52
0000
0000
1000
0000
,  // measure 53
0000
0000
0100
0000
,  // measure 54
0000
0000
0100
0010
,  // measure 55
0001
0100
0010
0000
,  // measure 56
1000
0000
1000
0000
,  // measure 57
0010
0000
2000
0000
,  // measure 58
0000
0000
0000
0000
,  // measure 59
0000
0000
3000
0000
;

//---------------dance-single - Wrland---------------
#NOTEDATA:;
#CHARTNAME:;
#CHARTSTYLE:Pad;
#CREDIT:Wrland;
#STEPSTYPE:dance-single;
#DESCRIPTION:Wrland;
#DIFFICULTY:Easy;
#METER:5;
#METERF:5;
#RADARVALUES:0,0,0,0,0;
#NOTES:
// measure 0
0000
0000
0000
0000
,  // measure 1
0000
0000
0000
0000
,  // measure 2
0000
0000
0000
0000
,  // measure 3
0000
0000
0000
0000
,  // measure 4
0000
0000
0000
0000
,  // measure 5
0000
0000
0000
0000
,  // measure 6
0000
0000
0000
0000
,  // measure 7
0000
0000
2000
0000
,  // measure 8
0000
3000
1000
0000
,  // measure 9
0000
0000
0002
0000
,  // measure 10
0000
0003
0001
0000
,  // measure 11
0000
0000
0100
0000
,  // measure 12
0100
0000
0010
0000
,  // measure 13
0010
0000
0001
0000
,  // measure 14
0001
0000
0100
0000
,  // measure 15
0100
0000
1000
0000
,  // measure 16
1000
0000
0100
0000
,  // measure 17
0100
0000
0010
0000
,  // measure 18
0001
0000
0100
0000
,  // measure 19
0010
0000
0200
0000
,  // measure 20
0000
0300
0001
0000
,  // measure 21
1000
0000
0020
0000
,  // measure 22
0000
0030
0100
0000
,  // measure 23
1000
0000
0100
0000
,  // measure 24
0100
0000
0010
0000
,  // measure 25
0001
0000
0100
0000
,  // measure 26
0010
0000
0100
0000
,  // measure 27
1000
0000
0100
0000
,  // measure 28
0010
0000
0001
0000
,  // measure 29
0100
0000
0010
0000
,  // measure 30
0100
0000
1000
0000
,  // measure 31
0100
0000
0010
0000
,  // measure 32
0001
0000
1000
0001
,  // measure 33
0000
0100
0010
0000
,  // measure 34
0100
0100
0010
0000
,  // measure 35
0001
0100
0100
0000
,  // measure 36
1000
0100
1000
0100
,  // measure 37
0000
0100
0010
0000
,  // measure 38
0010
0000
0100
0000
,  // measure 39
0100
0000
1000
0000
,  // measure 40
1000
0000
0001
0000
,  // measure 41
0001
0000
0100
0000
,  // measure 42
0100
0000
0010
0000
,  // measure 43
0010
0000
0001
0000
,  // measure 44
0001
0000
0100
0000
,  // measure 45
0100
0000
1000
0000
,  // measure 46
1000
0000
1000
0001
,  // measure 47
1000
0001
0100
0000
,  // measure 48
0100
0000
0010
0000
,  // measure 49
0010
0000
0100
0000
,  // measure 50
0100
0000
0010
0000
,  // measure 51
0010
0000
0100
0000
,  // measure 52
0100
0000
1000
0000
,  // measure 53
1000
0000
0100
0000
,  // measure 54
0100
0000
0100
0010
,  // measure 55
0001
0100
0010
0100
,  // measure 56
1000
0100
1000
0100
,  // measure 57
0010
0001
2000
0000
,  // measure 58
0000
0000
0000
0000
,  // measure 59
0000
0000
3000
0000
;

//---------------dance-single - Wrland---------------
#NOTEDATA:;
#CHARTNAME:;
#CHARTSTYLE:Pad;
#CREDIT:Wrland;
#STEPSTYPE:dance-single;
#DESCRIPTION:Wrland;
#DIFFICULTY:Medium;
#METER:8;
#METERF:8;
#RADARVALUES:0,0,0,0,0;
#NOTES:
// measure 0
0000
0000
0000
0000
,  // measure 1
0000
0000
0000
0000
,  // measure 2
0000
0000
0000
0000
,  // measure 3
0000
0000
2000
0000
,  // measure 4
3000
0000
1000
0000
0002
0000
0003
0001
,  // measure 5
0000
1000
0002
0000
,  // measure 6
0000
0000
0003
0000
0002
0000
0003
1000
,  // measure 7
0000
0001
2000
0000
,  // measure 8
0000
0000
3000
0000
1000
0000
0000
0002
,  // measure 9
0000
0003
1000
0000
0002
0000
0000
0000
,  // measure 10
0000
0000
0003
0000
0001
0000
0000
1000
,  // measure 11
0000
0001
1000
0100
,  // measure 12
1000
0100
0010
0001
,  // measure 13
0100
0000
0010
0100
,  // measure 14
0010
0000
0001
0000
0100
0010
0000
0100
,  // measure 15
0001
0010
0001
0100
,  // measure 16
0010
0100
1000
0100
,  // measure 17
1000
0000
0100
1000
,  // measure 18
0100
0000
0010
0000
0001
0100
0001
0100
,  // measure 19
0000
0010
0200
0320
,  // measure 20
0032
0000
0000
0003
0200
0000
0300
0010
,  // measure 21
0000
0100
0020
0000
,  // measure 22
0000
0000
0030
0000
0020
0000
0030
0100
,  // measure 23
0000
0010
0100
0010
,  // measure 24
0001
0000
0100
0001
0100
0000
0010
0100
,  // measure 25
0010
0100
1000
0100
,  // measure 26
1000
0100
0000
0100
0010
0000
0001
0000
,  // measure 27
0100
0010
0001
0100
,  // measure 28
0010
0100
1000
0100
,  // measure 29
0010
0000
0001
0100
,  // measure 30
0001
0100
0000
0010
0100
0000
0010
0000
,  // measure 31
0100
1000
0100
1000
,  // measure 32
0100
0000
0010
0000
0001
0100
0001
0000
,  // measure 33
0100
0010
0100
1000
,  // measure 34
0100
0000
1000
0100
1000
0000
0100
0000
,  // measure 35
0010
0001
0100
0100
,  // measure 36
0100
0000
0010
0000
0001
0100
0001
0000
,  // measure 37
0100
0010
0001
1000
,  // measure 38
0001
1000
1000
0001
,  // measure 39
1000
0001
0100
0010
,  // measure 40
0001
0000
0100
0000
0010
0100
0000
0001
,  // measure 41
0100
0010
0100
1000
,  // measure 42
0100
0000
1000
0000
0100
1000
0000
0100
,  // measure 43
0010
0001
0100
0010
,  // measure 44
0001
0000
0100
0000
0010
0100
0000
0001
,  // measure 45
0100
0010
0100
1000
,  // measure 46
0100
0000
1000
0000
0100
1000
0100
0000
,  // measure 47
0010
0100
0010
0000
0001
0000
0100
0000
,  // measure 48
0010
0000
0100
0000
1000
0100
0000
0010
,  // measure 49
0100
0010
0001
0100
,  // measure 50
0010
0000
0100
0000
1000
0100
0000
0100
,  // measure 51
0010
0100
1000
0100
,  // measure 52
0010
0000
0001
0000
0100
0001
0000
0100
,  // measure 53
0010
0100
1000
0100
,  // measure 54
0010
0000
0001
0000
0100
0001
0100
0000
,  // measure 55
0010
0100
0010
0000
1000
0100
1000
0000
,  // measure 56
0100
0010
0100
0000
0001
0100
0001
0000
,  // measure 57
0010
0100
0010
0000
0001
0200
0000
0000
,  // measure 58
0000
0000
0000
0000
,  // measure 59
0000
0000
0300
0000
;

//---------------dance-single - Wrland---------------
#NOTEDATA:;
#CHARTNAME:;
#CHARTSTYLE:Pad;
#CREDIT:Wrland;
#STEPSTYPE:dance-single;
#DESCRIPTION:Wrland;
#DIFFICULTY:Hard;
#METER:12;
#METERF:12;
#RADARVALUES:0,0,0,0,0;
#NOTES:
// measure 0
0000
0000
0000
0000
,  // measure 1
0000
0000
2002
0000
,  // measure 2
0000
0000
0000
0000
,  // measure 3
3003
0000
0000
0000
2000
3000
0100
0000
,  // measure 4
1000
0100
1000
0000
0200
0000
0300
0020
,  // measure 5
0000
0030
0002
0003
0200
0000
0000
0000
,  // measure 6
0000
0000
0300
0000
0020
0000
0030
0200
,  // measure 7
0000
0300
2000
3000
0200
0000
0000
0000
,  // measure 8
0000
0000
0300
0000
2000
0000
3000
0200
,  // measure 9
0000
0300
0020
0030
0002
0000
0000
0000
,  // measure 10
0000
0000
0000
0003
0200
0000
0300
0020
,  // measure 11
0000
0000
0030
0000
0002
0000
1003
0010
0100
0000
0010
0000
0100
0000
1000
0000
,  // measure 12
0010
0100
0001
0000
0100
0001
0100
0000
,  // measure 13
0010
0000
0100
0000
1000
0000
0000
0000
0200
0000
0000
0300
1000
0000
0000
0000
,  // measure 14
0100
0000
1000
0000
0100
0000
0010
0000
0002
0000
0000
0003
0100
0000
0010
0000
,  // measure 15
0000
0001
0100
0000
0010
0001
0100
0000
,  // measure 16
0010
0100
1000
0100
0010
0001
0100
0010
,  // measure 17
0000
0100
0001
0000
0100
0001
0100
0000
,  // measure 18
0010
0100
0010
1000
0100
0010
0100
0010
,  // measure 19
0100
0000
1000
0100
1000
0000
0100
0000
0020
0000
0000
0000
0000
0000
0000
0000
,  // measure 20
0000
0000
0000
0000
0000
0030
0000
0000
0200
0000
0000
0000
0300
0000
2000
0000
,  // measure 21
0000
0000
3000
0000
0200
0000
0000
0300
2000
0000
0000
0000
0000
0000
0000
0000
,  // measure 22
0000
0000
3000
0000
0200
0000
0300
2000
,  // measure 23
0000
0000
3000
0000
0200
0000
0000
0300
0001
0000
1000
0000
0001
0000
1000
0000
,  // measure 24
0100
1000
0100
0010
0001
0100
0010
0100
,  // measure 25
0000
0001
0100
0000
0010
0001
0100
0010
,  // measure 26
0100
1000
0100
0010
0001
1000
0100
0010
,  // measure 27
0001
0000
0001
1000
0100
0010
0100
1000
,  // measure 28
0100
0010
0001
0100
0010
0001
0010
0100
,  // measure 29
0000
0010
0010
0000
0100
1000
0100
0010
,  // measure 30
0001
0100
0010
0001
0100
0010
0100
1000
,  // measure 31
0000
0100
0100
0010
2000
0000
0000
3000
,  // measure 32
0001
0000
1000
0000
0001
0000
1000
0000
0001
0000
0100
0000
0020
0000
0000
0030
,  // measure 33
0100
0000
0000
0000
0001
0000
0100
0000
0002
0000
0000
0003
0100
0000
0000
0000
,  // measure 34
0010
0000
0100
0000
1000
0000
0100
0000
0010
0000
0001
0000
0200
0000
0000
0300
,  // measure 35
0020
0000
0000
0030
0100
0000
0010
0000
0002
0000
0000
0000
0000
0000
0000
0000
,  // measure 36
0003
0000
0100
0000
1000
0000
0100
0000
1000
0000
0100
0000
2000
0000
0000
3000
,  // measure 37
0100
0000
0000
0000
0010
0000
0001
0000
0200
0000
0000
0300
0010
0000
0100
0000
,  // measure 38
0010
0000
0001
0000
0100
0000
0010
0100
,  // measure 39
2000
0000
0000
3000
0100
0000
0000
0000
1000
0000
0000
0000
0100
0000
1000
0000
,  // measure 40
0100
0000
0100
0000
0010
0000
0001
0100
,  // measure 41
0002
0000
0000
0003
0010
0000
0000
0000
0100
0000
0000
0000
0010
0000
0001
0010
,  // measure 42
0100
0000
0010
0000
0100
1000
0000
0100
,  // measure 43
2000
3000
0100
0001
0010
0000
0001
0100
,  // measure 44
0001
1000
0100
0010
0010
0001
0100
1000
,  // measure 45
0200
0300
0100
0000
0010
0000
0001
0100
,  // measure 46
0001
0010
0100
0010
0200
0310
0200
0310
,  // measure 47
0020
0130
0020
0130
0200
0300
1000
0100
,  // measure 48
1000
0000
0100
0000
0010
0001
0000
0100
,  // measure 49
0002
0000
0000
0003
0100
0000
0000
0000
0010
0000
0000
0000
0100
0000
0010
0000
,  // measure 50
1000
0100
1000
0000
0100
1000
0000
0100
,  // measure 51
0020
0030
0001
0000
0100
0010
0001
0100
,  // measure 52
0001
0010
0100
0001
0010
0100
0000
1000
,  // measure 53
0200
0300
1000
0001
0100
1000
0010
0001
,  // measure 54
0100
0010
0010
0001
0200
0310
0020
0130
,  // measure 55
0002
0103
0200
1300
0001
0100
0001
0100
,  // measure 56
0010
0000
0100
0000
1000
0000
0100
0000
0010
0100
0010
0000
0001
0000
0010
0000
,  // measure 57
0100
0010
0100
0000
0010
0000
0000
0000
0100
0000
2000
0000
0000
0000
0000
0000
,  // measure 58
0000
0010
0020
0000
,  // measure 59
3030
0100
0110
0000
;
