#TITLE:KICKBACK;
#SUBTITLE:;
#ARTIST:米津玄師;
#TITLETRANSLIT:;
#SUBTITLETRANSLIT:;
#ARTISTTRANSLIT:Kenshi Yonezu;
#GENRE:J-Pop;
#CREDIT:Sony;
#MUSIC:KICKBACK.ogg;
#BANNER:KICKBACK.png;
#BACKGROUND:BG.png;
#JACKET:KICKBACK-jacket.png;
#TAGS:DMCA;
#CDTITLE:CHAINSAW MAN.png;
#SAMPLESTART:51.446;
#SAMPLELENGTH:15;
#SELECTABLE:YES;
#OFFSET:0.000;
#BPMS:0.000=175.000
,1.000=204.000
,128.000=102.000
,148.000=51.000
,150.000=204.000
;
#STOPS:;
#DISPLAYBPM:204.000;
#BGCHANGES:0.000=KICKBACK.avi=0.000=0=0=0=StretchNoLoop====,
99999=-nosongbg-=1.000=0=0=0 // don't automatically add -songbackground-
;
#FGCHANGES:;

//--------------- dance-single - Wrland ----------------
#NOTES:
     dance-single:
     Wrland:
     Beginner:
     3:
     0,0,0,0,0:
0000
0000
0000
0000
,
0000
0000
0000
0000
,
0000
0000
0000
0000
,
0000
0000
0000
0000
,
0000
0000
0000
0000
,
0000
0000
0000
0000
,
0000
0000
0000
0000
,
0000
0000
0000
0000
,
1000
0000
0000
0000
,
0001
0000
0000
0000
,
0100
0000
0000
0000
,
0100
0000
0000
0000
,
0100
0000
0000
0000
,
0100
0000
0000
0000
,
0100
0000
0000
0000
,
0100
0000
0000
0000
,
0100
0000
0010
0000
,
0100
0000
0010
0000
,
0001
0000
0100
0000
,
1000
0000
0100
0000
,
0100
0000
0010
0000
,
0001
0000
0010
0000
,
0100
0000
0100
0000
,
1000
0000
0100
0000
,
0010
0000
0010
0000
,
0001
0000
0001
0000
,
0100
0000
0100
0000
,
1000
0000
1000
0001
,
0110
0000
0100
0010
,
1100
0010
0001
0010
,
0200
0000
0000
0300
,
0010
0000
1000
0000
,
2000
0000
0000
3000
,
0002
0000
0000
0003
,
0200
0000
0000
0300
,
0020
0000
0000
0030
,
0200
0300
0020
0200
,
0000
0000
0000
0000
0000
0000
0000
0000
0000
0000
0000
0000
0000
0000
0000
0000
0000
0000
0000
0000
0000
0330
0000
0000
0000
0000
0000
0000
0000
0000
0000
0000
1000
0000
0000
0000
0000
0000
0000
0000
0000
0000
0000
0000
0000
0000
0000
0000
0000
0000
0000
0000
0000
0000
0000
0000
0000
0000
0000
0000
0000
0000
0000
0000
,
0000
0000
1000
0000
,
0100
0000
0100
0000
,
0000
0000
0010
0000
,
0000
0000
0100
0000
,
0000
0000
0010
0000
,
0000
0000
0100
0000
,
1000
0000
0100
1000
,
0100
0000
0100
0000
,
0000
0000
0001
0000
,
0000
0000
0010
0000
,
0000
0000
0100
0000
,
0000
0000
0100
0100
,
0100
0000
0001
0001
,
0001
0000
0100
0100
,
0100
0000
1000
1000
,
1000
0000
0100
0000
,
0001
0000
0100
0000
,
0100
0000
0000
0000
,
0000
0000
0000
0000
,
0000
0000
1000
0000
,
0000
0000
1000
0000
,
0000
0000
1000
0000
,
0000
0000
0001
0000
,
0000
0000
0010
0000
,
0000
0000
0001
0000
,
0000
0000
1000
0000
,
0000
0000
0000
0000
,
0000
1001
0000
0000
0000
0000
0000
0000
;

//--------------- dance-single - Wrland ----------------
#NOTES:
     dance-single:
     Wrland:
     Easy:
     6:
     0,0,0,0,0:
0000
0000
0000
0000
,
0000
0000
0000
0000
,
0000
0000
0000
0000
,
0000
0000
0000
0000
,
0000
0000
0000
0000
,
0000
0000
0000
0000
,
0000
0000
0000
0000
,
0000
0000
0000
0000
,
1000
0000
0001
0000
,
1000
0000
0001
0000
,
0100
0000
1000
0000
,
0100
0000
0010
0000
,
0100
0000
0001
0000
,
0100
0000
0010
0000
,
0100
0000
1000
0000
,
0100
0000
1000
0000
,
0100
0100
0010
0000
,
0100
0100
0010
0000
,
0001
0001
0100
0000
,
1000
1000
0100
0000
,
0100
0100
0010
0000
,
0001
0100
0010
0000
,
0100
1000
0100
0000
,
1000
1000
0100
0000
,
0010
0100
0010
0000
,
0001
0100
0001
0000
,
0100
0010
0100
0000
,
1000
0100
1000
0001
,
0110
0000
0100
0010
,
1100
0010
0001
0010
,
0200
0000
0000
0300
,
0010
0001
1000
0100
,
2000
0000
0000
3000
,
0002
0000
0000
0003
,
0200
0000
0000
0300
,
0020
0000
0000
0030
,
0200
0300
0020
0200
,
0000
0000
0000
0000
0000
0000
0000
0000
0000
0000
0000
0000
0000
0000
0000
0000
0000
0000
0000
0000
0000
0330
0000
0000
0000
0000
0000
0000
0000
0000
0000
0000
1000
0000
0000
0000
0000
0000
0000
0000
0000
0000
0000
0000
0000
0000
0000
0000
0000
0000
0000
0000
0000
0000
0000
0000
0000
0000
0000
0000
0000
0000
0000
0000
,
0001
0000
1000
0000
,
0100
1000
0100
0000
,
0100
0000
0010
0000
,
0001
0000
0100
0000
,
0100
0000
0010
0000
,
0001
0000
0100
0000
,
1000
0000
0100
1000
,
0100
0000
0100
0000
,
0010
0000
0001
0000
,
0100
0000
0010
0000
,
0001
0000
0100
0000
,
1000
0000
0100
0100
,
0100
0000
0001
0001
,
0001
0000
0100
0100
,
0100
0000
1000
1000
,
1000
0000
0100
0010
,
0001
0000
0100
0010
,
0100
0000
0000
0000
,
0000
0000
0000
0000
,
0000
0000
1000
0000
,
0001
0000
1000
0000
,
0100
0000
1000
0000
,
0100
0000
0001
0000
,
0100
0000
0010
0000
,
0100
0000
0001
0000
,
0100
0000
0100
0000
,
0010
0000
0000
0000
,
0000
1001
0000
0000
0000
0000
0000
0000
;

//--------------- dance-single - Wrland ----------------
#NOTES:
     dance-single:
     Wrland:
     Medium:
     10:
     0,0,0,0,0:
0000
0000
0000
0000
,
0000
0000
0000
0000
,
0000
0000
0000
0000
,
0000
0000
0000
0000
,
1000
0001
1000
0000
,
0100
1000
0100
0000
,
0100
0010
0001
0000
,
0100
0010
0100
0010
,
0001
1000
0001
1000
,
0001
1000
0001
0000
1001
0000
0000
0000
,
0100
1000
0100
0010
,
0001
0100
0001
0000
0101
0000
0000
0000
,
0010
0100
1000
0100
,
1000
0100
1000
0000
1100
0000
0000
0000
,
0100
0010
0001
0100
,
0001
0100
0001
0000
0101
0000
0000
0000
,
0010
0000
0200
0300
1000
0002
0003
0200
,
0300
1000
0001
0100
1000
0100
0010
0200
,
0300
0020
0030
0200
0300
0010
0001
0010
,
0100
0000
0010
0100
0010
0000
1000
0000
,
0100
0000
2000
3000
0100
2000
3000
0200
,
0300
0010
1000
0002
0003
0100
0010
0200
,
0300
0010
1000
0002
0003
0200
0300
0010
,
0100
0010
0000
0001
0100
0001
0000
0010
,
0100
0010
0000
1000
0100
1000
0000
0200
,
0300
1000
0100
0001
0100
0001
0000
0200
,
0300
0010
0100
0010
0001
0200
0300
0020
,
0030
0100
1000
0100
0001
0100
0010
0100
,
0020
0000
0130
0000
0010
0100
0010
0100
,
2000
0000
3100
0000
2000
3000
0200
0300
,
0002
0000
0013
0000
0100
0010
0100
0000
,
1000
0100
1000
0000
0100
0010
0001
0000
,
0200
0000
0010
0010
0010
0300
0002
1000
,
1000
0000
0100
1000
0100
0003
0200
0010
,
0001
0010
0001
0010
0001
0000
0010
0300
,
0010
0001
0100
0010
2000
3100
2000
0000
,
3020
0230
0302
2000
,
0000
0000
0000
0000
0000
0000
3003
0100
0010
0000
0000
0000
0001
0000
0000
0000
,
0100
0002
0003
0200
0300
0010
0001
0100
,
0020
0030
0200
0300
0020
0030
0002
0003
,
0100
0002
0003
0200
0300
0010
1000
0100
,
0002
0003
0200
0300
0010
0100
0002
0003
,
0010
0100
0010
1000
0002
0003
0001
0010
,
0200
0300
0020
0030
0200
0300
0002
0003
,
0100
0002
0003
0200
0300
0010
0100
0010
,
0100
0000
2000
3000
0200
0300
2000
3000
,
0100
0020
0030
0002
0003
0200
0000
0300
,
0020
0030
0200
0300
2000
3000
0020
0030
,
0100
2000
3000
0200
0300
0010
0100
0001
,
0010
0002
0000
0003
0110
0000
1001
0000
,
1100
0110
1001
1100
,
0110
1001
1100
1100
,
0110
0110
0011
0011
,
0110
0110
1100
1001
,
0110
1001
0110
1010
,
0101
0000
1100
0000
0100
0000
0010
0100
,
0010
0100
0010
0000
0001
0000
1000
0000
0002
0000
0000
0000
0000
0000
0000
0000
,
0000
0000
1003
0100
,
1000
0000
0100
0000
0100
0010
0001
0000
,
1001
0000
0100
1000
,
0100
0000
0010
0000
0001
0010
0100
0000
,
0110
0000
0100
0010
,
0001
0000
0100
0000
0100
0010
0100
0000
,
1100
0000
0000
0000
0100
0001
0010
0100
,
0001
0010
0100
0001
0100
1100
0000
0110
,
0000
2002
0000
0000
0000
0000
3003
0000
;

//--------------- dance-single - Wrland ----------------
#NOTES:
     dance-single:
     Wrland:
     Hard:
     14:
     0,0,0,0,0:
0000
0000
0000
0000
,
0000
0000
0000
0000
,
0000
0000
0000
0000
,
0000
0000
0000
0000
,
1000
0000
0001
1000
0001
0000
0100
0010
,
0000
0001
0000
0100
0000
0010
0100
0010
,
0001
0100
0010
0001
0100
0000
0010
0100
,
0000
1000
0000
0100
0000
1000
0100
0001
,
0010
1000
0100
0001
0010
0000
0001
0000
1000
0000
0010
0000
0100
0000
0001
0000
,
0010
1000
0100
0001
0010
0000
0001
0000
0100
0000
0001
0000
0010
0000
0001
0000
,
0100
0010
0100
0010
0001
0000
0100
0000
0010
0000
0001
0000
0100
0000
0010
0000
,
1000
0100
1000
0010
1000
0000
0100
0000
0010
0000
0100
0000
0001
0000
0010
0000
,
0100
0010
0100
0010
0100
0000
0010
0000
0100
0000
1000
0000
0010
0000
0001
0000
,
0100
1000
0010
0001
0100
0000
0010
0000
0100
0000
0001
0000
1000
0000
0010
0000
,
0100
0010
0100
0001
0100
0000
0010
0000
0001
0000
0100
0000
0010
0000
0100
0000
,
1000
0010
0100
1000
0010
0000
0001
0000
0100
0000
0010
0000
0100
0000
0010
0000
,
0002
0000
0000
0003
0200
0000
0300
0000
0010
0000
0200
0000
0000
0300
0002
0000
,
0000
0003
0100
0000
0001
0000
0020
0000
0000
0030
0100
0000
1000
0000
0200
0000
,
0000
0300
0020
0000
0000
0030
0200
0000
0000
0300
0010
0000
0001
0000
0100
0000
,
0020
0000
0030
0000
0100
0000
1000
0000
0100
0001
0010
0000
0010
0000
0001
0000
,
0200
0000
0000
0300
0020
0000
0030
0000
0100
0000
0020
0000
0030
0000
0002
0000
,
0003
0100
0001
0020
0030
0100
0001
0020
,
0030
1000
0100
0020
0030
0200
0300
0020
,
0030
0000
0001
0000
0010
0000
0100
0000
0010
0010
0100
0000
0100
0000
0010
0000
,
0100
2000
3001
0100
0001
0020
1030
0200
,
0300
0010
0001
0100
0010
2000
3000
0100
,
1000
0100
0010
0001
0100
0010
0100
0020
,
0030
0000
0001
0000
1000
0000
0001
0000
1000
0100
1000
0000
0010
0001
0100
0000
,
0020
1030
0002
0013
0100
0001
0100
0001
,
0200
1300
0200
0301
0020
0031
0100
1000
,
0200
0000
0000
0300
0020
0000
0000
0030
0001
0000
0010
0000
0100
0000
0010
0000
,
0100
0000
0010
0000
1000
0100
0010
0000
0100
0000
1000
0000
0100
0000
0010
0000
,
0002
0003
0100
0010
1000
0100
0020
0030
1000
0000
0100
0000
0002
0003
2000
3000
,
0002
0003
0200
0300
0010
0001
0100
0010
0200
0300
1000
0000
0100
1000
0100
1000
,
0200
0300
2000
3000
0020
0030
0002
0003
0200
0000
0000
0300
0020
0030
0200
0300
,
0020
0030
0002
0003
0200
0300
2000
3000
0020
0000
0100
1000
0230
0000
0000
0000
,
0320
0230
0304
4000
,
0000
0000
0000
0000
0000
0000
3003
0100
0020
0000
0030
0000
0200
0000
0300
0000
,
0001
0000
0100
0010
0001
0000
0020
0000
0030
0000
0200
0000
0000
0000
0000
0300
,
1000
0000
0001
0000
0100
0000
0010
0000
2000
0000
0000
3000
0200
0000
0000
0300
,
0001
0000
0100
0000
0010
1000
0010
0000
0001
0000
0200
0000
0310
0000
0002
0000
,
0013
0000
0002
0003
0100
0001
0020
0030
,
0100
0010
0100
0010
0002
0003
0100
0001
,
0020
0030
0200
0310
2000
3010
0200
0301
,
0020
0230
0300
0002
0003
0100
0010
0100
,
0020
0030
0002
0003
0200
0300
0010
0100
,
0010
0100
0010
2000
3000
0200
0000
0300
,
1000
0000
0001
0010
0100
0000
1000
0000
0020
0000
0130
0000
0002
0000
0013
0000
,
0200
0302
0003
0200
0300
0010
0100
0001
,
0010
0000
0200
0000
0000
0000
0300
0000
0010
0100
0001
0000
0100
0010
0100
0000
,
0001
0000
0100
0000
0010
0000
0001
0000
0100
0001
0010
0000
1000
0010
0100
0000
,
1000
0000
0010
0000
0100
0000
1000
0000
0010
0100
0010
0000
0001
0010
0100
0000
,
0001
0000
0010
0000
0100
0000
1000
0000
0010
0001
0100
0000
0100
0001
0010
0000
,
0100
0000
0010
0000
1000
0000
0010
0000
0100
0010
0100
0000
1000
0100
1000
0000
,
1000
0000
0010
0000
0100
0000
1000
0000
0010
0100
0010
0000
0001
0010
0100
0000
,
1000
0010
0001
0010
0000
0000
0200
0300
,
0010
0100
0020
0030
2002
0000
0000
0000
,
0000
0000
0000
0000
3003
0000
0000
0000
0100
0001
0010
1000
0001
0000
0100
0000
,
0010
0000
0100
0000
1000
0000
0100
0000
0010
0100
0001
0010
0100
0000
0010
0000
,
0100
0000
1000
0000
0100
0000
0010
0000
0001
0010
0100
0001
0010
0000
0100
0000
,
1000
0000
0100
0000
1000
0000
0100
0000
0010
0100
0001
0010
0100
0000
0010
0000
,
0100
0000
1000
0000
0100
0000
0010
0000
0001
0010
0100
0001
0010
0000
0100
0000
,
1000
0000
0100
0000
0010
0000
0001
0000
0100
0010
0100
1000
0100
0000
0010
0000
,
0100
0000
1000
0000
0100
0000
0010
0000
0001
0010
0100
0001
0010
0000
0100
0000
,
1000
0010
0100
0011
0010
0101
1000
0220
,
0330
2002
0000
0000
3MM3
0000
0000
0000
;
