#VERSION:0.83;
#TITLE:Just Give Me a Reason (feat. Nate Ruess);
#SUBTITLE:;
#ARTIST:P!NK;
#TITLETRANSLIT:;
#SUBTITLETRANSLIT:;
#ARTISTTRANSLIT:;
#GENRE:Pop;
#TAGS:DMCA;
#CREDIT:RCA;
#MUSIC:Just Give Me a Reason (feat. Nate Ruess).ogg;
#BANNER:Just Give Me a Reason (feat. Nate Ruess).png;
#JACKET:Just Give Me a Reason (feat. Nate Ruess)-jacket.png;
#BACKGROUND:BG.png;
#CDTITLE:Popular.png;
#SAMPLESTART:50.507;
#SAMPLELENGTH:15;
#SELECTABLE:YES;
#OFFSET:0.019;
#BPMS:0.000=95.000;
#STOPS:;
#DISPLAYBPM:95.000;
#BGCHANGES:0.000=Just Give Me a Reason (feat. Nate Ruess).avi=0.000=0=0=0=StretchNoLoop====,
99999=-nosongbg-=1.000=0=0=0 // don't automatically add -songbackground-
;
#FGCHANGES:;

//--------------- dance-single - Wrland ----------------
#NOTEDATA:;
#CHARTSTYLE:Pad;
#CREDIT:Wrland;
#STEPSTYPE:dance-single;
#DESCRIPTION:Wrland;
#DIFFICULTY:Beginner;
#METER:1;
#RADARVALUES:0,0,0,0,0;
#NOTES:
0000
0000
0000
0000
,
0000
0000
0000
0000
,
0000
0000
0000
0000
,
0000
0000
0000
0000
,
0010
0000
0000
0000
,
0000
0000
0000
0000
,
0100
0000
0000
0000
,
0000
0000
0000
0000
,
0001
0000
0000
0000
,
0000
0000
0000
0000
,
1000
0000
0000
0000
,
0000
0000
0000
0000
,
0001
0000
0000
0000
,
0000
0000
0000
0000
,
0100
0000
0000
0000
,
0000
0000
0000
0000
,
0010
0000
0000
0000
,
0000
0000
0000
0000
,
0200
0000
0000
0000
,
0300
0000
0000
0000
,
0001
0000
0000
0000
,
0001
0000
0000
0000
,
1000
0000
0000
0000
,
0100
0000
0000
0000
,
0010
0000
0000
0000
,
0100
0000
0000
0000
,
0001
0000
0000
0000
,
1000
0000
0000
0000
,
0100
0000
0000
0000
,
0010
0000
0000
0000
,
0100
0000
0000
0000
,
0010
0000
0000
0000
,
0001
0000
0000
0000
,
1000
0000
0000
0000
,
0100
0000
0000
0000
,
0010
0000
0000
0000
,
1000
0000
0000
0000
,
0000
0000
0000
0000
,
0001
0000
0000
0000
,
0000
0000
0000
0000
,
2002
0000
0000
0000
,
3003
0000
0000
0000
;

//--------------- dance-single - Wrland ----------------
#NOTEDATA:;
#CHARTSTYLE:Pad;
#CREDIT:Wrland;
#STEPSTYPE:dance-single;
#DESCRIPTION:Wrland;
#DIFFICULTY:Easy;
#METER:3;
#RADARVALUES:0,0,0,0,0;
#NOTES:
0000
0000
0000
0000
,
0000
0000
0000
0000
,
0000
0000
0000
0000
,
0000
0000
0000
0000
,
0010
0000
0000
0000
,
0010
0000
0000
0000
,
0100
0000
0000
0000
,
1000
0000
0000
0000
,
0001
0000
0000
0000
,
0010
0000
0000
0000
,
1000
0000
0000
0000
,
0100
0000
0000
0000
,
0001
0000
0000
0000
,
0010
0000
0000
0000
,
0100
0000
0000
0000
,
0001
0000
0000
0000
,
0010
0000
0000
0000
,
1000
0000
0000
0000
,
0200
0000
0000
0000
,
0300
0000
0000
0000
,
0001
0000
1000
0000
,
0001
0000
1000
0000
,
1000
0000
0001
0000
,
0100
0000
0010
0000
,
0010
0000
1000
0000
,
0100
0000
0010
0000
,
0001
0000
0001
0000
,
1000
0000
0100
0000
,
0100
0000
0010
0000
,
0010
0000
0001
0000
,
0100
0000
1000
0000
,
0010
0000
0100
0000
,
0001
0000
0010
0000
,
1000
0000
0100
0000
,
0100
0000
0010
0000
,
0010
0000
0001
0000
,
1000
0000
0000
0000
,
0000
0000
0000
0000
,
0001
0000
0000
0000
,
0000
0000
0000
0000
,
2002
0000
0000
0000
,
3003
0000
0000
0000
;

//--------------- dance-single - Wrland ----------------
#NOTEDATA:;
#CHARTSTYLE:Pad;
#CREDIT:Wrland;
#STEPSTYPE:dance-single;
#DESCRIPTION:Wrland;
#DIFFICULTY:Medium;
#METER:8;
#RADARVALUES:0,0,0,0,0;
#NOTES:
0000
0000
0000
0000
,
0000
0000
0000
0000
,
0000
0000
0000
0000
,
0000
0000
0000
0000
,
1000
0000
0000
0000
,
0001
0000
0000
0000
,
1000
0000
0000
0000
,
0001
0000
0000
0000
,
0100
0000
0000
0000
,
0010
0000
0000
0000
,
0001
0000
0000
0000
,
1000
0000
0000
0000
,
0100
0000
0000
0000
,
0010
0000
0000
0000
,
0100
0000
0000
0000
,
0001
0000
0000
0000
,
0100
0000
0000
0000
,
0010
0000
0000
0000
,
0002
0000
0000
0000
,
1003
0000
0000
0000
,
0100
0000
0010
0100
0010
0000
0001
0100
,
0001
0000
0010
0100
1000
0000
0100
0000
,
1000
0000
0100
1000
0100
0010
0001
0100
,
0000
0000
0010
0000
0100
0000
0000
0000
0010
0000
0001
0000
0100
0001
0100
0000
,
0010
0000
0100
1000
0100
0000
1000
0100
,
0010
0001
0100
0010
0100
0000
1000
0100
,
0000
0000
1000
0100
0010
0001
0100
0010
,
0000
0000
0100
0000
0010
0000
0001
0000
0100
0000
0001
0000
0100
0001
0100
0000
,
0010
0100
1000
0000
0100
1000
0100
0000
,
0100
0000
0010
0000
0001
0000
0000
0000
0100
0000
0010
0000
0001
0100
0001
0000
,
0010
0100
1000
0000
0100
1000
0100
0000
,
0100
0000
0010
0000
0001
0000
0100
0000
0001
0000
0100
0000
0010
0100
0010
0000
,
0001
0100
0010
0000
1000
0100
1000
0000
,
0100
0010
0001
0000
0100
0010
0100
0000
,
0001
0100
0001
0000
0100
0010
0100
1000
,
0000
0000
0100
0000
0010
0000
0001
0000
0100
0000
0010
0000
0100
0010
0100
0000
,
0010
0001
1000
0001
,
1000
0001
1000
0100
,
0020
0030
0200
0300
,
0020
0030
0002
0000
,
1003
0000
0000
0000
;

//--------------- dance-single - Wrland ----------------
#NOTEDATA:;
#CHARTSTYLE:Pad;
#CREDIT:Wrland;
#STEPSTYPE:dance-single;
#DESCRIPTION:Wrland;
#DIFFICULTY:Hard;
#METER:11;
#RADARVALUES:0,0,0,0,0;
#NOTES:
0000
0000
0000
0000
,
0000
0000
0000
0000
,
0000
0000
0000
0000
,
0000
0000
0000
0000
,
1000
0000
0100
0010
0001
0000
0100
0000
,
0010
0000
0001
1000
0001
0000
0100
0000
,
0010
0000
0000
0100
0010
0000
0010
0001
,
0200
0000
0000
0000
0300
0000
0000
0000
1000
0000
0001
0000
0100
0010
0001
0100
,
0010
0000
0100
0000
0010
0001
1000
0001
,
1000
0100
1000
0100
,
0010
0000
0000
0100
0010
0000
0001
0100
,
0020
0000
0030
0000
0200
0000
0300
0010
,
0100
0010
0100
0010
0001
0000
0100
0000
,
2000
3000
0100
1000
,
0100
1000
0100
1000
0200
0000
0310
0000
,
0010
0000
0001
0100
,
0010
0100
0010
0001
0100
0000
0010
0100
,
2000
3010
1000
0001
,
2000
0000
3002
0000
,
1003
0000
0100
0010
0001
0000
0100
0000
,
0010
0100
0010
0001
0100
0000
0010
0100
,
1000
0100
1000
0100
1000
0000
0100
0010
,
0001
0100
0010
0100
1000
0100
0010
0001
,
0000
0000
0100
0000
0010
0000
0001
0000
0100
0000
0001
0000
0100
0001
0100
0000
,
0010
0100
1000
0100
1000
0100
1000
0100
,
0010
0001
0100
0010
0100
0001
0010
0100
,
0000
0000
0010
0100
0010
0001
0100
0010
,
0000
0000
0100
0000
0010
0000
0001
0000
0100
0000
1000
0000
0100
1000
0100
0000
,
0100
0010
0001
0100
0010
0100
1000
0000
,
0100
0000
0010
0000
0001
0000
0100
0000
0010
0000
0001
0000
0100
0001
0100
0000
,
0010
0100
1000
0100
0010
0001
0100
0000
,
0010
0000
0100
0000
0010
0000
0001
0000
0100
0000
0010
0000
0100
0010
0100
0000
,
0010
0001
0100
0010
1000
0100
1000
0000
,
0100
0000
1000
0000
0100
0000
0010
0000
0001
0000
0100
0000
0001
0100
0001
0000
,
0010
0100
1000
0100
0010
0001
0100
0010
,
0000
0000
0100
0000
0010
0000
0001
0000
0100
0000
0010
0000
0100
0010
0100
0000
,
0010
0000
0100
0000
0010
0000
0001
0000
0200
0000
0300
0000
0020
0000
0000
0030
,
0100
0000
1000
0000
0100
0000
1000
0000
0200
0000
0300
0000
0200
0000
0000
0300
,
0020
0000
0000
0000
0000
0000
0030
0000
0200
0000
0000
0000
0000
0000
0000
0300
,
0002
0000
0000
0000
0000
0000
0003
0000
0100
0000
0010
0000
0100
0010
0100
0000
,
0010
0000
0000
0000
;
