#VERSION:0.83;
#TITLE:Just Be Friends;
#SUBTITLE:;
#ARTIST:ジェミニの人;
#TITLETRANSLIT:;
#SUBTITLETRANSLIT:;
#ARTISTTRANSLIT:Dixie Flatline;
#GENRE:VOCALOID;
#CREDIT:Dixie Flatline;
#MUSIC:Just Be Friends.ogg;
#BANNER:Just Be Friends.png;
#BACKGROUND:BG.png;
#JACKET:Just Be Friends-jacket.png;
#DISCIMAGE:;
#CDIMAGE:;
#SELECTABLE:YES;
#LYRICSPATH:;
#CDTITLE:VOCALOID.png;
#SAMPLESTART:79.461;
#SAMPLELENGTH:15;
#OFFSET:-0.001;
#BPMS:0.000000=127.989000;
#STOPS:;
#WARPS:;
#DELAYS:;
#SPEEDS:;
#SCROLLS:;
#TICKCOUNTS:;
#TIMESIGNATURES:;
#LABELS:;
#COMBOS:;
#FAKES:;
#BGCHANGES:0=Just Be Friends.avi=0.000000=0=0=0=StretchNoLoop====,
99999=-nosongbg-=1.000000=0=0=0=====
;
#FGCHANGES:;
#ATTACKS:;
#TAGS:DMCA;
#DISPLAYBPM:127.000;

//---------------dance-single - Wrland---------------
#NOTEDATA:;
#CHARTNAME:;
#CHARTSTYLE:Pad;
#CREDIT:Wrland;
#STEPSTYPE:dance-single;
#DESCRIPTION:Wrland;
#DIFFICULTY:Beginner;
#METER:2;
#METERF:2;
#RADARVALUES:0,0,0,0,0;
#NOTES:
// measure 0
0000
0000
0000
0000
,  // measure 1
0000
0000
0000
0000
,  // measure 2
0000
0000
0000
0000
,  // measure 3
0000
0000
0000
0000
,  // measure 4
0000
0000
0000
0000
,  // measure 5
0000
0000
0000
0000
,  // measure 6
0000
0000
0000
0000
,  // measure 7
0000
0000
0000
0000
,  // measure 8
0000
0000
0000
0000
,  // measure 9
0000
0000
0000
0000
,  // measure 10
0000
0000
0000
0001
,  // measure 11
0000
0000
0000
0100
,  // measure 12
0000
0000
0000
0100
,  // measure 13
0000
0000
0000
0010
,  // measure 14
0000
0000
0000
0010
,  // measure 15
0000
0000
0000
0010
,  // measure 16
0000
0000
0000
0010
,  // measure 17
0000
0000
0000
0100
,  // measure 18
0000
0000
0000
0100
,  // measure 19
0000
0000
0000
0100
,  // measure 20
0000
0000
0000
0100
,  // measure 21
0000
0000
0000
0001
,  // measure 22
0000
0000
0000
1000
,  // measure 23
0000
0000
0000
1000
,  // measure 24
0000
0000
0000
0010
,  // measure 25
0000
0000
0000
0010
,  // measure 26
0000
0000
0000
0100
,  // measure 27
0000
0000
0000
0100
,  // measure 28
0000
0000
0000
0100
,  // measure 29
0000
0000
0000
0100
,  // measure 30
0000
0000
0000
0001
,  // measure 31
0000
0000
0000
1000
,  // measure 32
0000
0000
0000
0010
,  // measure 33
0000
0000
0000
0100
,  // measure 34
0000
0000
0000
0100
,  // measure 35
0000
0000
0000
0100
,  // measure 36
0000
0000
0000
0100
,  // measure 37
0000
0000
0000
0100
,  // measure 38
0000
0000
0000
0100
,  // measure 39
0000
0000
0000
0001
,  // measure 40
0000
0000
0000
1000
,  // measure 41
0000
0000
0000
0020
,  // measure 42
0000
0000
0000
0130
,  // measure 43
0000
0000
0000
0001
,  // measure 44
0000
0000
0000
0100
,  // measure 45
0000
0000
0000
0100
,  // measure 46
0000
0000
0000
0001
,  // measure 47
0000
0000
0000
0100
,  // measure 48
0000
0000
0000
0100
,  // measure 49
0000
0000
0000
0001
,  // measure 50
0000
0000
0000
0010
,  // measure 51
0000
0000
0000
1000
,  // measure 52
0000
0000
0000
1000
,  // measure 53
0000
0000
0000
0010
,  // measure 54
0000
0000
0000
0100
,  // measure 55
0000
0000
0000
0010
,  // measure 56
0000
0000
0000
0010
,  // measure 57
0000
0000
0000
0100
,  // measure 58
0000
0000
0000
0001
,  // measure 59
0000
0000
0000
1000
,  // measure 60
0000
0000
0000
0100
,  // measure 61
0000
0000
0000
0010
,  // measure 62
0000
0000
0000
0100
,  // measure 63
0000
0000
0000
1000
,  // measure 64
0000
0000
0000
1000
,  // measure 65
0000
0000
0000
0010
,  // measure 66
0000
0000
0000
0110
;

//---------------dance-single - Wrland---------------
#NOTEDATA:;
#CHARTNAME:;
#CHARTSTYLE:Pad;
#CREDIT:Wrland;
#STEPSTYPE:dance-single;
#DESCRIPTION:Wrland;
#DIFFICULTY:Easy;
#METER:4;
#METERF:4;
#RADARVALUES:0,0,0,0,0;
#NOTES:
// measure 0
0000
0000
0000
0000
,  // measure 1
0000
0000
0000
0000
,  // measure 2
0000
0000
0000
0000
,  // measure 3
0000
0000
0000
0000
,  // measure 4
0000
0000
0000
0000
,  // measure 5
0000
0000
0000
0000
,  // measure 6
0000
0000
0000
0000
,  // measure 7
0000
0000
0000
0000
,  // measure 8
0000
0000
0000
0000
,  // measure 9
0000
0000
0000
0000
,  // measure 10
0000
0000
0000
0001
,  // measure 11
0000
1000
0000
0100
,  // measure 12
0000
1000
0000
0100
,  // measure 13
0000
0100
0000
0010
,  // measure 14
0000
0100
0000
0010
,  // measure 15
0000
0100
0000
0010
,  // measure 16
0000
0100
0000
0010
,  // measure 17
0000
0001
0000
0100
,  // measure 18
0000
1000
0000
0100
,  // measure 19
0000
1000
0000
0100
,  // measure 20
0000
0010
0000
0100
,  // measure 21
0000
0010
0000
0001
,  // measure 22
0000
0100
0000
1000
,  // measure 23
0000
0100
0000
1000
,  // measure 24
0000
0100
0000
0010
,  // measure 25
0000
0100
0000
0010
,  // measure 26
0000
0002
0003
0100
,  // measure 27
0000
0010
0000
0100
,  // measure 28
0000
1000
0000
0100
,  // measure 29
0000
0010
0000
0100
,  // measure 30
0000
0010
0000
0001
,  // measure 31
0000
0100
0000
1000
,  // measure 32
0000
0100
0000
0010
,  // measure 33
0000
0001
0000
0100
,  // measure 34
0000
0010
0000
0100
,  // measure 35
0000
0010
0000
0100
,  // measure 36
0000
0001
0000
0100
,  // measure 37
0000
1000
0000
0100
,  // measure 38
0000
0010
0000
0100
,  // measure 39
0000
0010
0000
0001
,  // measure 40
0000
0100
0000
1000
,  // measure 41
0000
0100
0000
0020
,  // measure 42
0000
0000
0000
0130
,  // measure 43
0000
0010
0000
0001
,  // measure 44
0000
1000
0000
0100
,  // measure 45
0000
0010
0000
0100
,  // measure 46
0000
0010
0000
0001
,  // measure 47
0000
1000
0000
0100
,  // measure 48
0000
1000
0000
0100
,  // measure 49
0000
0010
0000
0001
,  // measure 50
0000
0100
0000
0010
,  // measure 51
0000
0100
0000
1000
,  // measure 52
0000
0100
0000
1000
,  // measure 53
0000
0100
0000
0010
,  // measure 54
0000
0001
0000
0100
,  // measure 55
0000
0100
0000
0010
,  // measure 56
0000
0100
0000
0010
,  // measure 57
0000
0001
0000
0100
,  // measure 58
0000
1000
0000
0001
,  // measure 59
0000
0001
0000
1000
,  // measure 60
0000
1000
0000
0100
,  // measure 61
0000
0100
0000
0010
,  // measure 62
0000
0001
0000
0100
,  // measure 63
0000
0100
0000
1000
,  // measure 64
0000
0100
0000
1000
,  // measure 65
0000
0100
0000
0010
,  // measure 66
0000
0100
0000
0110
;

//---------------dance-single - Wrland---------------
#NOTEDATA:;
#CHARTNAME:;
#CHARTSTYLE:Pad;
#CREDIT:Wrland;
#STEPSTYPE:dance-single;
#DESCRIPTION:Wrland;
#DIFFICULTY:Medium;
#METER:10;
#METERF:10;
#RADARVALUES:0,0,0,0,0;
#NOTES:
// measure 0
0000
0000
0000
0000
,  // measure 1
0000
0000
0000
0000
,  // measure 2
0000
0000
0000
0000
,  // measure 3
0000
0000
0000
0000
,  // measure 4
0000
0000
0000
0000
,  // measure 5
0000
0000
0000
0000
,  // measure 6
0000
0000
0000
0000
,  // measure 7
0000
0000
0000
0000
,  // measure 8
0000
0000
0000
0000
,  // measure 9
0000
0000
0000
0000
,  // measure 10
0000
0000
0000
0001
,  // measure 11
1000
0100
0000
1000
0100
1000
0000
0100
,  // measure 12
1000
0100
0010
0001
0100
0010
0100
0000
,  // measure 13
0100
0010
0000
0001
0100
0010
0000
0100
,  // measure 14
0010
0001
0100
0010
0100
1000
0100
0000
,  // measure 15
1000
0100
0000
1000
0100
0010
0000
0001
,  // measure 16
0100
0001
0100
0010
0100
1000
0100
0000
,  // measure 17
1000
0100
0001
0000
0100
0001
0100
0000
,  // measure 18
0010
0100
0020
0000
0130
0000
0010
0001
,  // measure 19
1000
0000
0100
1000
0100
0000
1000
0100
,  // measure 20
0010
0000
0001
0100
0002
0003
0100
0010
,  // measure 21
0100
0000
0010
0100
1000
0000
0100
1000
,  // measure 22
0100
0000
0100
0010
0001
0000
0100
0001
,  // measure 23
0100
0000
0001
0000
0100
0000
0010
0100
0000
0000
0100
0000
1000
0000
0100
0000
,  // measure 24
1000
0000
0100
0000
1000
0000
0100
1000
0000
0000
0100
0000
0010
0000
0001
0100
,  // measure 25
0000
0000
0010
0000
0100
0000
1000
0100
0000
0000
1000
0000
0100
0000
0010
0000
,  // measure 26
0001
0100
0020
0000
0130
0000
0100
0010
,  // measure 27
0001
0100
0010
0100
0010
0001
0100
1000
,  // measure 28
0100
0000
1000
0000
0100
0000
1000
0000
0020
0000
0000
0030
0100
0000
1000
0000
,  // measure 29
0100
0010
0001
0100
0001
0100
0010
0100
,  // measure 30
1000
0100
0010
0001
0200
0300
0100
0010
,  // measure 31
0001
0000
0100
0000
0010
0000
0100
0010
0000
0000
0001
0000
0100
0000
0010
0000
,  // measure 32
0100
0000
1000
0000
0100
0000
1000
0100
0000
0000
1000
0000
0100
0000
0010
0000
,  // measure 33
0001
0100
0010
0100
1000
0100
0010
0001
,  // measure 34
0100
0001
0200
0300
0002
0003
0100
1000
,  // measure 35
0100
0000
1000
0100
0010
0000
0001
0100
,  // measure 36
0001
0000
0100
1000
0100
0000
0100
0010
,  // measure 37
0001
0000
0100
0010
0001
0000
0001
0010
,  // measure 38
0001
0000
0100
0010
0100
0000
1000
0100
,  // measure 39
1000
0000
0100
0010
0001
0000
0100
0001
,  // measure 40
0100
0000
0010
0100
0010
0000
0002
0000
,  // measure 41
2003
0000
3002
0000
1003
0001
2000
0000
,  // measure 42
0000
0000
3000
0100
1000
0100
1000
0000
,  // measure 43
1100
0000
0100
0010
0001
0200
0300
0010
,  // measure 44
0000
0001
0000
0100
0000
0010
0100
0010
,  // measure 45
0000
0001
0100
0010
0100
1000
0000
0100
,  // measure 46
1000
0000
0100
1000
0100
0010
0001
0100
,  // measure 47
0001
0000
0100
0002
0000
0003
0100
0000
0010
0000
0001
0000
0100
0000
0010
0000
,  // measure 48
0100
0000
1000
0000
0000
0000
0100
0000
1000
0000
0100
0020
0000
0030
0100
0000
,  // measure 49
0010
0000
0001
0100
0000
0000
0001
0000
0100
0000
0010
0000
0100
0000
0010
0000
,  // measure 50
0001
0000
0100
0000
0000
0000
0100
0000
0010
0000
0001
0000
1100
0000
0001
0010
,  // measure 51
0200
0300
0100
0010
0001
0100
0000
0010
,  // measure 52
0000
0100
0000
0010
0001
0100
0000
0010
,  // measure 53
0100
0000
1000
0100
0000
0000
1000
0000
0100
0000
0010
0000
0001
0000
0100
0000
,  // measure 54
0001
0000
0000
0000
0100
0000
0001
0000
0100
0000
0001
1000
0010
0000
0100
0000
,  // measure 55
0010
0000
0100
0020
0000
0030
0100
0000
0000
0000
1000
0000
0100
0000
1000
0000
,  // measure 56
0100
0000
0010
0000
0000
0000
0001
0000
0100
0000
0001
0200
0000
0300
0010
0000
,  // measure 57
0100
0000
1000
0100
0000
0000
1000
0000
0000
0000
0100
0000
1000
0000
0100
0000
,  // measure 58
0010
0001
0000
0100
0001
0100
0002
0000
,  // measure 59
0000
0000
0000
1000
,  // measure 60
0100
0000
1000
0100
1000
0100
2003
0000
,  // measure 61
0000
0000
0000
0000
0010
0100
0010
0000
,  // measure 62
0100
0010
0001
0100
0010
0100
3010
0100
,  // measure 63
0010
0000
0001
0000
0100
0000
0000
0010
0000
0000
0100
0000
1000
0000
0100
0000
,  // measure 64
0010
0001
0100
0010
0001
0100
0010
0000
,  // measure 65
0100
0000
0010
0000
0001
0000
0000
0100
0000
0000
1000
0000
0100
0000
1000
0000
,  // measure 66
0100
0010
0001
0000
0100
0010
0110
0000
;

//---------------dance-single - Wrland---------------
#NOTEDATA:;
#CHARTNAME:;
#CHARTSTYLE:Pad;
#CREDIT:Wrland;
#STEPSTYPE:dance-single;
#DESCRIPTION:Wrland;
#DIFFICULTY:Hard;
#METER:13;
#METERF:13;
#RADARVALUES:0,0,0,0,0;
#NOTES:
// measure 0
0000
0000
0000
0000
,  // measure 1
0000
0000
0000
0000
,  // measure 2
0000
0000
0000
0000
,  // measure 3
0000
0000
0000
0000
,  // measure 4
0000
0000
0000
0000
,  // measure 5
0000
0000
0000
0000
,  // measure 6
0000
0000
0000
0000
,  // measure 7
0000
0000
0000
0000
,  // measure 8
0000
0000
0000
0000
,  // measure 9
0000
0000
0000
0000
,  // measure 10
0000
0000
0000
0000
0001
1000
0001
0000
,  // measure 11
1000
0200
0300
1000
0100
0020
0030
0001
,  // measure 12
0100
0001
0100
0001
0010
0100
0010
0000
,  // measure 13
0001
0200
0300
0010
0100
2000
3000
0100
,  // measure 14
1000
0100
1000
0100
0010
0001
0100
0000
,  // measure 15
0100
0020
0030
0001
0100
0002
0003
0100
,  // measure 16
0010
0001
0100
1000
0100
1000
0200
0300
,  // measure 17
1000
0100
0020
0030
0100
1000
0002
0003
,  // measure 18
1000
0000
0100
0000
0010
0000
0001
0000
0101
0000
0000
0000
0100
0010
1000
0100
,  // measure 19
1000
0000
0001
1000
0000
0000
0100
0000
1000
0100
0010
0100
0001
0000
0010
0000
,  // measure 20
0100
0000
1000
0010
0100
0000
1000
0000
0200
0000
0000
0300
0010
0000
0100
0010
,  // measure 21
0100
0010
0001
1000
0000
0000
0100
0000
1000
0000
0100
1000
0000
0000
0100
0000
,  // measure 22
0010
0000
0100
0001
0010
0000
0100
0000
0010
0000
0001
0010
0100
1000
0100
0010
,  // measure 23
1000
0000
0100
1000
0100
0010
0001
0100
0001
0000
1000
0000
0100
1000
0100
0010
,  // measure 24
0001
0010
0100
0010
0100
0000
0010
0100
0000
0000
0001
0000
0100
0000
1000
0100
,  // measure 25
0000
0000
1000
0000
0100
0000
1000
0100
0000
0001
0100
0000
0010
0000
0100
0000
,  // measure 26
1000
0000
0001
1000
0002
0000
0003
0000
0200
0010
0010
0010
0310
1000
0001
0100
,  // measure 27
0001
0000
0010
0100
0000
0000
0010
0000
0100
0000
0010
0001
0000
0000
0010
0000
,  // measure 28
0100
0000
1000
0100
0000
0000
0010
0000
0200
0000
0000
0300
0010
0000
0001
0100
,  // measure 29
0001
0000
1000
0100
1000
0000
0100
0000
0010
0000
0100
0010
0000
0000
0001
0000
,  // measure 30
0100
0000
0010
0001
0000
0000
0100
0000
0010
0000
0001
0000
0100
0010
0100
0010
,  // measure 31
0100
0001
1000
1000
0100
0000
0010
0100
0000
1000
0001
0010
0100
0010
0100
0010
,  // measure 32
0001
0000
1000
0010
0100
0010
0001
0100
0000
0000
0010
0001
0100
0000
1000
0010
,  // measure 33
0000
0000
0100
0000
1000
0000
0100
1000
0001
0000
0100
0010
1000
0000
0001
0000
,  // measure 34
1000
0000
0100
0010
0002
0000
0000
0003
0200
0010
0010
0010
0310
0000
0001
0000
,  // measure 35
0100
0000
0001
0100
0000
0000
0010
0000
0100
0000
1000
0010
0000
0000
0100
0000
,  // measure 36
1000
0000
0100
1000
0000
0000
0100
0000
0010
0000
0001
0000
0100
0000
0010
0000
,  // measure 37
0100
0000
0001
0100
0000
0001
0010
0000
0100
0000
1000
0100
0010
1000
0100
0001
,  // measure 38
0010
0000
0100
0000
0010
0001
0100
0000
0010
0000
0100
0010
1000
0000
0100
0000
,  // measure 39
1000
0000
0100
1000
0000
0000
0100
0000
1000
0000
0100
0010
0001
0000
0100
0000
,  // measure 40
0010
0000
0100
0010
0000
0000
0001
0000
0010
0000
0100
0000
0001
0000
0010
0000
,  // measure 41
1000
0000
0100
0001
0100
0000
0010
0000
0100
0000
0010
0000
0020
0000
1000
0000
,  // measure 42
0100
1000
0130
1000
0100
0010
0002
0000
,  // measure 43
0203
0000
0301
0100
0010
0200
0000
2300
,  // measure 44
0000
3200
0000
1300
0100
2000
0000
3100
,  // measure 45
0000
0000
1000
0100
0010
0000
0001
0000
0100
0000
0020
0000
0000
0000
0130
0000
,  // measure 46
2000
3000
0100
1000
0100
0010
0001
0100
,  // measure 47
0001
0000
0100
0002
0000
0003
0200
0000
0300
0000
0010
0000
0100
0000
0010
0000
,  // measure 48
0001
0000
0100
0001
0000
0000
0100
0000
0010
0000
0100
0010
1000
0000
0100
0000
,  // measure 49
1000
0200
0300
1000
0100
1000
0100
0010
,  // measure 50
0001
0000
0100
0001
0000
0000
0100
0000
0010
0000
0100
0000
1000
0000
0001
0000
,  // measure 51
2000
0000
3100
1000
0100
2000
0000
3100
,  // measure 52
0000
0020
0000
0130
0001
0020
0000
0130
,  // measure 53
0010
0000
0001
0100
0000
0000
0010
0000
0100
0000
0020
0000
0000
0000
0031
0000
,  // measure 54
0200
0000
0300
0000
0100
0000
0010
0000
0001
0000
0100
0010
0001
0000
0010
0000
,  // measure 55
0100
0000
1000
0200
0000
0300
2000
0000
3000
0000
0100
0000
1000
0000
0100
0000
,  // measure 56
0010
0000
0002
0000
0003
0000
0100
0000
0010
1000
0001
0000
0100
0000
0010
0000
,  // measure 57
0100
0000
0010
0200
0000
0300
0010
0000
0001
0000
0100
0000
0010
0000
0100
0000
,  // measure 58
1000
0200
0300
1000
0100
1000
0200
0300
,  // measure 59
1000
0000
0100
0000
0010
0000
0100
0000
0001
0000
0100
0001
0100
0000
0010
0000
,  // measure 60
0100
0000
1000
0100
0000
0000
0010
0000
0100
0000
0010
0000
0001
0000
0100
0000
,  // measure 61
0010
0000
0100
0000
1000
0000
0100
1000
0000
0000
0100
0000
1000
0000
0100
0000
,  // measure 62
0010
0000
0001
0000
0100
0000
0001
0100
0001
0000
0010
0000
0100
0000
0010
0000
,  // measure 63
0100
0000
0010
0000
0002
0000
0003
0100
0000
0000
1000
0000
0100
0000
1000
0000
,  // measure 64
0100
0000
0010
0100
0000
0000
0010
0000
0001
0000
0100
0000
0010
0000
0000
0000
,  // measure 65
0100
0000
0010
0000
0100
0000
0010
1000
0001
0000
0100
0000
0010
0000
0001
0000
,  // measure 66
0100
0000
1000
0000
0010
0000
0100
0001
0010
0000
0100
0000
0010
0000
0000
0000
;
