#VERSION:0.83;
#TITLE:뛰어;
#SUBTITLE:;
#ARTIST:블랙핑크;
#TITLETRANSLIT:JUMP;
#SUBTITLETRANSLIT:;
#ARTISTTRANSLIT:BLACKPINK;
#GENRE:K-Pop;
#CREDIT:YG;
#MUSIC:JUMP.ogg;
#BANNER:JUMP.png;
#BACKGROUND:BG.png;
#JACKET:JUMP-jacket.png;
#DISCIMAGE:;
#CDIMAGE:;
#SELECTABLE:YES;
#LYRICSPATH:;
#CDTITLE:Korean.png;
#SAMPLESTART:33.103;
#SAMPLELENGTH:15.000;
#BPMS:0.000000=145.000000,
174.000000=72.500000,
177.000000=145.000000
;
#STOPS:;
#WARPS:;
#DELAYS:;
#SPEEDS:;
#SCROLLS:;
#TICKCOUNTS:;
#TIMESIGNATURES:;
#LABELS:;
#COMBOS:;
#FAKES:;
#BGCHANGES:0.000=JUMP.avi=0.000=0=0=0=StretchNoLoop====,
99999=-nosongbg-=1.000=0=0=0 // don't automatically add -songbackground-
;
#FGCHANGES:;
#ATTACKS:;
#DISPLAYBPM:145.000;

//---------------dance-single - Wrland---------------
#NOTEDATA:;
#CHARTNAME:;
#CHARTSTYLE:Pad;
#CREDIT:Wrland;
#STEPSTYPE:dance-single;
#DESCRIPTION:Wrland;
#DIFFICULTY:Beginner;
#METER:3;
#METERF:1;
#RADARVALUES:0,0,0,0,0;
#NOTES:
// measure 0
0000
0000
0000
0000
,  // measure 1
0000
0000
0000
0000
,  // measure 2
0000
0000
0000
0000
,  // measure 3
0000
0000
0000
0000
,  // measure 4
0001
0000
0000
0000
,  // measure 5
1000
0000
0000
0000
,  // measure 6
0010
0000
0000
0000
,  // measure 7
0100
0000
0000
0000
,  // measure 8
0001
0000
0000
0000
,  // measure 9
0010
0000
0000
0000
,  // measure 10
0100
0000
0000
0000
,  // measure 11
0010
0000
0000
0000
,  // measure 12
0100
0000
0000
0000
,  // measure 13
0010
0000
0000
0000
,  // measure 14
0001
0000
0000
0000
,  // measure 15
2000
0000
0000
3000
,  // measure 16
0100
0000
0000
0000
,  // measure 17
0010
0000
0000
0000
,  // measure 18
0002
0000
0000
0000
,  // measure 19
0003
0000
0000
0000
,  // measure 20
1000
0000
0000
0000
,  // measure 21
0001
0000
0000
0000
,  // measure 22
1000
0000
0000
0000
,  // measure 23
0001
0000
0000
0000
,  // measure 24
0100
0000
0000
0000
,  // measure 25
0010
0000
0000
0000
,  // measure 26
0100
0000
0000
0000
,  // measure 27
0010
0000
0000
0000
,  // measure 28
0100
0000
0000
0000
,  // measure 29
0100
0000
0000
0000
,  // measure 30
0010
0000
0000
0000
,  // measure 31
0010
0000
0000
0000
,  // measure 32
0100
0000
0000
0000
,  // measure 33
0100
0000
0000
0000
,  // measure 34
0000
0000
0000
0000
,  // measure 35
0000
0000
0000
0000
,  // measure 36
0200
0000
0000
0000
,  // measure 37
0000
0000
0000
0300
,  // measure 38
0002
0000
0000
0000
,  // measure 39
0000
0000
0003
0000
,  // measure 40
0020
0000
0000
0000
,  // measure 41
0000
0000
0000
0030
,  // measure 42
0200
0000
0000
0000
,  // measure 43
0000
0000
0300
0000
,  // measure 44
0000
0000
0000
0000
,  // measure 45
0000
0000
0000
0000
,  // measure 46
0000
0000
0000
0000
,  // measure 47
0000
0000
0000
0000
,  // measure 48
0000
1100
0000
0000
,  // measure 49
0000
0011
0000
0000
,  // measure 50
0000
0110
0000
0000
,  // measure 51
0000
0110
0000
0000
,  // measure 52
0000
1100
0000
0000
,  // measure 53
0000
0011
0000
0000
,  // measure 54
0000
0110
0000
0000
,  // measure 55
0000
0110
0000
0000
;

//---------------dance-single - Wrland---------------
#NOTEDATA:;
#CHARTNAME:;
#CHARTSTYLE:Pad;
#CREDIT:Wrland;
#STEPSTYPE:dance-single;
#DESCRIPTION:Wrland;
#DIFFICULTY:Easy;
#METER:7;
#METERF:7;
#RADARVALUES:0,0,0,0,0;
#NOTES:
// measure 0
0000
0000
0000
0000
,  // measure 1
0000
0000
0000
0000
,  // measure 2
0000
0000
0000
0000
,  // measure 3
0000
0000
0000
0000
,  // measure 4
0001
0000
0001
0000
,  // measure 5
2000
0000
0000
3000
,  // measure 6
0010
0000
0100
0000
,  // measure 7
0020
0000
0000
0030
,  // measure 8
0001
0000
0100
0000
,  // measure 9
0020
0000
0000
0030
,  // measure 10
0100
0000
1000
0000
,  // measure 11
0200
0000
0000
0300
,  // measure 12
0100
0000
0100
0000
,  // measure 13
0010
0000
0010
0000
,  // measure 14
0001
0000
0001
0000
,  // measure 15
2000
0000
0000
3000
,  // measure 16
0100
0000
0100
0000
,  // measure 17
0010
0000
0010
0000
,  // measure 18
0002
0000
0000
0000
,  // measure 19
0003
0000
0000
0000
,  // measure 20
1000
0000
1000
0000
,  // measure 21
0001
0000
0001
0000
,  // measure 22
1000
0000
1000
0000
,  // measure 23
0001
0000
0001
0000
,  // measure 24
0100
0000
0100
0000
,  // measure 25
0010
0000
0010
0000
,  // measure 26
0100
0000
0100
0000
,  // measure 27
0010
0000
0000
0000
,  // measure 28
0100
0000
1000
0000
,  // measure 29
0100
0000
0000
0000
,  // measure 30
0010
0000
0001
0000
,  // measure 31
0010
0000
0000
0000
,  // measure 32
0100
0000
0010
0000
,  // measure 33
0100
0000
0000
0000
,  // measure 34
0020
0000
0000
0030
,  // measure 35
0001
0000
1000
0000
,  // measure 36
0200
0000
0000
0300
,  // measure 37
0020
0000
0000
0030
,  // measure 38
0002
0000
0000
0003
,  // measure 39
0200
0000
0300
0000
,  // measure 40
0020
0000
0000
0030
,  // measure 41
0002
0000
0000
0003
,  // measure 42
0200
0000
0000
0300
,  // measure 43
2000
0000
0000
0000
,  // measure 44
0000
3000
0000
0000
0000
0000
0000
0000
,  // measure 45
0000
0000
0000
0000
,  // measure 46
0000
0000
0000
0000
,  // measure 47
0000
0000
0000
0000
,  // measure 48
0000
1100
0000
0110
,  // measure 49
0000
0011
0000
0000
,  // measure 50
0000
0110
0000
1001
,  // measure 51
0000
0110
0000
0000
,  // measure 52
0000
1100
0000
0110
,  // measure 53
0000
0011
0000
0000
,  // measure 54
0000
0110
0000
1001
,  // measure 55
0000
0110
0000
0000
;

//---------------dance-single - Wrland---------------
#NOTEDATA:;
#CHARTNAME:;
#CHARTSTYLE:Pad;
#CREDIT:Wrland;
#STEPSTYPE:dance-single;
#DESCRIPTION:Wrland;
#DIFFICULTY:Medium;
#METER:10;
#METERF:1;
#RADARVALUES:0,0,0,0,0;
#NOTES:
// measure 0
0000
0000
0000
0000
,  // measure 1
0000
0000
0000
0000
,  // measure 2
0000
0000
0000
0000
,  // measure 3
0000
0000
0000
0000
,  // measure 4
0001
1000
0200
0300
,  // measure 5
0100
0010
0001
0100
,  // measure 6
0010
0100
0020
0030
,  // measure 7
0001
0100
0020
0030
,  // measure 8
0100
0100
2000
3000
,  // measure 9
0100
0010
0002
0003
,  // measure 10
0100
0010
0002
0003
,  // measure 11
0100
0010
0200
0300
,  // measure 12
0100
0100
0010
0000
,  // measure 13
0001
0001
0100
0000
,  // measure 14
1000
1000
0100
0000
,  // measure 15
1000
0001
1000
0000
,  // measure 16
0100
0100
0010
0000
,  // measure 17
0001
0001
0100
0000
,  // measure 18
0010
0010
0100
0000
,  // measure 19
0010
0100
0010
0000
,  // measure 20
0100
0100
0100
0000
,  // measure 21
0010
0010
0010
1001
,  // measure 22
0000
0100
0100
0000
,  // measure 23
1000
0100
1000
1001
,  // measure 24
0000
0100
0010
0000
,  // measure 25
0001
0100
0001
1001
,  // measure 26
0000
0100
1000
0000
,  // measure 27
0100
1000
0100
1100
,  // measure 28
0100
0100
0010
0000
,  // measure 29
0001
0100
0010
0110
,  // measure 30
0000
0100
0010
0000
,  // measure 31
0001
0100
0010
0110
,  // measure 32
0000
0100
0010
0000
,  // measure 33
0100
0000
1000
0000
0100
0000
1000
1100
,  // measure 34
0000
0100
0010
0001
,  // measure 35
0200
0000
0000
0310
,  // measure 36
0002
0003
1000
0100
,  // measure 37
2000
3000
0100
0010
,  // measure 38
0001
0100
0010
0100
,  // measure 39
0020
0000
0030
0000
,  // measure 40
0200
0300
1000
0100
,  // measure 41
2000
3000
0100
0010
,  // measure 42
0001
0100
0010
0100
,  // measure 43
0020
0000
0000
0000
,  // measure 44
0000
0030
0000
0000
0000
0000
0000
0000
,  // measure 45
0000
0000
0000
0000
,  // measure 46
0000
0000
0000
0000
,  // measure 47
0000
0000
0000
0000
,  // measure 48
0000
1100
0000
1100
,  // measure 49
0000
0110
0000
0011
,  // measure 50
0000
0110
0000
0110
,  // measure 51
0000
0011
0000
1001
,  // measure 52
0000
1100
0000
0110
,  // measure 53
0000
0011
0000
1100
,  // measure 54
0000
0110
0000
0011
,  // measure 55
0000
0110
0000
1001
;

//---------------dance-single - Wrland---------------
#NOTEDATA:;
#CHARTNAME:;
#CHARTSTYLE:Pad;
#CREDIT:Wrland;
#STEPSTYPE:dance-single;
#DESCRIPTION:Wrland;
#DIFFICULTY:Hard;
#METER:12;
#METERF:1;
#RADARVALUES:0,0,0,0,0;
#NOTES:
// measure 0
0000
0000
0000
0000
,  // measure 1
0000
0000
0000
0000
,  // measure 2
0000
0000
0000
0000
,  // measure 3
0000
0000
0000
0000
0000
1000
0001
1000
,  // measure 4
0002
0003
2000
3000
0002
0000
0003
0000
,  // measure 5
0100
0000
0010
0000
0100
0010
0100
0010
,  // measure 6
0200
0300
2000
3000
0100
0000
1000
0100
,  // measure 7
2000
3000
0200
0300
0010
0000
0001
0100
,  // measure 8
0002
0003
0200
0300
0020
0000
0030
0000
,  // measure 9
0100
0000
0010
0100
0010
0000
0001
0000
,  // measure 10
0100
0010
2000
3000
0200
0300
0010
0100
,  // measure 11
0020
0030
0002
0003
0200
0000
0300
0000
,  // measure 12
0010
0000
0000
0000
0001
0000
0000
0000
0100
0010
0100
0000
0000
0000
0000
0000
,  // measure 13
0010
0000
0000
0000
0100
0000
0000
0000
1000
0100
1000
0000
0000
0000
0000
0000
,  // measure 14
0100
0000
0000
0000
1000
0000
0000
0000
0100
1000
0100
0000
0010
0000
0000
0000
,  // measure 15
0002
0003
0200
0300
0010
0100
0000
0010
,  // measure 16
0001
0000
0000
0000
0100
0000
0000
0000
0010
0100
0010
0000
0000
0000
0000
0000
,  // measure 17
0100
0000
0000
0000
1000
0000
0000
0000
1000
0100
1000
0000
0000
0000
0000
0000
,  // measure 18
0100
1000
0100
0010
0001
0000
0010
0001
,  // measure 19
0200
0300
0020
0030
0002
0003
1001
0000
,  // measure 20
0100
0000
0000
0010
0000
0000
0100
0000
0010
0000
0000
0000
0001
0000
0000
0000
,  // measure 21
0100
0000
0000
1000
0000
0000
0100
0000
1000
0000
0000
0000
1100
0000
0000
0000
,  // measure 22
0100
0000
0000
0010
0000
0000
0001
0000
0100
0000
0000
0000
0010
0000
0000
0000
,  // measure 23
0001
0000
0000
0100
0000
0000
0010
0000
0100
0000
0000
0000
0110
0000
0000
0000
,  // measure 24
0001
0000
0000
0100
0000
0000
0010
0000
0100
0000
0000
0000
0010
0000
0000
0000
,  // measure 25
0001
0000
0000
0010
0000
0000
0100
0000
1000
0000
0000
0000
1100
0000
0000
0000
,  // measure 26
0100
0000
0000
0010
0000
0000
0001
0000
0100
0000
0000
0000
0010
0000
0000
0000
,  // measure 27
0100
0000
0000
0010
0000
0000
0001
0000
0100
0000
0000
0000
0110
0000
0000
0000
,  // measure 28
0010
0000
0000
0001
0000
0000
0100
0000
0010
0000
0000
0000
0100
0000
0000
0000
,  // measure 29
1000
0000
0000
0100
0000
0000
1000
0000
0100
0000
0000
0000
0110
0000
0000
0000
,  // measure 30
0001
0000
0000
0100
0000
0000
0010
0000
0100
0000
0000
0000
1000
0000
0000
0000
,  // measure 31
0100
0000
0000
1000
0000
0000
0100
0000
1000
0000
0000
0000
1100
0000
0000
0000
,  // measure 32
0100
0000
0000
0010
0000
0000
0001
0000
0100
0000
0000
0000
0010
0000
0000
0000
,  // measure 33
0100
0000
0000
0010
0000
0000
0001
0000
0100
0000
0000
0000
0110
0000
0000
0000
,  // measure 34
0001
0000
0000
1000
0000
0000
1000
0000
1000
0000
0000
0000
0100
0000
0000
0000
,  // measure 35
0100
0010
0000
0000
0100
0010
0000
0000
0100
0010
0000
0000
0110
0000
0000
0000
,  // measure 36
0020
0000
0030
0100
0010
0001
0100
0010
,  // measure 37
0200
0000
0000
0300
0010
0000
0001
0000
,  // measure 38
0100
0010
0100
1000
0100
0010
0001
0100
,  // measure 39
0020
0000
0030
0110
,  // measure 40
2000
0000
3000
0001
1000
0100
0010
0001
,  // measure 41
0200
0000
0000
0300
0010
0001
0100
0010
,  // measure 42
0100
0010
0001
0100
0010
0100
1000
0100
,  // measure 43
0020
0000
0000
0000
,  // measure 44
0000
0000
0030
0000
0000
0000
0000
0100
0000
0000
0100
0000
0100
0000
0010
0000
,  // measure 45
0100
0000
0000
0000
0010
0000
0000
0010
0000
0000
0001
0000
0100
0000
0000
0000
,  // measure 46
0110
0000
0000
0000
0000
0000
0000
0001
0000
0000
0001
0000
0100
0000
0010
0000
,  // measure 47
0100
0000
1000
0000
0100
0000
0000
1000
0000
0000
0100
0000
1000
0000
0000
0000
,  // measure 48
0100
1100
1100
1100
,  // measure 49
0110
0011
0011
0011
,  // measure 50
0000
0110
0110
0110
,  // measure 51
0011
0110
1100
0110
,  // measure 52
0000
1100
1100
1100
,  // measure 53
0110
0011
0110
1001
,  // measure 54
0000
1100
0110
0011
,  // measure 55
0110
1100
0110
1001
,  // measure 56
0110
0000
0000
0000
;

//---------------dance-single - Wrland---------------
#NOTEDATA:;
#CHARTNAME:;
#CHARTSTYLE:Pad;
#CREDIT:Wrland;
#STEPSTYPE:dance-single;
#DESCRIPTION:Wrland;
#DIFFICULTY:Challenge;
#METER:14;
#METERF:1;
#RADARVALUES:0,0,0,0,0;
#NOTES:
// measure 0
0000
0000
0000
0000
,  // measure 1
0000
0000
0000
0000
,  // measure 2
0000
0000
0000
0000
,  // measure 3
0000
0000
0000
0000
0000
1000
0001
1000
,  // measure 4
0200
0000
0300
0000
2000
0000
3000
0100
1000
0000
0000
0000
0100
0000
0010
0000
,  // measure 5
0002
0000
0003
0000
0100
0000
0000
0001
0100
0000
0010
0000
0100
0000
0010
0000
,  // measure 6
0001
1000
0200
0300
0002
0003
0100
0010
,  // measure 7
0002
0000
0003
0000
0200
0000
0300
0010
1000
0000
0000
0000
0100
0000
0010
0000
,  // measure 8
0200
0000
0300
0000
0002
0000
0003
0100
0010
0000
0000
0000
0100
0000
1000
0000
,  // measure 9
0200
0300
2000
3000
0100
0010
0001
0100
,  // measure 10
0010
0001
0200
0300
0020
0030
0001
0100
,  // measure 11
0020
0000
0030
0000
2000
0000
3000
0001
0100
0000
0000
0000
0010
0000
0100
0000
,  // measure 12
0010
0000
0001
0000
0100
0000
1000
0000
0010
0001
0200
0000
0310
0000
0000
0000
,  // measure 13
0100
0000
0010
0000
0001
0000
0100
0000
0010
0100
0020
0000
0130
0000
1000
0000
,  // measure 14
0100
0000
0010
0000
0001
0000
0100
0000
0001
0100
0001
0000
0100
0000
0010
0000
,  // measure 15
0200
0300
0020
0030
0001
0200
0300
0010
,  // measure 16
0100
0000
0000
0000
0010
0000
0100
0000
0010
0100
0020
0000
0030
0000
0100
0000
,  // measure 17
1000
0000
0000
0000
0100
0000
1000
0000
0100
1000
0100
0000
0010
0000
0001
0000
,  // measure 18
0100
0010
0100
0010
0001
1000
0100
0010
,  // measure 19
0110
1001
1100
1001
,  // measure 20
1000
0000
0001
1000
0000
0001
1000
0000
0001
0000
1000
0000
0001
0000
1000
0000
,  // measure 21
1100
0000
0000
0110
0000
0000
0011
0000
0100
0000
0000
0000
0110
0000
0000
0000
,  // measure 22
0010
0000
0100
0010
0000
0100
0010
0000
0100
0000
0010
0000
0100
0000
0010
0000
,  // measure 23
0110
0000
0000
1100
0000
0000
0110
0000
0001
0000
0000
0000
0011
0000
0000
0000
,  // measure 24
1000
0000
0100
1000
0000
0100
1000
0000
0100
0000
1000
0000
0100
0000
1000
0000
,  // measure 25
0110
0000
0000
1100
0000
0000
0011
0000
0100
0000
0000
0000
0110
0000
0000
0000
,  // measure 26
0100
0000
0010
0100
0000
0010
0100
0000
0010
0000
0100
0000
0010
0000
0100
0000
,  // measure 27
1100
0000
0000
0110
0000
0000
0011
0000
0100
0000
0000
0000
1100
0000
0000
0000
,  // measure 28
0100
0000
0010
0100
0000
0000
0010
0000
0001
0000
0100
0000
0010
0000
0100
0000
,  // measure 29
2000
0000
3000
0100
0000
0000
1000
0000
0200
0000
0300
0000
0100
0000
0110
0000
,  // measure 30
0010
0000
0100
0010
0000
0000
0001
0000
0100
0000
0010
0000
0100
0000
1000
0000
,  // measure 31
0200
0000
0300
0100
0000
0000
0010
0000
0200
0000
0300
0000
0100
0000
1000
0000
,  // measure 32
0001
0000
0100
0001
0000
0100
0010
0000
0100
0000
0010
0000
0100
0000
0010
0000
,  // measure 33
0200
0000
0300
1000
0000
0000
0100
0000
2000
0000
3000
0000
1000
0000
1001
0000
,  // measure 34
0100
0000
0010
0100
0000
0010
0100
0000
0010
0000
0001
0000
0100
0000
0010
0000
,  // measure 35
0100
1000
0000
0000
0100
0010
0000
0000
0001
0010
0000
0000
0110
0000
0000
0000
,  // measure 36
2000
0000
3000
0100
0010
0001
0100
0010
,  // measure 37
0002
0000
0000
0003
0100
1000
0100
0010
,  // measure 38
0001
0010
0100
1000
0100
0010
0001
0100
,  // measure 39
0020
0000
0100
1030
0000
0000
0110
0000
,  // measure 40
0200
0000
0300
0010
0001
0100
0010
0100
,  // measure 41
2000
0000
3000
0000
0100
0010
0001
0100
,  // measure 42
0010
0100
1000
0100
0010
0001
0100
0010
,  // measure 43
0200
0000
0000
0000
,  // measure 44
0000
0000
0300
0000
0000
0000
0000
0010
0000
0000
0010
0000
0100
0000
0010
0000
,  // measure 45
0100
0000
1000
0000
0100
0000
0000
0100
0000
0000
0010
0000
0100
0000
0000
0000
,  // measure 46
0110
0000
0000
0000
0000
0000
0000
0001
0000
0000
0100
0000
0010
0000
0100
0000
,  // measure 47
1000
0000
0100
0000
0010
0000
0000
0001
0000
0000
0100
0000
0010
0000
0000
0000
,  // measure 48
0110
1100
1100
0110
,  // measure 49
0110
0011
0011
1001
,  // measure 50
1001
1100
1100
0110
,  // measure 51
0110
0011
0011
1100
,  // measure 52
1100
0110
1001
0110
,  // measure 53
1001
1100
0011
1100
,  // measure 54
0011
0110
1001
1100
,  // measure 55
0110
1001
0110
1100
,  // measure 56
0110
0000
0000
0000
;
