#TITLE:命に嫌われている。;
#SUBTITLE:;
#ARTIST:カンザキイオリ;
#TITLETRANSLIT:Inochi ni Kirawarete Iru;
#SUBTITLETRANSLIT:;
#ARTISTTRANSLIT:Iori Kanzaki;
#GENRE:VOCALOID;
#CREDIT:Kamitsubaki;
#MUSIC:Inochi ni Kirawarete Iru.ogg;
#BANNER:Inochi ni Kirawarete Iru.png;
#BACKGROUND:BG.png;
#CDTITLE:VOCALOID.png;
#SAMPLESTART:57.600;
#SAMPLELENGTH:15.000;
#SELECTABLE:YES;
#OFFSET:0.000;
#BPMS:0.000=100.000
,16.000=200.000
;
#STOPS:;
#DISPLAYBPM:200.000;
#TAGS:DMCA;
#JACKET:Inochi ni Kirawate Iru-jacket;
#BGCHANGES:0.000=Inochi ni Kirawarete Iru.avi=0.000=0=0=0=StretchNoLoop====,
99999=-nosongbg-=1.000=0=0=0 // don't automatically add -songbackground-
;
#FGCHANGES:;

//--------------- dance-single - Wrland ----------------
#NOTES:
     dance-single:
     Wrland:
     Beginner:
     3:
     0,0,0,0,0:
0000
0000
0000
0000
,
0000
0000
0000
0000
,
0000
0000
0000
0000
,
0000
0000
0000
0000
,
0000
0000
1000
0000
,
0000
0000
1000
0000
,
0000
0000
0100
0000
,
0000
0000
0100
0000
,
0000
0000
0010
0000
,
0000
0000
0001
0000
,
0000
0000
0100
0000
,
0000
0000
0100
0000
,
0000
0000
1000
0000
,
0000
0000
1000
0000
,
0000
0000
0100
0000
,
0000
0000
0010
0000
,
0000
0000
0001
0000
,
0000
0000
0100
0000
,
0000
0000
0010
0000
,
0000
0000
0100
0000
,
0000
0000
0001
0000
,
0000
0000
0100
0000
,
0000
0000
1000
0000
,
0000
0000
0010
0000
,
0000
0000
0100
0000
,
0000
0000
0010
0000
,
0000
0000
0100
0000
,
0000
0000
0010
0000
,
0000
0000
0001
0000
,
0000
0000
0100
0000
,
0000
0000
0010
0000
,
0000
0000
0100
0000
,
0000
0000
1000
0000
,
0000
0000
0100
0000
,
0000
0000
0010
0000
,
0000
0000
0001
0000
,
0000
0000
0100
0000
,
0000
0000
0100
0000
,
0000
0000
0010
0000
,
0000
0000
0100
0000
,
0000
0000
1000
0000
,
0000
0000
0100
0000
,
0000
0000
1000
0000
,
0000
0000
0002
0000
,
0000
0003
1000
0000
,
1000
0000
0001
0000
,
0001
0000
1000
0000
,
1000
0000
0001
0000
,
0001
0000
0100
0000
,
0100
0000
0010
0000
,
0010
0000
0001
0000
,
0001
0100
0001
0000
,
0100
0010
0100
0000
,
0100
0000
1000
0000
,
1000
0000
0100
0000
,
0100
0000
1000
0000
,
1000
0000
0010
0000
,
0010
0000
0001
0000
,
0001
0000
0100
0010
,
0100
0000
0001
0100
,
0001
0000
0100
0000
,
0000
0000
0001
0000
,
0000
0000
1000
0000
,
0000
0000
0001
0000
,
0000
0000
0010
0000
,
0000
0000
0010
0000
,
0000
0000
0100
0000
,
0000
0000
1000
0000
,
0000
0000
0100
0000
,
0000
0000
0100
0000
,
0000
0000
0001
0000
,
0000
0000
0010
0000
,
0000
0000
0010
0000
,
0000
0000
0100
0000
,
0000
0000
0001
0000
,
0000
0000
0010
0000
;

//--------------- dance-single - Wrland ----------------
#NOTES:
     dance-single:
     Wrland:
     Easy:
     5:
     0,0,0,0,0:
0000
0000
0000
0000
,
0000
0000
0000
0000
,
0000
0000
0000
0000
,
0000
0000
0000
0000
,
0000
0000
1000
0000
,
0001
0000
1000
0000
,
0001
0000
0100
0000
,
1000
0000
0100
0000
,
1000
0000
0010
0000
,
0100
0000
0001
0000
,
0010
0000
0100
0000
,
0001
0000
0100
0000
,
0010
0000
1000
0000
,
0100
0000
1000
0000
,
0001
0000
0100
0000
,
1000
0000
0010
0000
,
0100
0000
0001
0000
,
0010
0000
0100
0000
,
0001
0000
0010
0000
,
1000
0000
0100
0000
,
0010
0000
0001
0000
,
0100
0000
0100
0000
,
0001
0000
1000
0000
,
0100
0000
0010
0000
,
0001
0000
0100
0000
,
1000
0000
0010
0000
,
0100
0000
0100
0000
,
0010
0000
0010
0000
,
0001
0000
0001
0000
,
1000
0000
0100
0000
,
0001
0000
0010
0000
,
0100
0000
0100
0000
,
0001
0000
1000
0000
,
0001
0000
0100
0000
,
1000
0000
0010
0000
,
0100
0000
0001
0000
,
0010
0000
0100
0000
,
1000
0000
0100
0000
,
1000
0000
0010
0000
,
0100
0000
0100
0000
,
0001
0000
1000
0000
,
0010
0000
0100
0000
,
0001
0000
1000
0000
,
0100
0000
0002
0000
,
0000
0003
1000
1000
,
1000
0000
0001
0001
,
0001
0000
1000
1000
,
1000
0000
0001
0001
,
0001
0000
0100
0100
,
0100
0000
0010
0010
,
0010
0000
0001
0100
,
0001
0100
0001
0000
,
0100
0010
0100
0100
,
0100
0000
1000
1000
,
1000
0000
0100
0100
,
0100
0000
1000
1000
,
1000
0000
0010
0010
,
0010
0000
0001
0001
,
0001
0000
0100
0010
,
0100
0000
0001
0100
,
0001
0000
0100
0000
,
1000
0000
0001
0000
,
0100
0000
1000
0000
,
0010
0000
0001
0000
,
0100
0000
0010
0000
,
0100
0000
0010
0000
,
0001
0000
0100
0000
,
0100
0000
1000
0000
,
1000
0000
0100
0000
,
1000
0000
0100
0000
,
0010
0000
0001
0000
,
0100
0000
0010
0000
,
0100
0000
0010
0000
,
0010
0000
0100
0000
,
0100
0000
0001
0000
,
0100
0000
0010
0000
,
0001
0000
0000
0000
;

//--------------- dance-single - Wrland ----------------
#NOTES:
     dance-single:
     Wrland:
     Medium:
     10:
     0,0,0,0,0:
0000
0000
0000
0000
,
0000
0000
0000
0000
,
0000
0000
0000
0000
,
0000
0000
0000
0000
,
1000
0000
0001
0000
1000
0000
0000
0100
,
0000
0000
1000
0000
0100
0000
0000
0100
,
0000
0000
0010
0000
0001
0000
0000
0100
,
0000
0000
0001
0000
0100
0000
0000
0010
,
0000
0000
0100
0000
0010
0000
0000
0001
,
0000
0000
0100
0000
0001
0000
0000
0100
,
0000
0000
1000
0000
0100
0000
0000
1000
,
0000
0000
0100
0000
0010
0000
0000
0001
,
0000
0010
0100
0010
,
0100
0000
0010
0000
0001
0010
0200
0000
,
0300
0010
0100
1000
,
0100
0000
1000
0000
0100
0010
2000
0000
,
3000
0100
1000
0100
,
0100
0000
0010
0000
0001
0010
0200
0000
,
0300
0000
0100
0000
0010
0000
0001
0010
,
0000
0100
0010
0000
0100
0000
0010
0000
,
0001
0100
0010
0100
,
1000
0000
0100
0000
1000
0010
0200
0000
,
0300
1000
0100
1000
,
0100
0000
0010
0000
0001
1000
0200
0000
,
0300
0100
0001
0100
,
0010
0000
0100
0000
1000
0010
0200
0000
,
0300
0000
1000
0000
0100
0000
1000
0010
,
0000
0100
0010
0000
0001
0010
0000
0100
,
1000
0010
0100
0001
,
0100
0000
0001
0100
,
0010
0000
1000
0100
,
1000
0000
0100
1000
,
0100
0000
0100
0010
,
0001
0000
0100
0001
,
0100
0000
0000
0001
0010
0000
0000
1000
,
0010
0000
0000
0100
0001
0000
0000
0100
,
0001
0000
0100
0010
,
0100
0000
0001
0100
,
0001
0000
0100
1000
,
0100
0000
1000
0100
,
0010
0000
0001
0100
,
0010
0000
0100
1000
,
0100
0000
2000
0001
,
0001
3001
0002
1000
,
1000
1003
0100
0010
,
0001
0000
0100
0000
0001
0100
0001
0000
,
0100
1000
0100
0000
0010
0000
0100
0000
,
0010
0000
0001
0000
0100
0001
0100
0000
,
0010
0100
0010
0000
0001
0000
0100
0000
,
1000
0000
0100
0000
1000
0100
1000
0000
,
0100
1000
0100
0000
0010
0000
0001
0000
,
0100
0000
0010
0000
0001
0100
0001
0000
,
0010
0100
0010
0000
0001
0000
0100
0000
,
1000
0000
0100
0000
1000
0100
1000
0000
,
0010
0100
0010
0000
0001
0000
0100
0000
,
0001
0000
0010
0000
0100
0010
0100
0000
,
0001
0100
0001
0000
0100
0000
1000
0000
,
0100
0000
1000
0000
0100
0100
0010
0000
,
0001
0100
0001
0000
0100
0000
0010
0000
,
0100
0000
1000
0000
0100
1000
0100
0000
,
0010
0100
0010
0000
0001
0000
0000
1000
,
0000
0000
0001
0000
1000
0100
0000
0000
,
0010
0000
0001
0000
0100
0000
0000
0100
,
0000
0000
0010
0000
0001
0100
0000
0000
,
0010
0000
0100
0000
1000
0000
0000
0100
,
0000
0000
1000
0000
0100
0000
0000
0010
,
0000
0001
0200
0000
,
0000
0300
0010
0001
,
0100
0000
0010
0000
0100
0000
0000
1000
,
0000
0100
1000
0000
,
0100
0000
1000
0000
0100
0000
0000
0100
,
0000
0010
0001
0000
,
0100
0000
0010
0000
0001
0000
0000
0100
,
0000
0000
0010
0000
0001
0000
0000
0100
,
0000
1000
0002
0000
,
0000
0003
0020
1000
,
1000
1030
0000
0000
;

//--------------- dance-single - Wrland ----------------
#NOTES:
     dance-single:
     Wrland:
     Hard:
     12:
     0,0,0,0,0:
0000
0000
0000
0000
,
0000
0000
0000
0000
,
0000
0000
0000
0000
,
0000
0000
0000
0000
,
1000
0000
0001
0000
1000
0000
0100
2000
,
0000
3000
0100
0000
0001
2000
0000
3000
,
0100
0000
0100
0000
0020
0000
0030
0002
,
0000
0003
0100
0000
0001
0200
0000
0300
,
0010
0000
0100
0000
2000
0000
3000
0200
,
0000
0300
1000
0000
0100
1000
0000
0001
,
0100
0000
0010
0000
0100
0010
0000
0100
,
1000
0000
0100
0000
2000
3000
0100
1000
,
0200
0300
0020
0030
0100
1000
0001
0100
,
0002
0003
0200
0300
0010
0100
0020
0030
,
0001
0000
0100
0000
0001
0100
0001
1000
,
0100
0001
0020
0030
0100
1000
0200
0300
,
1000
0000
0100
0010
1000
0100
1000
0001
,
0100
0001
0020
0030
0100
0010
0200
0300
,
0010
0000
0001
1000
0200
0300
0010
0200
,
0300
0001
0200
0300
0010
1000
0100
0000
,
0020
0000
0230
0000
0301
1000
0100
0001
,
0200
0300
0010
0001
0100
0010
0200
0300
,
0010
0000
0001
0010
0100
0001
0200
0300
,
0100
0001
0010
1000
0100
0010
0200
0300
,
0010
0000
0001
1000
0200
0300
0010
0100
,
0010
0100
0020
0030
0001
0100
0002
0003
,
0200
0300
0010
0001
0200
0300
0100
0020
,
0030
0001
0200
0300
0001
0010
0100
0000
,
1000
0001
0100
0000
1000
0200
0300
1000
,
0100
0001
1000
0001
0200
0300
0001
0010
,
0100
0010
0200
0300
1000
0100
0020
0030
,
0001
0100
0010
0100
1000
0100
0020
0030
,
0001
0100
0002
0003
0010
0100
1000
0100
,
0010
1000
0001
1000
0100
0001
0200
0300
,
0010
0100
0010
1000
0002
0000
0003
0010
,
0200
0300
0010
0001
0200
0000
0300
0010
,
0200
0000
0300
0000
1000
0100
1000
0100
,
0010
0100
0001
0010
0100
0010
0001
0100
,
0010
0100
2000
3000
0100
0020
0030
0010
,
0001
0100
0010
0100
0010
0100
1000
0100
,
0020
0000
0130
0000
0010
0001
0100
0001
,
0010
0100
0010
0001
0020
0000
1030
0000
,
0010
1000
0200
0300
0010
0100
0001
0100
,
0002
0003
0010
0001
0200
0300
0020
0030
,
0100
0000
0001
1000
0010
0000
0001
0000
0100
0000
0010
0000
0100
0000
0010
0000
,
0100
0010
0001
0010
0100
1000
0200
0300
,
1000
0001
0100
0010
0001
0010
0001
0010
,
0001
0010
0100
1000
0100
1000
0200
0300
,
0010
0000
0100
0010
0001
1000
0100
1000
,
0100
1000
0100
1000
0100
0010
0002
0003
,
0100
0000
0010
0100
0010
1000
0001
0010
,
0100
1000
0100
1000
0100
0001
0020
0030
,
0100
0001
0010
0100
1000
0100
1000
0100
,
1000
0100
1000
0100
1000
0010
0200
0300
,
0010
0000
0001
0100
0001
0100
0001
0100
,
0001
0100
0001
0100
0001
0100
0002
0003
,
0100
0000
0010
0100
0010
0100
1000
0100
,
1000
0100
0010
0001
0100
0010
0200
0300
,
1000
0001
0100
1000
0100
0001
0010
0100
,
1000
0100
0001
0010
0001
0100
0020
0030
,
0100
0000
1000
0100
2000
0000
3000
0002
,
0000
0003
2000
3000
0100
2000
0000
3000
,
0200
0000
2300
0000
3200
0000
0300
2000
,
0000
3000
0200
0300
1000
0200
0000
0300
,
0020
0000
0230
0000
0302
0000
0003
0200
,
0000
0300
0002
0003
0100
0002
0000
0203
,
0000
0300
0020
0030
0200
0000
0300
0002
,
0000
0003
0200
0300
0001
0100
0020
0030
,
0200
0300
0020
0030
0002
0000
0003
0200
,
0000
0300
0020
0030
0100
0020
0000
0030
,
0200
0000
2300
0000
3200
0000
0300
2000
,
0000
3000
0200
0300
1000
0200
0000
0300
,
2000
0000
3200
0000
0320
0000
0030
0002
,
0000
0003
0200
0300
0001
0200
0300
0020
,
0000
0030
0200
0300
2000
0000
3000
0200
,
0000
0300
0020
0030
0100
0010
0002
0003
,
0200
0310
0000
0000
;
