#VERSION:0.83;
#TITLE:ヒステリックナイトガール (feat. Such) (超法規的措置-mix);
#SUBTITLE:;
#ARTIST:PSYQUI;
#TITLETRANSLIT:Hysteric Night Girl (feat. Such) (chouhoukitekisochi-mix);
#SUBTITLETRANSLIT:;
#ARTISTTRANSLIT:;
#GENRE:Remix J-Pop;
#CREDIT:superlawsmove;
#MUSIC:Hysteric Night Girl (feat. Such) (chouhoukitekisochi-mix).ogg;
#BANNER:Hysteric Night Girl (feat. Such) (chouhoukitekisochi-mix).png;
#BACKGROUND:Hysteric Night Girl (feat. Such) (chouhoukitekisochi-mix)-bg.png;
#JACKET:Hysteric Night Girl (feat. Such) (chouhoukitekisochi-mix)-jacket.png;
#DISCIMAGE:;
#CDIMAGE:;
#SELECTABLE:YES;
#LYRICSPATH:;
#CDTITLE:Japanese.png;
#SAMPLESTART:45.000;
#SAMPLELENGTH:15.000;
#BPMS:0.000000=170.000000;
#STOPS:;
#WARPS:;
#DELAYS:;
#SPEEDS:0.000000=1.000000=0.000000=0,
156.000000=3.000000=0.000000=0,
159.000000=1.000000=0.000000=0,
160.000000=3.000000=0.000000=0,
163.000000=1.000000=0.000000=0,
163.500000=3.000000=0.000000=0,
164.000000=1.000000=0.000000=0,
284.000000=3.000000=0.000000=0,
287.000000=1.000000=0.000000=0,
288.000000=3.000000=0.000000=0,
291.000000=1.000000=0.000000=0,
291.500000=3.000000=0.000000=0,
292.000000=1.000000=0.000000=0
;
#SCROLLS:0.000000=1.000000,
127.500000=0.600000,
132.000000=1.000000
;
#TICKCOUNTS:;
#TIMESIGNATURES:;
#LABELS:;
#COMBOS:;
#FAKES:;
#BGCHANGES:;
#FGCHANGES:;
#ATTACKS:;
#DISPLAYBPM:170.000;
#TAGS:DMCA;

//---------------dance-single - Wrland---------------
#NOTEDATA:;
#CHARTNAME:;
#CHARTSTYLE:Pad;
#CREDIT:Wrland;
#STEPSTYPE:dance-single;
#DESCRIPTION:Wrland;
#DIFFICULTY:Beginner;
#METER:3;
#METERF:3;
#RADARVALUES:0,0,0,0,0;
#NOTES:
// measure 0
0000
0000
0000
0000
,  // measure 1
0000
0000
0000
0000
,  // measure 2
0000
0000
0000
0000
,  // measure 3
0000
0000
0000
0000
,  // measure 4
0000
0000
0000
0000
,  // measure 5
1000
0000
0000
0000
,  // measure 6
0001
0000
0000
0000
,  // measure 7
1000
0000
0000
0000
,  // measure 8
0000
0000
0000
1001
,  // measure 9
0100
0000
0000
0000
,  // measure 10
0010
0000
0000
0000
,  // measure 11
0100
0000
0000
0000
,  // measure 12
0010
0000
0000
0000
,  // measure 13
0100
0000
0000
0000
,  // measure 14
1000
0000
0000
0000
,  // measure 15
1000
0000
0000
0000
,  // measure 16
0010
0000
0001
0001
,  // measure 17
0100
0000
0000
0000
,  // measure 18
1000
0000
0000
0000
,  // measure 19
1000
0000
0000
0000
,  // measure 20
0010
0000
0000
0000
,  // measure 21
0100
0000
0000
0000
,  // measure 22
0010
0000
0000
0000
,  // measure 23
0100
0000
0000
0000
,  // measure 24
0100
0000
0000
0000
,  // measure 25
0001
0000
0000
0000
0000
0000
0000
1000
,  // measure 26
0000
0000
0000
0000
0000
0000
0000
0100
,  // measure 27
0000
0000
0000
0000
0010
0000
0100
0010
,  // measure 28
0000
0000
0000
0000
,  // measure 29
0100
0000
0100
0000
,  // measure 30
0001
0000
0100
0000
,  // measure 31
0100
0000
0000
0000
0100
0000
0000
2002
,  // measure 32
0000
0000
0000
3003
,  // measure 33
0100
0000
0000
0000
,  // measure 34
0010
0000
0000
0000
,  // measure 35
0100
0000
0000
0000
,  // measure 36
1000
0000
0000
0000
,  // measure 37
0100
0000
0000
0000
,  // measure 38
0001
0000
0000
0000
,  // measure 39
0100
0010
0100
0000
,  // measure 40
0001
1000
0001
0000
,  // measure 41
0100
0000
0000
0000
,  // measure 42
1000
0000
0000
0000
,  // measure 43
0100
0000
0000
0000
,  // measure 44
0100
0000
0000
0000
,  // measure 45
0001
0000
0000
0000
,  // measure 46
0010
0000
0000
0000
,  // measure 47
1000
0000
0000
0000
,  // measure 48
0010
0000
0000
0100
,  // measure 49
0010
0000
0000
0000
,  // measure 50
1000
0000
0000
0000
,  // measure 51
0010
0000
0000
0000
,  // measure 52
0100
0000
0000
0000
,  // measure 53
1000
0000
0000
0000
,  // measure 54
0010
0000
0000
0000
,  // measure 55
0010
0000
0000
0000
,  // measure 56
0100
0000
0000
0000
,  // measure 57
0100
0000
0000
0000
,  // measure 58
0010
0000
0000
0000
,  // measure 59
1000
0000
0000
0000
,  // measure 60
0010
0000
0000
0000
,  // measure 61
0100
0000
0100
0000
,  // measure 62
0010
0000
0010
0000
,  // measure 63
0001
0000
0001
0000
,  // measure 64
0000
0000
0000
1001
,  // measure 65
0100
0000
0000
0000
,  // measure 66
0010
0000
0000
0000
,  // measure 67
0100
0000
0000
0000
,  // measure 68
1000
0000
0000
0000
,  // measure 69
0100
0000
0000
0000
,  // measure 70
0001
0000
0000
0000
,  // measure 71
0100
0000
0100
0000
,  // measure 72
0001
1000
0001
0000
,  // measure 73
0100
0000
0000
0000
,  // measure 74
1000
0000
0000
0000
,  // measure 75
0100
0000
0000
0000
,  // measure 76
0100
0000
0000
0000
,  // measure 77
0001
0000
0000
0000
,  // measure 78
0010
0000
0000
0000
,  // measure 79
1000
0000
0000
0000
,  // measure 80
0010
0000
0000
0100
,  // measure 81
0010
0000
0000
0001
,  // measure 82
0100
0000
0000
0010
,  // measure 83
0100
0000
0000
1000
,  // measure 84
0100
0000
0000
0000
,  // measure 85
0100
0000
0000
0100
,  // measure 86
0001
0000
0000
0001
,  // measure 87
0010
0000
0000
0001
,  // measure 88
0100
0000
0000
0000
,  // measure 89
0100
0000
0000
0100
,  // measure 90
1000
0000
0000
0100
,  // measure 91
0100
0000
0000
0010
,  // measure 92
0010
0000
0000
0000
,  // measure 93
0100
0001
0100
0000
,  // measure 94
0010
1000
0001
0000
,  // measure 95
0100
0100
0010
0000
,  // measure 96
0000
0000
0000
1001
;

//---------------dance-single - Wrland---------------
#NOTEDATA:;
#CHARTNAME:;
#CHARTSTYLE:Pad;
#CREDIT:Wrland;
#STEPSTYPE:dance-single;
#DESCRIPTION:Wrland;
#DIFFICULTY:Easy;
#METER:5;
#METERF:5;
#RADARVALUES:0,0,0,0,0;
#NOTES:
// measure 0
0000
0000
0000
0000
,  // measure 1
0000
0000
0000
0000
,  // measure 2
0000
0000
0000
0000
,  // measure 3
0000
0000
0000
0000
,  // measure 4
0000
0000
0000
0000
,  // measure 5
1000
0000
1000
0000
,  // measure 6
0001
0000
0001
0000
,  // measure 7
1000
0000
1000
0000
,  // measure 8
0000
0000
0000
1001
,  // measure 9
0100
0000
0100
0000
,  // measure 10
0010
0000
0010
0000
,  // measure 11
0100
0000
0100
0000
,  // measure 12
0010
0000
0001
0000
,  // measure 13
0100
0000
0100
0000
,  // measure 14
1000
0000
0100
0000
,  // measure 15
1000
0000
0100
0000
,  // measure 16
0010
0000
0001
0001
,  // measure 17
0100
0000
0100
0000
,  // measure 18
1000
0000
0100
0000
,  // measure 19
1000
0000
0100
0000
,  // measure 20
0010
0000
0001
0000
,  // measure 21
0100
0000
0100
0000
,  // measure 22
0010
0000
0100
0000
,  // measure 23
0100
0000
1000
0000
,  // measure 24
0100
0000
0010
0000
,  // measure 25
0001
0000
0000
0000
0001
0000
0000
1000
,  // measure 26
0000
0000
0000
1000
0000
0000
0000
0100
,  // measure 27
0000
0000
0000
0000
0010
0000
0100
0010
,  // measure 28
0000
0000
0000
0001
0000
0000
0000
0000
,  // measure 29
0100
0010
0100
0010
,  // measure 30
0001
0100
0010
0000
,  // measure 31
0100
0000
1000
0000
0100
0000
0000
2002
,  // measure 32
0000
0000
0000
3003
,  // measure 33
0100
0000
0100
0000
,  // measure 34
0010
0000
0010
0000
,  // measure 35
0100
0000
0100
0000
,  // measure 36
1000
0000
1000
0000
,  // measure 37
0100
0000
0010
0000
,  // measure 38
0001
0000
0100
0000
,  // measure 39
0100
0010
0100
0000
,  // measure 40
0001
1000
0001
0000
,  // measure 41
0100
0000
0100
0000
,  // measure 42
1000
0000
1000
0000
,  // measure 43
0100
0000
0010
0000
,  // measure 44
0100
0000
0010
0000
,  // measure 45
0001
0000
0100
0000
,  // measure 46
0010
0000
0100
0000
,  // measure 47
1000
0000
0100
0000
,  // measure 48
0010
0000
0000
0100
,  // measure 49
0010
0000
0100
0000
,  // measure 50
1000
0000
0100
0000
,  // measure 51
0010
0000
0001
0000
,  // measure 52
0100
0000
0100
0000
,  // measure 53
1000
0000
0100
0000
,  // measure 54
0010
0000
0100
0000
,  // measure 55
0010
0000
0001
0000
,  // measure 56
0100
0000
0010
0000
,  // measure 57
0100
0000
1000
0000
,  // measure 58
0100
0000
1000
0000
,  // measure 59
0100
0000
1000
0000
,  // measure 60
0100
0000
0010
0000
,  // measure 61
0100
0100
0100
0000
,  // measure 62
0010
0010
0010
0000
,  // measure 63
0001
0001
0001
0000
,  // measure 64
0000
0000
0000
1001
,  // measure 65
0100
0000
0100
0000
,  // measure 66
0010
0000
0010
0000
,  // measure 67
0100
0000
0100
0000
,  // measure 68
1000
0000
1000
0000
,  // measure 69
0100
0000
0010
0000
,  // measure 70
0001
0000
0100
0000
,  // measure 71
0100
0010
0100
0000
,  // measure 72
0001
1000
0001
0000
,  // measure 73
0100
0000
0100
0000
,  // measure 74
1000
0000
1000
0000
,  // measure 75
0100
0000
0010
0000
,  // measure 76
0100
0000
0010
0000
,  // measure 77
0001
0000
0100
0000
,  // measure 78
0010
0000
0100
0000
,  // measure 79
1000
0000
0100
0000
,  // measure 80
0010
0000
0000
0100
,  // measure 81
0010
0000
0001
0000
,  // measure 82
0100
0000
1000
0000
,  // measure 83
0100
0000
1000
0000
,  // measure 84
0100
0000
0010
0000
,  // measure 85
0100
0000
0010
0000
,  // measure 86
0001
0000
0100
0000
,  // measure 87
0010
0000
0001
0000
,  // measure 88
0100
0000
1000
0000
,  // measure 89
0100
0000
0100
0000
,  // measure 90
1000
0000
1000
0000
,  // measure 91
0100
0000
0100
0000
,  // measure 92
0010
0000
0001
0000
,  // measure 93
0100
0000
0100
0000
,  // measure 94
0010
0000
0001
0000
,  // measure 95
0100
0000
0010
0000
,  // measure 96
0000
0000
0000
1001
;

//---------------dance-single - Wrland---------------
#NOTEDATA:;
#CHARTNAME:;
#CHARTSTYLE:Pad;
#CREDIT:Wrland;
#STEPSTYPE:dance-single;
#DESCRIPTION:Wrland;
#DIFFICULTY:Medium;
#METER:10;
#METERF:10;
#RADARVALUES:0,0,0,0,0;
#NOTES:
// measure 0
0000
0000
0000
0000
,  // measure 1
0000
0000
0000
0000
,  // measure 2
0000
0000
0000
0000
,  // measure 3
0000
0000
0000
0000
,  // measure 4
0000
0000
0000
0000
,  // measure 5
1000
0100
1000
0100
1000
0100
1100
0000
,  // measure 6
0100
0010
0001
0100
0001
0100
0101
0000
,  // measure 7
0010
0100
0010
0001
0100
0010
0100
1000
,  // measure 8
0000
0001
0000
0000
1000
0000
0000
0100
0000
0000
0010
0000
2000
0000
3000
0000
,  // measure 9
0100
0010
0001
0100
0010
0100
0010
0001
,  // measure 10
0100
0000
0010
0000
0100
0000
0010
0200
0000
0300
0001
0000
0100
0000
0010
0000
,  // measure 11
1000
0000
0100
0000
1000
0000
0100
0000
0010
0000
0001
0000
0100
0010
0100
0000
,  // measure 12
0200
0300
2000
3000
0010
0001
0100
0000
,  // measure 13
0010
0100
1000
0100
0010
0001
0100
0020
,  // measure 14
0030
1000
0100
0010
0001
0100
0010
0001
,  // measure 15
0100
0000
0010
0000
0100
0000
1000
0000
0100
0000
0010
0000
0001
1000
0100
0000
,  // measure 16
0020
0000
0030
0000
0100
0000
0010
0000
0001
0010
0100
0000
0010
0000
0100
0000
,  // measure 17
0001
0100
0001
0100
0001
0100
0001
0010
,  // measure 18
0100
0000
1000
0000
0100
0000
1000
0010
0100
0000
0020
0000
0000
0030
0000
0000
,  // measure 19
0100
0010
0001
0100
0001
0100
0010
0100
,  // measure 20
2000
3000
0100
1000
0100
0010
0001
0100
,  // measure 21
0010
0000
0100
0000
1000
0000
0100
0000
0010
0000
0001
0000
0100
0000
0010
1000
,  // measure 22
0100
0000
0001
0000
0010
0000
0001
0010
0100
0000
0010
0000
0100
0000
1000
0000
,  // measure 23
0100
0010
0001
0100
0010
0100
1000
0100
,  // measure 24
0200
0000
0000
0300
1000
0000
0100
0000
0010
0000
0001
0000
0100
0000
0010
0000
,  // measure 25
0200
0000
0000
0300
0020
0000
0000
0030
0100
0000
0010
0000
0100
0000
0002
0000
,  // measure 26
0000
0003
2000
0000
0000
3000
0200
0000
0000
0300
0010
0000
1000
0000
0200
0000
,  // measure 27
0300
0010
0100
0010
0001
0100
0010
0200
,  // measure 28
0300
0100
1000
0200
0300
1000
0100
0020
,  // measure 29
0030
0001
0100
0001
0100
0001
0100
0010
,  // measure 30
0100
0010
0100
1000
0100
1000
0100
1000
,  // measure 31
0100
0010
0100
0010
0001
0100
0010
0200
,  // measure 32
0300
0000
0010
0000
0200
0000
0000
0300
0020
0000
0030
0000
0110
0000
0000
0000
,  // measure 33
0100
0000
0010
0000
0100
0000
0010
0000
0100
0010
0100
0000
0110
0000
0000
0000
,  // measure 34
0001
0000
1000
0000
0001
0000
1000
0000
0001
1000
0001
0000
1001
0000
0000
0000
,  // measure 35
1000
0000
0100
0000
1000
0000
0100
0000
1000
0100
1000
0000
1100
0000
0000
0000
,  // measure 36
0100
0010
0001
0100
0010
0100
0010
0000
,  // measure 37
0001
0000
0100
0000
0001
0000
0100
0000
0001
0100
0001
0000
0101
0000
0000
0000
,  // measure 38
0100
0000
0010
0000
0100
0000
0010
0000
0100
0010
0100
0000
0110
0000
0000
0000
,  // measure 39
0100
1000
0100
0000
1000
0100
0010
0000
,  // measure 40
0001
0000
0100
0000
0001
0000
0100
0000
0001
0100
0010
0000
0110
0000
0000
0000
,  // measure 41
0100
0000
1000
0000
0100
0000
1000
0000
0100
1000
0100
0000
1000
0000
0000
0000
,  // measure 42
0100
0000
0010
0000
0001
0000
0100
0000
0001
0100
0001
0000
0100
0000
0000
0000
,  // measure 43
0010
0100
0010
0001
0100
0010
0100
0010
,  // measure 44
0020
0000
0000
0030
0002
0000
0000
0003
0100
0000
0001
0000
0100
0000
0000
0000
,  // measure 45
0010
0100
0010
0001
0100
0010
0100
0000
,  // measure 46
1000
0100
1000
0100
1000
0100
1000
0000
,  // measure 47
0100
0010
0001
0100
0010
0100
0010
0010
,  // measure 48
0000
1000
0000
0000
0100
0000
0000
0001
0000
0000
0001
0000
0200
0000
0000
0000
,  // measure 49
0310
0001
1000
0001
1000
0001
1000
0000
,  // measure 50
0100
1000
0100
1000
0100
1000
0100
0000
,  // measure 51
0100
0010
0001
0100
0010
0100
0010
0000
,  // measure 52
0100
0110
0001
0101
,  // measure 53
0100
0010
0100
1000
0100
1000
0100
0000
,  // measure 54
1000
0100
0010
0001
0100
0010
0100
0000
,  // measure 55
0100
0000
1000
0000
0100
1000
0100
0000
,  // measure 56
0010
0000
0001
0000
0100
0001
0100
0000
,  // measure 57
0010
0100
1000
0100
0010
0001
0100
0000
,  // measure 58
0010
0100
0010
0001
0100
0010
0100
0000
,  // measure 59
1000
0100
1000
0100
0010
0001
0100
0000
,  // measure 60
1000
1100
0100
0110
,  // measure 61
0010
0001
0100
0001
0100
0001
0100
0000
,  // measure 62
0010
0100
0010
0100
0010
0100
0010
0000
,  // measure 63
1000
0100
1000
0100
1000
0100
1000
0000
,  // measure 64
0000
0100
0000
0000
1000
0000
0000
0100
0000
0000
1000
0000
0200
0000
0300
0000
,  // measure 65
0100
0000
0010
0000
0100
0000
0010
0000
0100
0010
0100
0000
0110
0000
0000
0000
,  // measure 66
0001
0000
1000
0000
0001
0000
1000
0000
0001
1000
0001
0000
1001
0000
0000
0000
,  // measure 67
1000
0000
0100
0000
1000
0000
0100
0000
1000
0100
1000
0000
1100
0000
0000
0000
,  // measure 68
0100
0010
0001
0100
0010
0100
0010
0000
,  // measure 69
0001
0000
0100
0000
0001
0000
0100
0000
0001
0100
0001
0000
0101
0000
0000
0000
,  // measure 70
0100
0000
0010
0000
0100
0000
0010
0000
0100
0010
0100
0000
0110
0000
0000
0000
,  // measure 71
0100
1000
0100
0000
1000
0100
0010
0000
,  // measure 72
0001
0000
0100
0000
0001
0000
0100
0000
0001
0100
0010
0000
0110
0000
0000
0000
,  // measure 73
0100
0000
1000
0000
0100
0000
1000
0000
0100
1000
0100
0000
1000
0000
0000
0000
,  // measure 74
0100
0000
0010
0000
0001
0000
0100
0000
0001
0100
0001
0000
0100
0000
0000
0000
,  // measure 75
0010
0100
0010
0001
0100
0010
0100
0010
,  // measure 76
0020
0000
0000
0030
0002
0000
0000
0003
0100
0000
0001
0000
0100
0000
0000
0000
,  // measure 77
0010
0100
0010
0001
0100
0010
0100
0000
,  // measure 78
1000
0100
1000
0100
1000
0100
1000
0000
,  // measure 79
0100
0010
0001
0100
0010
0100
0010
0010
,  // measure 80
0100
0010
0001
0100
0010
0000
0110
0000
,  // measure 81
1000
0100
1000
0000
0100
0010
0100
0000
,  // measure 82
0001
0100
0001
0000
0100
0000
0010
0000
,  // measure 83
0100
0010
0100
0000
1000
0100
1000
0000
,  // measure 84
0100
0000
0010
0001
0100
0000
0010
0000
,  // measure 85
0100
0000
0010
0100
0010
0000
0001
0000
,  // measure 86
0100
0000
0001
0000
0100
0000
0001
0000
0100
0001
0100
0000
0010
0000
0100
0000
,  // measure 87
1000
0000
0100
1000
0100
0000
1000
0100
,  // measure 88
0010
0000
0001
0100
0001
0000
0100
0000
,  // measure 89
0010
0100
0010
0001
0100
0000
0010
0100
,  // measure 90
1000
0000
0100
0010
0100
0000
1000
0000
,  // measure 91
0100
0000
1000
0000
0100
0000
0010
0000
0001
0100
0010
0000
0100
0000
0010
0000
,  // measure 92
0100
0000
1000
0100
1000
0000
0100
0000
,  // measure 93
0100
0100
0100
0000
0010
0010
0010
0000
,  // measure 94
0001
0001
0001
0000
0100
0100
0100
0000
,  // measure 95
0001
0100
0001
0100
0001
0000
0100
0001
,  // measure 96
0000
0100
0000
0000
0100
0000
0000
0010
0000
0000
0100
0000
0020
0000
0000
0030
;

//---------------dance-single - Wrland---------------
#NOTEDATA:;
#CHARTNAME:;
#CHARTSTYLE:Pad;
#CREDIT:Wrland;
#STEPSTYPE:dance-single;
#DESCRIPTION:Wrland;
#DIFFICULTY:Hard;
#METER:14;
#METERF:14;
#RADARVALUES:0,0,0,0,0;
#NOTES:
// measure 0
0000
0000
0000
0000
,  // measure 1
0000
0000
0000
0000
,  // measure 2
0000
0000
0000
0000
,  // measure 3
0000
0000
0000
0000
,  // measure 4
0000
0000
0000
0000
,  // measure 5
1000
0000
0001
0000
1000
0000
0001
0000
0100
0010
0001
0000
0010
0000
0100
0000
,  // measure 6
0010
0000
0001
0000
0100
0000
0001
0000
0100
1000
0100
0000
0010
0000
0001
0000
,  // measure 7
0100
0000
0001
0000
0100
0000
0001
0000
0100
0010
0100
0000
0100
0000
0010
0000
,  // measure 8
0100
0010
1000
0000
0100
0010
0100
0000
0001
0010
0100
0000
0001
0000
1000
0100
,  // measure 9
0010
0000
0001
0000
1000
0000
0100
0000
1000
0000
0100
0001
0010
1000
0001
0000
,  // measure 10
0100
0000
0001
0000
0100
0000
0010
0100
0010
0000
0001
0000
0100
0000
0010
0000
,  // measure 11
0100
0001
0010
0000
0001
0000
0100
0000
0010
0000
0100
0000
1000
0001
0100
1000
,  // measure 12
0200
0000
0300
0000
0100
0000
1000
0000
0100
1000
0100
0000
0100
0000
0010
0000
,  // measure 13
0100
0000
0010
0000
0100
0010
0100
0010
0001
0000
0100
0000
0010
0001
0000
0200
,  // measure 14
0000
0300
0100
0000
0010
0100
0000
0010
0100
0000
0020
0000
0000
0000
0130
0000
,  // measure 15
0010
0000
0100
0000
1000
0000
0001
0010
0100
1000
0010
0001
0100
0000
1000
0010
,  // measure 16
0200
0000
0300
0000
0010
0000
0100
0000
0010
0100
0010
0000
0100
0000
0010
0000
,  // measure 17
0100
1000
0100
0000
0010
0100
0010
0000
0001
0000
0010
0000
0100
0000
1000
0000
,  // measure 18
0100
0001
0010
0000
0001
0010
0100
0000
1000
0000
0001
0100
1000
0000
0010
0100
,  // measure 19
0010
0000
0100
0000
1000
0000
0100
0000
0010
0000
0001
0000
0100
1000
0010
0001
,  // measure 20
0200
0000
0310
0000
1000
0000
0100
0000
1000
0010
0100
0000
0010
0000
0001
0000
,  // measure 21
0200
0000
0000
0300
0020
0000
0000
0030
0100
0000
0010
0000
0001
1000
0100
0000
,  // measure 22
0010
0000
0100
0000
1000
0000
0100
0001
0020
0000
0000
0030
0100
0000
0020
0000
,  // measure 23
0000
0030
0100
0000
0010
0001
0100
0000
1000
0000
0100
0000
0010
0100
0001
0000
,  // measure 24
0100
0000
0010
0000
0010
0001
0100
0000
0010
1000
0001
0000
0100
0000
0010
0001
,  // measure 25
2200
3300
0010
0001
0100
0010
0001
0220
,  // measure 26
0330
1000
0100
0002
0003
0100
1000
0202
,  // measure 27
0303
0100
0010
0001
0100
0010
0100
2002
,  // measure 28
3003
0010
0100
1010
0001
0100
0010
0200
,  // measure 29
0300
0020
0030
0100
0010
0001
0100
0010
,  // measure 30
0100
1000
0100
0010
0001
0100
0010
0100
,  // measure 31
1000
0100
1000
0000
0010
0100
0001
0000
0100
0000
0010
0000
0100
0000
2000
0000
,  // measure 32
3000
0100
0020
0030
0002
0003
1001
0010
,  // measure 33
0100
0010
0100
0000
1000
0000
0100
0000
1000
0000
0100
0000
0010
0000
0001
0000
,  // measure 34
1000
0010
0100
0000
0010
0000
0001
0000
0100
0000
0010
0000
0100
0000
1000
0000
,  // measure 35
0100
0001
0010
0000
0001
0000
0100
0000
0010
0000
0100
0000
1000
0000
0100
0000
,  // measure 36
0020
0000
0000
0000
0230
0000
0000
0000
0310
0010
0001
0000
0100
0000
0010
0000
,  // measure 37
0100
0010
1000
0000
0100
0000
0010
0000
0001
0000
0100
0000
0010
0000
0100
0000
,  // measure 38
1000
0010
0100
0000
0010
0000
0001
0000
0200
0000
0320
0000
2030
0000
3200
0000
,  // measure 39
0010
0010
0010
0010
0010
0010
1300
0001
,  // measure 40
2000
0100
0100
0100
0100
0100
3010
0100
,  // measure 41
1000
0010
0100
0000
1000
0000
0100
0000
0010
0000
0001
0000
0100
0000
0010
0000
,  // measure 42
0100
0010
1000
0000
0100
0000
0001
0000
0100
0000
0010
0000
0001
0000
0100
0000
,  // measure 43
0010
0001
0100
0000
1000
0010
0100
0000
0010
0100
0001
0000
0100
0010
0100
0000
,  // measure 44
0100
1000
0100
0010
0001
0100
0010
0100
,  // measure 45
0010
0100
0010
0100
1000
0010
0100
0010
0100
0000
0001
0000
0100
0000
0010
0000
,  // measure 46
1000
0100
1000
0100
0010
0001
0010
0001
0100
0000
0010
0000
1000
0000
0100
0000
,  // measure 47
0100
0010
0100
0010
0100
0010
0001
0010
1000
0000
0100
0000
0010
0000
0001
0000
,  // measure 48
0000
0100
1000
0000
0100
1000
0000
0010
0100
0000
0010
0001
2002
0000
3003
0000
,  // measure 49
0100
0000
0010
0000
0100
0000
0010
0000
0100
0000
0010
0100
0001
0000
0010
0000
,  // measure 50
0100
0000
1000
0000
0100
0000
1000
0000
0100
0000
1000
0100
1000
0000
0010
0000
,  // measure 51
0100
0000
0010
0000
0001
0000
0100
0000
0001
0000
0100
0001
0100
0000
0100
0000
,  // measure 52
0010
0000
0100
0000
1000
0000
0100
0000
0010
0000
0001
0001
0100
0000
0010
0000
,  // measure 53
1000
0000
0100
0000
1000
0000
0100
0000
1000
0000
0100
0010
1000
0000
0100
0000
,  // measure 54
0010
0000
0001
0000
0100
0000
0001
0000
0100
0000
0001
1000
0100
0000
0001
0000
,  // measure 55
0020
0000
0000
0000
0130
0000
1000
0000
0100
1000
0100
0000
0100
0000
0010
0000
,  // measure 56
0100
0000
0100
0000
0010
0000
0001
0000
0100
0010
0100
0000
0100
0000
1000
0000
,  // measure 57
0100
0000
0010
0000
0001
0000
0100
0000
0010
0000
0100
1000
0010
0000
0100
0000
,  // measure 58
0001
0000
1000
0000
0001
0000
1000
0000
0001
0000
1000
0100
0001
0000
1000
0000
,  // measure 59
0100
0000
1000
0000
0100
0000
1000
0000
0100
0000
0010
0100
0100
0000
0010
0000
,  // measure 60
0001
0000
0100
0000
0001
0000
0100
0000
0001
0000
0100
0001
0010
0000
0100
0000
,  // measure 61
1000
0100
0010
0000
0100
0010
1000
0000
0100
0010
0001
0000
1100
0000
0000
0000
,  // measure 62
0100
0010
0100
0000
0001
0010
0001
0000
0010
0100
0010
0000
0101
0000
0000
0000
,  // measure 63
0100
0010
1001
0010
0100
0000
1000
0000
0010
0100
0001
0010
0100
0010
0100
0000
,  // measure 64
0000
0001
0010
0000
1000
0100
0000
0001
0010
0000
0001
0000
0220
0000
0330
0000
,  // measure 65
0100
0010
0100
0000
1000
0000
0100
0000
1000
0000
0100
0000
0010
0000
0001
0000
,  // measure 66
1000
0010
0100
0000
0010
0000
0001
0000
0100
0000
0010
0000
0100
0000
1000
0000
,  // measure 67
0100
0001
0010
0000
0001
0000
0100
0000
0010
0000
0100
0000
1000
0000
0100
0000
,  // measure 68
0020
0000
0000
0000
0230
0000
0000
0000
0310
0010
0001
0000
0100
0000
0010
0000
,  // measure 69
0100
0010
1000
0000
0100
0000
0010
0000
0001
0000
0100
0000
0010
0000
0100
0000
,  // measure 70
1000
0010
0100
0000
0010
0000
0001
0000
0200
0000
0320
0000
2030
0000
3200
0000
,  // measure 71
0010
0010
0010
0010
0010
0010
1300
0001
,  // measure 72
2000
0100
0100
0100
0100
0100
3010
0100
,  // measure 73
1000
0010
0100
0000
1000
0000
0100
0000
0010
0000
0001
0000
0100
0000
0010
0000
,  // measure 74
0100
0010
1000
0000
0100
0000
0001
0000
0100
0000
0010
0000
0001
0000
0100
0000
,  // measure 75
0010
1000
0100
0000
1000
0001
0100
0000
0010
1000
0001
0000
0100
0001
0010
0000
,  // measure 76
0100
1000
0100
0010
0001
0100
0010
0100
,  // measure 77
0010
0001
0100
0010
1000
0001
0100
0010
0100
0000
0001
0000
0100
0000
0010
0000
,  // measure 78
1000
0100
1000
0100
0010
0001
0010
0001
0100
0000
0010
0000
1000
0000
0100
0000
,  // measure 79
0100
0010
0100
0010
0100
0010
0001
0010
1000
0000
0100
0000
0010
0000
0001
0000
,  // measure 80
0100
0010
0100
0010
0100
0000
0100
0000
0010
0100
0001
0010
0100
0000
1000
0000
,  // measure 81
0100
0000
0010
0000
0100
0000
0010
0000
0001
0010
0100
0000
0010
0000
0100
0000
,  // measure 82
1000
0000
0100
0000
0100
0000
1000
0000
0100
0010
0100
0000
0010
0000
0001
0000
,  // measure 83
0100
0000
0001
0000
0100
0000
0010
0000
0100
0010
0100
0000
1000
0000
0100
0000
,  // measure 84
0010
0000
0001
0000
0100
0000
0001
0000
1000
0010
0100
0000
0010
0000
0100
0000
,  // measure 85
0010
0000
0001
0000
0100
0000
0010
0000
0001
0100
0010
0000
0100
0000
0100
0000
,  // measure 86
1000
0000
0100
0000
0010
0000
0001
0000
0100
0001
0100
0000
0100
0000
1000
0000
,  // measure 87
0100
0000
1000
0000
0100
0000
1000
0000
0100
1000
0100
0000
0010
0000
0100
0000
,  // measure 88
0010
1000
0001
0000
0100
0001
0010
0000
0100
0001
0010
0000
0100
1000
0010
0000
,  // measure 89
0001
0000
0100
0000
1000
0000
0100
0000
1000
0001
0100
0000
0010
0000
0001
0000
,  // measure 90
0100
0000
0010
0000
0100
0000
1000
0000
0100
0010
0100
0000
0001
0000
0100
0000
,  // measure 91
0010
0000
0100
0000
0010
0000
0100
0000
1000
0100
1000
0000
0010
0000
0001
0000
,  // measure 92
0100
0000
0010
0000
1000
0000
0100
0000
0010
0100
0001
0000
0100
0000
1000
0000
,  // measure 93
0100
0001
0010
0001
0100
0010
0100
0010
2001
0000
0010
0000
0100
0000
0010
0000
,  // measure 94
3010
0100
0010
0100
1000
0010
0100
1000
0120
0000
0001
0000
0100
0000
1000
0000
,  // measure 95
0130
1000
0010
0100
0001
0010
0100
0001
1000
0000
0100
0000
0010
0000
1000
0000
,  // measure 96
0000
0001
1000
0000
0010
0001
0000
0010
0100
0000
0010
0100
0220
0000
0330
0000
,  // measure 97
1001
0000
0000
0000
;
