#VERSION:0.83;
#TITLE:Ghost;
#SUBTITLE:;
#ARTIST:Justin Bieber;
#TITLETRANSLIT:;
#SUBTITLETRANSLIT:;
#ARTISTTRANSLIT:;
#GENRE:Pop;
#CREDIT:Def Jam;
#MUSIC:Ghost.ogg;
#BANNER:Ghost.png;
#BACKGROUND:BG.png;
#CDTITLE:Popular.png;
#SAMPLESTART:50.075;
#SAMPLELENGTH:15.000;
#SELECTABLE:YES;
#OFFSET:0.000;
#BPMS:0.000=303.978
,1.000=153.978
;
#STOPS:;
#DISPLAYBPM:153.000;
#JACKET:Ghost-jacket.png;
#DISCIMAGE:;
#CDIMAGE:;
#BGCHANGES:0.000=Ghost.avi=0.000=0=0=0=StretchNoLoop====,
99999=-nosongbg-=1.000=0=0=0 // don't automatically add -songbackground-
;
#FGCHANGES:;

//--------------- dance-single - Wrland ----------------
#NOTEDATA:;
#STEPSTYPE:dance-single;
#DESCRIPTION:Wrland;
#DIFFICULTY:Beginner;
#METER:2;
#RADARVALUES:0,0,0,0,0;
#CHARTNAME:;
#CHARTSTYLE:Pad;
#CREDIT:Wrland;
#METERF:2;
#NOTES:
0000
0000
0000
0000
,
0000
0000
0000
0000
,
0000
0000
0000
0000
,
0000
0000
0000
0000
,
0000
0000
0000
0000
,
0000
0000
0000
0000
,
0000
0000
0000
0000
,
0000
0000
0000
0000
,
0000
0000
0000
0000
,
0100
0000
0000
0000
,
0001
0000
0000
0000
,
1000
0000
0000
0000
,
0001
0000
0000
0000
,
1000
0000
0000
0000
,
0010
0000
0000
0000
,
1000
0000
0000
0000
,
0010
0000
0000
0000
,
0010
0000
0000
0000
,
0100
0000
0000
0000
,
0100
0000
0000
0000
,
0001
0000
0000
0000
,
2000
0000
0000
0000
,
0000
3000
0000
0000
,
0002
0000
0000
0000
,
0000
0000
0003
0000
,
0200
0000
0000
0000
,
0000
0000
0300
0000
,
0020
0000
0000
0000
,
0000
0000
0030
0000
,
0002
0000
0000
0000
,
0000
0000
0000
0003
,
2000
0000
0000
0000
,
0000
0000
3000
0000
,
1001
0000
0000
0000
,
0110
0000
0000
0000
,
0100
0000
0000
0000
,
0001
0000
0000
0000
,
0010
0000
0000
0000
,
0100
0000
0000
0000
,
1000
0000
0000
0000
,
0010
0000
0000
0000
,
0100
0000
0000
0000
,
0100
0000
0000
0000
,
0001
0000
0000
0000
,
0100
0000
0000
0000
,
1000
0000
0000
0000
,
0001
0000
0000
0000
,
1000
0000
0000
0000
,
0010
0000
0000
0000
,
0020
0000
0000
0000
,
0000
0000
0000
0030
,
2000
0000
0000
0000
,
0000
3000
0000
0000
,
0002
0000
0000
0000
,
0000
0003
0000
0000
,
2000
0000
0000
0000
,
0000
3000
0000
0000
,
0200
0000
0000
0000
,
0000
0300
0000
0000
,
0020
0000
0000
0000
,
0030
0000
0000
0000
,
0002
0000
0000
0000
,
0003
0000
0000
0000
,
2000
0000
0000
0000
,
3000
0000
0000
0000
;

//--------------- dance-single - Wrland ----------------
#NOTEDATA:;
#STEPSTYPE:dance-single;
#DESCRIPTION:Wrland;
#DIFFICULTY:Easy;
#METER:5;
#RADARVALUES:0,0,0,0,0;
#CHARTNAME:;
#CHARTSTYLE:Pad;
#CREDIT:Wrland;
#METERF:5;
#NOTES:
0000
0000
0000
0000
,
0000
0000
0000
0000
,
0000
0000
0000
0000
,
0000
0000
0000
0000
,
0000
0000
0000
0000
,
0000
0000
0000
0000
,
0000
0000
0000
0000
,
0000
0000
0000
0000
,
0000
0000
0000
0000
,
0100
0100
0100
0010
,
0001
0100
0010
0100
,
0000
0100
0010
0000
,
0001
0100
0010
0000
,
1000
0100
1000
0100
,
0010
0100
0010
0001
,
0000
0010
0100
0000
,
0010
0001
0100
0000
,
0010
0001
0100
1000
,
0100
1000
0100
0010
,
0000
0100
0010
0000
,
0001
0100
0010
0000
,
1000
0000
0000
1000
0000
0000
1000
0000
,
0000
0001
0000
0000
0000
0000
0000
0000
,
0001
0000
0000
0001
0000
0000
2000
0000
,
0000
0000
3000
0000
,
0100
0000
0100
0100
,
0000
0000
0010
0001
,
0100
0010
0001
0100
,
0010
0000
0100
0010
,
0001
0000
0100
0100
,
1000
0000
0100
0010
,
0001
0000
0100
0010
,
0001
0000
0000
0000
,
1001
0000
0100
1000
,
0100
0010
0001
0000
,
0100
0100
0010
0000
,
0001
0001
0100
0000
,
0010
0100
1000
0000
,
0100
0010
0001
0000
,
0100
0100
0100
0000
,
0010
0001
0100
0000
,
0100
1000
0100
0000
,
0100
0100
0010
0000
,
0001
0100
0010
0000
,
0100
1000
0100
0000
,
0100
0010
0001
0000
,
0100
0100
1000
0000
,
0100
0100
0100
0000
,
0010
0001
0100
0000
,
0020
0000
0000
0000
,
0030
0000
0000
0000
,
2000
0000
0000
0000
,
3000
0000
0000
0000
,
0002
0000
0000
0000
,
0003
0000
0000
0000
,
2000
0000
0000
0000
,
3000
0000
0000
0000
,
0200
0000
0000
0000
,
0300
0000
0000
0000
,
0020
0000
0000
0000
,
0030
0000
0000
0000
,
0002
0000
0000
0000
,
0003
0000
0000
0000
,
2000
0000
0000
0000
,
3000
0000
0000
0000
;

//--------------- dance-single - Wrland ----------------
#NOTEDATA:;
#STEPSTYPE:dance-single;
#DESCRIPTION:Wrland;
#DIFFICULTY:Medium;
#METER:8;
#RADARVALUES:0,0,0,0,0;
#CHARTNAME:;
#CHARTSTYLE:Pad;
#CREDIT:Wrland;
#METERF:8;
#NOTES:
0000
0000
0000
0000
,
0000
0000
0000
0000
,
0000
0000
0000
0000
,
0000
0000
0000
0000
,
0000
0000
0000
0000
,
0100
0010
0001
0000
,
0100
0010
0100
0000
,
1000
0100
1000
0100
0010
0000
0001
0000
,
0100
0000
0010
0001
,
0100
0000
0010
0000
0100
0000
0010
0200
,
0000
0301
0000
0100
0020
0000
0130
0000
,
2000
0000
0000
3001
,
0200
0000
0000
0310
,
0001
0000
0100
0000
0010
0000
0100
0020
,
0000
0031
0000
0100
0020
0000
0130
0000
,
2000
0000
0000
3100
,
0020
0000
0000
0000
0130
0000
0010
0100
,
0001
0000
0010
0001
0100
0000
0100
1000
,
0000
0100
0010
0001
0100
0000
0010
0000
,
0200
0000
0000
0310
,
0002
0000
0000
0000
0000
0000
1003
0100
,
0010
0001
0100
0010
0000
0100
0010
0000
,
0100
0011
0000
0000
0000
0000
0000
0000
,
0001
0100
0010
1000
0100
0000
0010
0001
,
0200
0010
0001
1000
,
0320
0000
0000
0030
0100
0000
0020
0000
,
0000
0030
0000
0001
0100
0000
0010
0000
,
0100
0000
1000
0000
0100
1000
0100
0000
,
0020
0000
0030
1000
0002
0000
0003
0000
,
0100
0010
0001
0100
,
0020
0000
0030
0100
0020
0000
0031
0000
,
0200
0000
0000
0000
,
0310
0001
1000
0100
,
2001
3000
0100
1000
0200
0000
0320
0000
,
0000
0030
0000
0100
0010
0000
0001
0000
,
0100
0000
0010
0000
0001
0100
0010
0100
,
2000
0000
3000
0100
1000
0000
0100
0000
,
0010
0000
0002
0003
0100
0000
0010
0000
,
0002
0000
0003
0100
0010
0000
0100
0000
,
1000
0100
0010
0001
,
0200
0000
0300
0010
0100
0000
0010
0000
,
0002
0000
0003
1000
0100
0000
0020
0000
,
0030
0000
0001
0100
0010
0000
0100
0000
,
0010
0000
0001
0000
0100
0010
0100
0010
,
0001
0000
0100
0010
1000
0001
0100
0000
,
0010
0100
0010
0001
,
0200
0000
0300
0010
0100
0000
0010
0000
,
0001
0100
1000
0100
,
2000
0000
3000
0100
0010
0000
0001
0000
,
0200
0000
0000
0300
0010
0000
0002
0000
,
0003
0000
0001
0100
1000
0000
0100
0000
,
0010
0000
0001
0000
0100
0010
0100
1000
,
0200
0000
0300
0100
0010
0000
0001
0000
,
0100
0010
0001
0100
,
0020
0000
0030
0100
1000
0000
0100
0000
,
0010
0000
0001
0010
0100
1000
0100
0000
,
0010
0000
0001
0100
0010
0000
0100
0000
,
2000
3000
0100
2000
,
3000
0000
0000
0100
1000
0000
0100
0000
,
0010
0000
0001
0000
0100
0010
0100
0010
,
0002
0000
0003
0010
0100
0000
0001
0000
,
0100
0010
0100
1000
,
0200
0000
0300
1000
0100
0000
0010
0000
,
0001
0100
0010
0001
,
0200
0000
0300
0010
0100
0000
0001
0000
;

//--------------- dance-single - Wrland ----------------
#NOTEDATA:;
#STEPSTYPE:dance-single;
#DESCRIPTION:Wrland;
#DIFFICULTY:Hard;
#METER:11;
#RADARVALUES:0,0,0,0,0;
#CHARTNAME:;
#CHARTSTYLE:Pad;
#CREDIT:Wrland;
#METERF:11;
#NOTES:
0000
0000
0000
0000
,
0000
0000
0000
0000
,
0000
0000
0000
0000
,
0000
0000
0000
0000
,
0000
0000
0000
0000
,
0100
0000
0010
0000
0001
0100
0000
0010
,
0100
1000
0100
0010
,
0001
0000
0100
0000
0010
0100
0000
0010
,
0001
0100
0010
0100
,
1000
0000
0001
0000
1000
0000
0100
0020
,
0000
0130
0000
0010
0001
0100
0010
0000
,
0100
0000
0010
0000
0001
0100
0001
0000
,
0001
0100
0001
0000
0100
0000
0000
0000
0010
0000
0100
0000
1000
0000
0000
0000
,
0100
0000
1000
0000
0100
0000
0010
0002
,
0000
0103
0000
0010
0001
0010
0100
0000
,
0010
0000
0001
0100
0010
0100
1000
0000
,
0010
0100
0010
0000
0001
0000
0100
0000
0010
0000
0100
0000
0010
0000
0001
0000
,
0100
0000
0010
0001
0100
0000
0010
0100
,
1000
0010
0100
0010
0001
0000
0100
0000
,
0010
0000
0100
0010
0001
0100
0010
0000
,
0100
0010
0100
0000
1000
0000
0100
0000
0010
0000
0001
0000
0100
0000
0010
0000
,
0100
0010
0001
0200
0300
0010
0100
0001
,
0010
1001
0000
0000
0000
0000
0000
0010
,
0100
0010
0001
0010
0100
1000
0210
0000
,
0300
0010
0001
0100
,
0020
0030
0100
2000
,
3000
0000
0100
0010
0200
0300
0010
0000
,
0001
0000
0200
0300
0010
0100
0010
0001
,
0200
0300
0010
0001
0200
0300
0010
0000
,
0100
0000
2000
3000
0100
1000
0200
0300
,
0010
0000
0001
0100
0020
0030
0200
0300
,
0010
0000
0001
0010
0100
0000
0020
0030
,
0001
0010
0100
0010
0002
0003
0200
0300
,
2000
3000
0100
1000
0100
0000
0020
0000
,
0100
1000
0031
0100
0010
0000
0001
0000
,
0100
0000
0020
0030
0100
1000
0200
0000
,
1300
0000
0100
0010
0002
0000
0103
0000
,
0010
0000
0002
0003
0100
0010
0200
0300
,
0002
0003
0100
0010
0200
0300
0020
0030
,
0001
0010
0100
0010
2000
3000
0100
1000
,
0200
0300
0000
0100
0020
0030
0002
0000
,
0103
0000
0000
0000
0010
0000
0001
0000
0100
0001
0000
0000
0100
0000
0000
0000
,
0010
0000
0000
0000
0100
0000
1000
0000
0100
1000
0000
0000
0100
0000
0000
0000
,
0100
0000
0000
0000
0010
0000
0001
0000
0100
0001
0000
0000
0100
0000
0000
0000
,
0010
0000
0000
0000
0001
0000
0100
0000
0001
0100
0000
0000
0001
0000
0000
0000
,
0010
0000
0000
0000
0100
0000
0010
0000
0100
0010
0000
0000
0100
0000
0000
0000
,
0010
0000
0000
0000
0001
0000
0100
0000
0001
0100
0000
0000
0100
0000
0000
0000
,
0010
0000
0000
0000
0100
0000
1000
0000
0100
1000
0000
0000
0100
0000
0000
0000
,
0100
0000
0000
0000
0010
0000
0001
0000
0100
0001
0000
0000
0100
0000
0000
0000
,
0020
0030
0100
0020
,
0030
0001
0100
0010
0200
0000
1300
0000
,
0100
0000
2000
3000
0100
0010
0001
0010
,
0200
0300
0010
0001
0200
0300
0010
0000
,
0200
0300
0010
0000
0001
0100
0010
0000
,
0100
0000
1000
0100
2000
0000
3100
0000
,
0010
0000
0001
0010
0100
0010
0100
0000
,
0010
0001
0100
0010
,
0200
0300
0010
0001
0200
0300
0010
0000
,
0100
0000
1000
0100
2000
3000
0100
0000
,
0010
0000
0002
0003
0100
0010
0100
0000
,
0001
0000
0100
0010
0100
0000
1000
0000
,
0100
0000
1000
0000
0100
1000
0100
0000
,
0020
0030
0001
0100
0010
0000
0100
0000
,
1000
0100
0010
0001
,
0200
0300
0000
0010
0100
0000
0001
0000
;

//--------------- dance-single - Wrland ----------------
#NOTEDATA:;
#STEPSTYPE:dance-single;
#DESCRIPTION:Wrland;
#DIFFICULTY:Challenge;
#METER:13;
#RADARVALUES:0,0,0,0,0;
#CHARTNAME:;
#CHARTSTYLE:Pad;
#CREDIT:Wrland;
#METERF:13;
#NOTES:
0000
0000
0000
0000
,
0000
0000
0000
0000
,
0000
0000
0000
0000
,
0000
0000
0000
0000
,
0000
0000
0000
0000
,
1000
0000
0001
0000
1000
0001
1000
0000
,
0100
0000
0000
1000
0100
0000
0010
0000
,
0001
0000
0100
0000
0010
0100
0010
0000
,
0001
0000
0000
0100
0010
0000
0100
0000
,
1000
0000
0100
0000
1000
0000
0100
0002
,
0003
0100
0000
0010
0200
0300
0010
0000
,
0001
0000
1000
0000
0100
0000
0010
0000
0100
0010
0100
0000
0010
0000
0000
0000
,
0001
0000
0010
0000
0100
0000
1000
0000
0100
1000
0100
0000
0100
0000
0001
0000
,
0010
0000
0100
0000
1000
0000
0100
2000
,
3000
0100
0000
0010
0002
0003
0100
0000
,
0010
0000
0100
0000
0001
0000
0100
0000
0010
0100
0010
0000
0100
0000
0000
0000
,
1000
0000
0010
0000
0100
0000
1000
0000
0100
0010
0100
0000
0001
0000
0100
0000
,
0010
0000
0100
0001
1000
0000
0100
0020
,
0030
0100
0010
0100
0020
0030
0100
0000
,
0010
0000
0000
0000
0001
0000
0100
0000
1000
0100
1000
0000
0100
0000
0010
0000
,
0001
0000
0000
0000
0100
0000
0010
0000
0100
0010
0100
0000
0010
0000
0001
0000
,
1100
0010
0100
0012
0003
0100
0011
1000
,
0001
2100
0000
0000
3000
0000
0000
0010
,
1200
0300
0010
0101
0010
0100
0021
0000
,
0030
0100
1000
0100
,
0020
0000
0000
0030
0100
0000
0020
0000
,
0000
0030
0001
1000
0100
0000
0010
0000
,
0001
0000
0100
0000
0010
0001
0100
0001
,
0010
0000
0100
0001
0020
0000
0130
0000
,
0010
0000
0002
0003
0100
1000
0200
0300
,
0020
0000
0030
0001
0200
0300
0010
0000
,
0100
0000
1000
0100
0010
0000
0002
0000
,
0103
0000
0010
0100
0020
0030
0002
0003
,
0200
0000
0300
0000
0010
0000
0100
0000
0010
0100
0010
0000
0001
0000
0010
0000
,
0100
0000
0010
0000
0001
0000
0100
0000
0010
0001
0010
0000
0100
0000
0010
0000
,
1000
0100
0000
0000
0100
0010
0000
0000
1000
0000
0100
0000
1000
0000
0010
0000
,
0100
1000
0000
0000
0010
0100
0000
0000
0100
0010
0000
0000
0010
0000
0100
0000
,
0001
0010
0001
0000
0100
0000
0001
0000
0010
0000
0100
0000
0010
0100
0010
0000
,
0002
0000
0013
0000
0100
0000
0010
0000
0100
0010
1000
0000
0200
0000
0000
0000
,
0310
0000
0010
0000
0001
0000
0010
0000
0100
0010
0100
0000
0100
0000
0001
0000
,
0010
0000
0100
0000
1000
0000
0001
0000
0100
0001
0100
0000
0010
0000
0100
0000
,
0001
0000
0010
0000
0100
0000
0010
0000
0001
0010
0100
0000
0100
0000
1000
0000
,
0010
0000
0001
0000
0100
0000
0010
0000
0100
0001
0100
0000
1000
0000
0010
0000
,
0100
0000
1000
0000
0010
0000
0100
0000
0001
0010
0100
0000
0001
0000
0010
0000
,
0100
0000
1000
0000
0010
0000
0100
0000
0010
0100
0010
0000
0001
0000
0010
0000
,
0100
0000
0001
0000
0010
0000
0100
0000
0001
0010
0100
0000
0001
0000
0010
0000
,
0100
0000
1000
0000
0010
0000
0100
0000
1000
0100
1000
0000
0100
0000
0010
0000
,
0100
0000
1000
0000
0010
0000
0100
0000
0001
0010
0100
0000
0010
0000
0001
0000
,
0100
0000
1000
0000
0010
0000
0100
0000
0001
0010
0100
0000
0001
0000
0010
0000
,
0200
0000
0000
0000
0000
0000
0300
0000
0020
0000
0000
0030
0002
0000
0000
0000
,
0000
0003
0100
0000
1000
0000
0100
0000
2000
0000
0000
3000
0100
0000
0001
0000
,
0020
0000
0000
0030
0001
0000
0000
0000
0100
0000
0001
0000
0100
0000
1000
0000
,
0020
0000
0000
0030
0001
0000
0100
0000
0010
0000
0000
0000
0100
0000
0000
0000
,
1000
0000
0000
0000
0100
0000
0010
0000
1000
0000
0100
0000
2000
0000
0000
3000
,
0200
0000
0000
0300
0010
0000
0001
0000
0200
0000
0000
0300
0010
0000
0100
0000
,
0002
0000
0000
0003
0100
0000
0000
0000
0010
0000
0100
0000
0020
0000
0030
0000
,
0001
0200
1300
0200
,
2300
3000
0100
0010
0002
0003
0200
0300
,
0010
0100
0001
0100
0020
0030
0200
0300
,
0020
0030
0002
0003
0100
0001
0100
0010
,
0200
0000
0300
0000
1000
0000
0100
0000
1000
0010
0001
0000
0200
0000
0000
0300
,
0010
0000
0000
0000
0001
0000
0010
0000
0100
0000
0010
0000
0200
0000
0000
0300
,
0020
0000
0030
0000
0100
0000
0001
0000
0100
0010
1000
0000
0020
0000
0030
0000
,
0002
0003
0200
0300
1000
0100
2000
3000
,
0200
0300
0010
0010
0100
0000
0001
0000
;
