#TITLE:Generation;
#SUBTITLE:;
#ARTIST:트리플에스;
#TITLETRANSLIT:;
#SUBTITLETRANSLIT:;
#ARTISTTRANSLIT:tripleS AAA;
#GENRE:K-Pop;
#CREDIT:Modhaus;
#MUSIC:Generation.ogg;
#BANNER:Generation.png;
#BACKGROUND:BG.png;
#CDTITLE:Korean.png;
#SAMPLESTART:16.857;
#SAMPLELENGTH:15.000;
#SELECTABLE:YES;
#OFFSET:0.000;
#BPMS:0.000=70.000
,1.000=120.000
;
#STOPS:;
#DISPLAYBPM:120.000;
#JACKET:Generation-jacket.png;
#DISCIMAGE:;
#CDIMAGE:;
#BGCHANGES:0.000=Generation.avi=0.000=0=0=0=StretchNoLoop====,
99999=-nosongbg-=1.000=0=0=0 // don't automatically add -songbackground-
;
#FGCHANGES:;

//--------------- dance-single - Wrland ----------------
#NOTES:
     dance-single:
     Wrland:
     Beginner:
     2:
     0,0,0,0,0:
0000
0000
0000
0000
,
0000
0000
0000
0000
,
0000
0000
0000
0000
,
0000
0000
0000
0000
,
0000
1000
0000
0000
,
0000
0001
0000
0000
,
0000
1000
0000
0000
,
0000
1000
0000
0000
,
0000
0100
0000
0000
,
0000
0010
0000
0000
,
0000
0010
0000
0000
,
0000
1000
0000
0000
,
0000
0100
0000
0000
,
0000
0100
0000
0000
,
0000
0001
0000
0000
,
0000
1000
0000
0000
,
0000
0200
0000
0000
,
0300
0000
0000
0000
,
0000
0200
0000
0000
,
0300
0000
0000
0000
,
0000
0002
0000
0000
,
0003
0000
0000
0000
,
0000
0002
0000
0000
,
0003
0000
0000
0000
,
0000
1001
0000
0000
,
0000
0001
0000
0000
,
0000
0100
0000
0000
,
0000
0001
0000
0000
,
0000
0101
0000
0000
,
0000
0100
0000
0000
,
0000
1000
0000
0000
,
0000
0100
0000
0000
,
0000
0100
0000
0000
,
0000
0010
0000
0000
,
0000
1000
0000
0000
,
0000
0100
0000
0000
,
0000
0100
0000
0000
,
0000
0001
0000
0000
,
0000
0010
0000
0000
,
0000
0010
0000
0000
,
0000
2000
0000
0000
,
3000
0000
0000
0000
,
0000
0020
0000
0000
,
0030
0000
0000
0000
,
0000
0002
0000
0000
,
0003
0000
0000
0000
,
0000
0200
0000
0000
,
0300
0000
0000
0000
,
0000
0011
0000
0000
,
0000
0010
0000
0000
,
0000
0100
0000
0000
,
0000
0100
0000
0000
,
0000
0101
0000
0000
,
0000
0001
0000
0000
,
0000
0010
0000
0000
,
0000
0000
0000
1001
;

//--------------- dance-single - Wrland ----------------
#NOTES:
     dance-single:
     Wrland:
     Easy:
     6:
     0,0,0,0,0:
0000
0000
0000
0000
,
0000
0000
0000
0000
,
0000
0000
0000
0000
,
0000
0000
0000
0000
,
0000
1000
0000
1000
,
0000
0001
0000
0001
,
0000
1000
0000
0100
,
0000
1000
0000
0000
,
0000
0100
0000
0100
,
0000
0010
0000
0101
,
0000
0010
0000
0100
,
0000
1000
0000
1100
,
0000
0100
0000
0010
,
0000
0100
0000
0110
,
0000
0001
0000
0100
,
0000
1000
0000
1100
,
0000
0200
0000
0000
,
0310
0002
0000
0000
,
1003
0200
0000
0000
,
0310
0002
0000
0000
,
1003
0200
0000
0000
,
1300
0200
0000
0000
,
0310
0002
0000
0000
,
1003
2000
0000
0000
,
0000
3001
0000
0100
,
0010
0001
0000
0100
,
1000
0100
0000
0100
,
0010
0001
0000
0100
,
0010
0001
0000
0100
,
1000
0100
0000
0100
,
0010
0001
0000
0100
,
0010
0100
0000
0010
,
0001
0100
0000
0100
,
0000
0010
0000
1001
,
0000
1000
0000
0100
,
0000
1000
0000
1100
,
0000
0100
0000
0010
,
0000
0001
0000
0101
,
0000
0010
0000
0100
,
0000
0010
0000
0101
,
0000
2000
0000
0000
,
3001
0020
0000
0000
,
0130
0020
0000
0000
,
1030
0200
0000
0000
,
0310
0002
0000
0000
,
0103
2000
0000
0000
,
3001
0200
0000
0000
,
0310
0002
0000
0000
,
0103
0010
0000
0100
,
0000
0010
0000
1001
,
0000
0100
0000
1000
,
0000
0100
0000
1100
,
0000
0100
0000
0010
,
0000
0001
0000
0101
,
0000
0010
0000
0100
,
0000
1000
0000
1001
;

//--------------- dance-single - Wrland ----------------
#NOTES:
     dance-single:
     Wrland:
     Medium:
     12:
     0,0,0,0,0:
0000
0000
0000
0000
,
0000
0000
0000
0000
,
0000
0000
0000
0000
,
0000
0000
0000
0000
,
0000
0000
0100
0000
0010
0001
0200
0300
,
0020
0000
0000
0000
,
0030
0000
0100
1000
0100
1000
0200
0300
,
0010
0001
0100
0010
,
0001
0000
0100
0000
0100
0010
0002
0003
,
0100
0010
2000
3000
0100
0000
1100
0000
,
0000
0000
0200
0300
0010
0002
0003
1000
,
0100
0010
0002
0003
0100
0001
0010
0000
,
0110
0000
0020
0030
0001
0100
0002
0003
,
0100
0010
0200
0300
2000
3000
0110
0000
,
1000
0100
2000
3000
0100
0020
0030
0001
,
0100
0010
0200
0300
0010
0002
0003
0100
,
0100
0000
0010
0000
0001
0100
0010
0100
,
1000
0100
0000
1000
0100
0010
0000
0100
,
0010
0000
0001
0000
0200
0000
0300
0000
0010
0100
0001
0000
0100
0000
0010
0000
,
0100
0000
0010
0000
2000
0000
3000
0002
0000
0003
0100
0000
0010
0000
0001
0010
,
0100
0010
0100
0010
0001
0100
0010
0100
,
1000
0200
0300
1000
0100
0010
0001
0100
,
0010
0000
0100
0000
0010
0000
0001
0100
0001
0000
0100
0000
0010
0000
0100
0010
,
0000
0001
0100
0010
0100
1000
0200
0000
,
0310
0000
0110
0000
0010
0002
0003
0100
,
0010
0000
0100
0000
0010
0002
0003
0100
,
1000
0000
0100
1000
0100
0010
0001
0100
,
0020
0000
0030
0000
0100
0000
0010
0100
0001
0000
0100
0000
0010
0000
0001
0000
,
0100
0001
1001
0000
0100
0020
0030
0001
,
0100
0010
0100
0000
1000
0200
0300
0100
,
0010
0000
0001
0000
0100
0000
0000
0000
0010
0100
0001
0000
0100
0000
0010
0001
,
0100
0010
0100
0010
0100
0010
0001
1000
,
0200
0000
0310
0000
0100
0010
0200
0300
,
0010
0001
0200
0300
0020
0030
0101
0000
,
1000
0100
0020
0030
0100
0020
0030
0001
,
0100
0000
0020
0030
0100
2000
3000
0100
,
1000
0000
0100
0010
0001
0100
0020
0030
,
0001
0100
0002
0003
0200
0300
2000
3000
,
0001
0100
0010
0100
0010
0002
0003
0100
,
0010
0100
2000
3000
0100
0002
0003
0100
,
0010
0001
0100
0010
0100
0010
0001
0100
,
0010
0200
0300
1000
0100
1000
0100
0010
,
0001
0000
0100
0000
0020
0000
0030
0000
0100
0010
0100
0000
0010
0000
0001
0000
,
0100
0000
0010
0000
0200
0000
0300
0020
0000
0030
0001
0000
0100
0000
0010
0001
,
0100
1000
0100
0010
0001
0100
0010
0100
,
1000
0200
0300
1000
0100
1000
0100
0010
,
0001
0000
0100
0000
0020
0000
0030
0000
0100
0010
0100
0000
0010
0000
0001
0100
,
0000
0010
0100
1000
0100
0010
0001
1000
,
0001
0000
1001
0000
0100
1000
0200
0300
,
0010
0001
0200
0300
0020
0030
0101
0000
,
0010
0001
0100
0010
0001
0200
0300
0010
,
0100
0010
0002
0003
0100
0020
0030
0100
,
0010
0001
0100
1000
0100
0010
0002
0003
,
0100
0010
0200
0300
2000
3000
0110
0000
,
0010
0001
0100
0010
0100
2000
3000
0100
,
0010
0001
0200
0300
0010
0200
0300
0001
,
0100
0000
0000
0000
;

//--------------- dance-single - Wrland ----------------
#NOTES:
     dance-single:
     Wrland:
     Hard:
     14:
     0,0,0,0,0:
0000
0000
0000
0000
,
0000
0000
0000
0000
,
0000
0000
0000
0000
,
0000
0000
0000
0000
,
0000
0000
0001
1000
0001
1000
0002
0003
,
2000
0000
0001
0000
,
3001
0000
0100
0010
0100
0010
0002
0003
,
0100
0000
0000
0000
0010
0100
0010
0000
0001
0100
0001
0000
0100
0010
0100
0000
,
0000
0010
0100
0010
0100
0010
0002
0003
,
0100
0010
0200
0300
2000
3000
0101
0000
,
0100
0000
1000
0100
0001
0000
0100
0000
0010
0000
0200
0000
0300
0000
1000
0000
,
0100
1000
0200
0300
0010
0200
0300
0000
,
0110
0000
0010
0100
0010
0001
0200
0300
,
0010
0100
2000
3000
0100
0000
1100
0000
,
0100
0010
0100
0010
0001
0200
0300
0010
,
0100
0000
0010
0000
0002
0000
0003
0000
0100
0000
0010
0000
0000
1000
0001
0000
,
0200
0300
0010
0100
0010
0001
0100
0010
,
0100
0020
0030
0001
0100
0010
0100
1000
,
0100
0000
2000
0000
3000
0000
0100
0000
1000
0001
0100
0000
0010
0000
0100
0000
,
0010
0000
0001
0000
0200
0000
0300
0020
0000
0030
0001
0000
0100
0000
0010
0100
,
0010
0100
1000
0100
1000
0100
0010
0001
,
0100
0020
0030
0100
0010
0001
0100
0010
,
0100
0000
1000
0000
0110
0000
0000
0000
0100
0000
0010
0100
0010
0000
0001
0200
,
0000
0300
0010
0000
0100
0000
0010
0000
0001
0000
0100
0010
0100
0000
0010
0000
,
0002
0000
1003
0100
1000
0100
0000
0010
,
0100
0000
0010
0000
0001
0000
0000
0100
0000
0000
0010
0000
0100
0000
0010
0000
,
0001
0100
0010
0100
0010
0001
0100
1000
,
0100
0000
1000
0000
0100
0000
0010
0001
0100
0000
0010
0000
0100
0000
0010
0000
,
0001
0000
0100
0000
1010
0000
0000
0000
0001
0000
0100
0001
0100
0000
0010
0000
,
0100
0000
0010
0000
0002
0000
0003
0000
0100
0000
1000
0100
1000
0000
0100
0000
,
0010
0000
0100
0000
0010
0000
0100
0000
0010
0000
0001
0100
0010
0000
0100
0020
,
0000
0030
0100
0000
0010
0000
0001
0000
0100
0000
0010
0000
0100
0000
1000
0000
,
0200
0000
0310
0000
0010
0001
0200
0300
,
0010
0100
2000
3000
0200
0300
0110
0000
,
0001
0000
0100
0001
0100
0000
0001
0000
0010
0000
0200
0000
0300
0000
1000
0000
,
0100
1000
0200
0300
0010
0200
0300
0000
,
1010
0000
0010
0100
0001
0100
0020
0030
,
0100
1000
0200
0300
2000
3000
0110
0000
,
0001
0100
0010
0100
1000
0200
0300
1000
,
0100
0010
0002
0003
0200
0300
0020
0030
,
0001
0100
0010
0100
0010
0001
0100
0010
,
0100
0020
0030
0100
0010
0001
0100
0010
,
0100
0000
2000
0000
3000
0000
0100
0000
0010
0100
0010
0000
0100
0000
0010
0000
,
0001
0000
0100
0000
0020
0000
0030
0200
0000
0300
0010
0000
0001
0100
0010
0000
,
0100
0010
0001
0100
0010
0100
0010
1000
,
0100
2000
3000
0100
1000
0100
0010
0001
,
0100
0000
0010
0000
0110
0000
0000
0000
0001
0000
0100
0001
0100
0000
0010
0100
,
0010
0001
0100
0010
0100
0010
0001
1000
,
0200
0300
1100
0100
0010
0001
0200
0300
,
0010
0100
0020
0030
0002
0003
0101
0000
,
0100
0000
0010
0100
1000
0000
0100
0000
1000
0000
0200
0000
0300
0000
0100
0000
,
0010
0001
0200
0300
0010
0002
0003
0100
,
0011
0000
0100
0001
0010
0100
0020
0030
,
0001
0100
0020
0030
0200
0300
1100
0000
,
0100
1000
0100
0010
0001
0200
0300
0010
,
0100
0010
0002
0003
0100
0020
0030
0000
;
