#VERSION:0.83;
#TITLE:GUTS!;
#SUBTITLE:;
#ARTIST:嵐;
#TITLETRANSLIT:;
#SUBTITLETRANSLIT:;
#ARTISTTRANSLIT:ARASHI;
#GENRE:J-Pop;
#CREDIT:J Storm;
#MUSIC:GUTS!.ogg;
#BANNER:GUTS!.png;
#BACKGROUND:BG.png;
#JACKET:GUTS!-jacket.png;
#DISCIMAGE:;
#CDIMAGE:;
#SELECTABLE:YES;
#LYRICSPATH:;
#CDTITLE:Japanese.png;
#SAMPLESTART:72.387;
#SAMPLELENGTH:15.000;
#BPMS:0.000000=125.990000;
#STOPS:114.000000=0.476000;
#WARPS:;
#DELAYS:;
#SPEEDS:;
#SCROLLS:;
#TICKCOUNTS:;
#TIMESIGNATURES:;
#LABELS:;
#COMBOS:;
#FAKES:;
#BGCHANGES:0.000=GUTS!.avi=0.000=0=0=0=StretchNoLoop====,
99999=-nosongbg-=1.000=0=0=0 // don't automatically add -songbackground-
;
#FGCHANGES:;
#ATTACKS:;
#DISPLAYBPM:125.000;
#TAGS:DMCA;

//---------------dance-single - Wrland---------------
#NOTEDATA:;
#CHARTNAME:;
#CHARTSTYLE:Pad;
#CREDIT:Wrland;
#STEPSTYPE:dance-single;
#DESCRIPTION:Wrland;
#DIFFICULTY:Beginner;
#METER:3;
#METERF:3;
#RADARVALUES:0,0,0,0,0;
#NOTES:
// measure 0
0000
0000
0000
0000
,  // measure 1
0000
0000
0000
0000
,  // measure 2
0000
0000
0000
0000
,  // measure 3
0000
0000
0000
0000
,  // measure 4
0000
0000
0000
0000
,  // measure 5
0001
0000
0000
0000
,  // measure 6
0010
0000
0000
0000
,  // measure 7
1000
0000
0000
0000
,  // measure 8
1000
0000
0000
0000
,  // measure 9
0010
0000
0000
0000
,  // measure 10
0100
0000
0000
0000
,  // measure 11
0100
0000
0000
0000
,  // measure 12
2000
0000
3000
1001
,  // measure 13
0100
0000
0000
0000
,  // measure 14
0100
0000
0000
0000
,  // measure 15
0001
0000
0000
0000
,  // measure 16
1000
0000
0000
0000
,  // measure 17
0010
0000
0000
0000
,  // measure 18
0100
0000
0000
0000
,  // measure 19
0100
0000
0000
0000
,  // measure 20
0100
0000
0000
0000
,  // measure 21
0010
0000
0000
0000
,  // measure 22
0100
0000
0000
0000
,  // measure 23
0100
0000
0000
0000
,  // measure 24
0100
0000
0000
0000
,  // measure 25
0001
0000
0000
0000
,  // measure 26
0010
0000
0000
0000
,  // measure 27
0100
0000
0000
0000
,  // measure 28
0200
0000
0300
0020
,  // measure 29
0000
0000
0000
0000
,  // measure 30
0030
0000
0000
2000
,  // measure 31
0000
0000
0000
0000
,  // measure 32
3000
0000
0000
0001
,  // measure 33
0000
0000
0000
1000
,  // measure 34
0000
0000
0000
0100
,  // measure 35
0000
0000
0000
0100
,  // measure 36
0000
0000
0000
0220
,  // measure 37
0000
0000
0330
1000
,  // measure 38
0000
0100
0000
0100
,  // measure 39
0000
0010
0000
0001
,  // measure 40
0000
0100
0000
0100
,  // measure 41
0000
0010
0000
0100
,  // measure 42
0000
0010
0000
0001
,  // measure 43
0000
0100
0000
1000
,  // measure 44
0000
0100
0000
0100
,  // measure 45
1000
1000
0000
0100
,  // measure 46
0000
0010
0000
0001
,  // measure 47
0000
0001
0000
0100
,  // measure 48
0000
0010
0000
0001
,  // measure 49
0000
0100
0000
0100
,  // measure 50
0000
1000
0000
0100
,  // measure 51
0000
0000
0100
0000
0100
0200
0300
0200
,  // measure 52
0000
0000
0000
0300
0010
0020
0030
0020
,  // measure 53
0000
0000
0000
0030
0001
0002
0003
0002
,  // measure 54
0000
0000
0003
1001
,  // measure 55
0000
0000
0000
0200
,  // measure 56
0000
0300
0010
0001
,  // measure 57
0000
0000
0000
0100
,  // measure 58
0000
0000
0000
0100
,  // measure 59
0000
0000
0000
0001
,  // measure 60
0000
0000
0000
0010
,  // measure 61
0000
0000
0000
0010
,  // measure 62
0000
0000
0000
1000
,  // measure 63
0000
0000
0000
0020
,  // measure 64
0000
0000
0000
0230
,  // measure 65
0000
0000
0000
0320
,  // measure 66
0000
0000
0000
0030
,  // measure 67
0000
0000
0000
1001
0000
0000
0000
0000
;

//---------------dance-single - Wrland---------------
#NOTEDATA:;
#CHARTNAME:;
#CHARTSTYLE:Pad;
#CREDIT:Wrland;
#STEPSTYPE:dance-single;
#DESCRIPTION:Wrland;
#DIFFICULTY:Easy;
#METER:5;
#METERF:5;
#RADARVALUES:0,0,0,0,0;
#NOTES:
// measure 0
0000
0000
0000
0000
,  // measure 1
0000
0000
0000
0000
,  // measure 2
0000
0000
0000
0000
,  // measure 3
0000
0000
0000
0000
,  // measure 4
0000
0000
0000
0000
,  // measure 5
0001
0000
0100
0000
,  // measure 6
0010
0000
0100
0000
,  // measure 7
1000
0000
0100
0000
,  // measure 8
1000
0000
0100
0000
,  // measure 9
0010
0000
0001
0000
,  // measure 10
0100
0000
0010
0000
,  // measure 11
0100
0000
0010
0000
,  // measure 12
2000
0000
3000
1001
,  // measure 13
0100
0000
0010
0000
,  // measure 14
0100
0000
0010
0000
,  // measure 15
0001
0000
0100
0000
,  // measure 16
1000
0000
0100
0000
,  // measure 17
0010
0000
0001
0000
,  // measure 18
0100
0000
0010
0000
,  // measure 19
0100
0000
1000
0000
,  // measure 20
0100
0000
0100
0000
,  // measure 21
0010
0000
0001
0000
,  // measure 22
0100
0000
1000
0000
,  // measure 23
0100
0000
1000
0000
,  // measure 24
0100
0000
0010
0000
,  // measure 25
0001
0000
0100
0000
,  // measure 26
0010
0000
0001
0000
,  // measure 27
0100
0000
0010
0000
,  // measure 28
0200
0000
0300
0020
,  // measure 29
0000
0000
0000
0000
,  // measure 30
0030
0000
0000
2000
,  // measure 31
0000
0000
0000
0000
,  // measure 32
3000
0000
0000
0001
,  // measure 33
0000
1000
0000
0001
,  // measure 34
0000
1000
0000
0100
,  // measure 35
0000
1000
0000
0100
,  // measure 36
0000
0010
0000
0220
,  // measure 37
0000
0000
0330
1000
,  // measure 38
0000
0100
1000
0100
,  // measure 39
0000
0010
0000
0001
,  // measure 40
0000
0100
0001
0100
,  // measure 41
0000
0010
0000
0100
,  // measure 42
0000
0010
0000
0001
,  // measure 43
0000
0100
0000
1000
,  // measure 44
0000
0100
0000
0100
,  // measure 45
1000
0100
1000
0000
0000
0000
0100
0000
,  // measure 46
0000
0010
0000
0001
,  // measure 47
0100
0001
0000
0100
,  // measure 48
0000
0010
0000
0001
,  // measure 49
0100
0001
0000
0100
,  // measure 50
0000
1000
0000
0100
,  // measure 51
1000
0000
0100
0000
0100
0200
0300
0200
,  // measure 52
0000
0000
0000
0300
0010
0020
0030
0020
,  // measure 53
0000
0000
0000
0030
0001
0002
0003
0002
,  // measure 54
0000
0000
0003
1001
,  // measure 55
0000
0000
0000
0200
,  // measure 56
0000
0300
0010
0001
,  // measure 57
0000
1000
0000
0100
,  // measure 58
0000
0010
0000
0100
,  // measure 59
0000
0010
0000
0001
,  // measure 60
0000
0100
0000
0010
,  // measure 61
0000
0100
0000
0010
,  // measure 62
0000
0100
0000
1000
,  // measure 63
0000
0100
0000
0020
,  // measure 64
0000
0000
0000
0230
,  // measure 65
0000
0000
0000
0320
,  // measure 66
0000
0000
0000
0030
,  // measure 67
0000
0000
0000
1001
0000
0000
0000
0000
;

//---------------dance-single - Wrland---------------
#NOTEDATA:;
#CHARTNAME:;
#CHARTSTYLE:Pad;
#CREDIT:Wrland;
#STEPSTYPE:dance-single;
#DESCRIPTION:Wrland;
#DIFFICULTY:Medium;
#METER:10;
#METERF:10;
#RADARVALUES:0,0,0,0,0;
#NOTES:
// measure 0
0000
0000
0000
0000
,  // measure 1
0000
0000
0000
0000
,  // measure 2
0000
0000
0000
0000
,  // measure 3
0000
0000
0000
0000
,  // measure 4
0000
0000
0000
0000
0000
0000
0002
0003
,  // measure 5
2000
3000
0100
1000
0100
1000
0100
0010
,  // measure 6
0001
0200
0300
0010
0100
0010
0001
0100
,  // measure 7
0020
0030
0100
0010
0001
0100
0010
0100
,  // measure 8
1000
0000
0200
0000
0000
0300
1000
0000
0100
0000
0010
0000
0002
0000
0000
0003
,  // measure 9
0200
0000
0300
1000
0100
1000
0100
0010
,  // measure 10
0001
0000
0200
0000
0000
0300
0020
0000
0000
0030
0002
0000
0000
0003
0100
0000
,  // measure 11
0002
0000
0000
0003
0100
0000
0010
0000
0100
0000
0010
0000
0001
0000
0100
0000
,  // measure 12
0001
0000
0100
0001
0000
0001
0100
0000
0020
0000
0000
0000
0230
0000
0300
0000
,  // measure 13
0020
0030
0002
0003
1000
0100
1000
0100
,  // measure 14
0010
0001
0010
0000
0100
0010
0100
0000
,  // measure 15
2000
3000
0200
0300
1000
0100
0010
0001
,  // measure 16
0100
0001
0100
0000
0010
0100
0010
0000
,  // measure 17
2000
3000
0100
0020
0030
0200
0300
1000
,  // measure 18
0200
0000
0300
1000
0000
0000
0100
0000
0020
0000
0030
0000
0001
0000
0000
0000
,  // measure 19
0100
0000
0010
0100
0000
0010
0001
0100
,  // measure 20
0020
0030
0100
0000
0010
0100
0010
0000
,  // measure 21
0002
0003
0200
0300
0001
0100
0002
0003
,  // measure 22
0010
0100
1000
0000
0100
1000
0100
0000
,  // measure 23
2000
3000
0200
0300
0100
0010
0001
0100
,  // measure 24
0020
0030
0100
1000
0100
0000
0100
0000
,  // measure 25
0020
0030
0001
2000
3000
0200
0300
0010
,  // measure 26
0100
0000
0010
0001
0000
0000
0100
0000
0020
0000
0030
0000
0100
0000
0010
0000
,  // measure 27
0001
0000
0100
0000
0010
0000
0001
0000
0100
0000
0010
0100
0010
0000
0100
0000
,  // measure 28
0020
0000
0030
0001
0000
0000
0100
0000
0010
0000
0000
0000
0200
0000
0000
0000
,  // measure 29
0000
0300
1000
0000
0100
0000
2000
0000
,  // measure 30
0000
3000
0100
0000
0010
0000
0002
0000
,  // measure 31
0000
0003
0100
0000
0010
0000
0002
0000
,  // measure 32
0000
0003
0100
0000
1000
0000
0100
0010
,  // measure 33
0100
0000
0010
0000
0100
0000
0010
0000
0100
0000
0010
0000
2000
0000
3000
0002
,  // measure 34
0000
0003
1000
0000
0100
0000
0010
0000
0200
0000
0300
0000
0010
0000
0001
0000
,  // measure 35
0100
0000
0010
0000
0100
0000
1000
0000
0100
0000
0010
0000
0002
0000
0003
0200
,  // measure 36
0000
0300
0010
0000
0200
0000
0300
0000
0010
0000
0000
0000
2002
0000
0000
0000
,  // measure 37
0000
0000
0000
0000
0000
3003
0200
0300
,  // measure 38
0220
0000
0330
0000
0001
0000
0100
0001
1000
0000
0100
0000
0010
0000
0100
0000
,  // measure 39
2000
0000
3000
0000
0100
1000
0000
0100
0001
0000
0010
0000
0002
0000
0003
0000
,  // measure 40
0200
0000
0300
0000
0010
0000
0100
0010
0001
0000
0010
0000
0100
0000
0010
0000
,  // measure 41
0200
0300
1000
0100
1000
0100
0020
0030
,  // measure 42
0001
0000
0200
0000
0300
0000
0001
0000
0100
0000
0010
0000
0200
0000
0300
2000
,  // measure 43
0000
3000
0100
0000
2000
0000
3000
0000
0100
0000
0000
0000
0010
0000
0100
0010
,  // measure 44
0100
0000
0010
0002
0000
0003
0100
0000
1000
0000
0100
0000
0020
0000
0030
0002
,  // measure 45
0000
0003
0100
0000
0010
0000
0100
0000
1000
0000
0100
0000
0020
0000
0030
0000
,  // measure 46
0002
0000
0003
0000
0100
0000
0001
0100
0001
0000
0100
0000
0010
0000
0100
0000
,  // measure 47
2000
0000
3000
0000
0100
1000
0000
0100
0010
0000
0001
0000
0200
0000
0300
0000
,  // measure 48
0010
0000
0100
0000
0010
0000
0001
0100
0010
0000
0100
0000
0010
0000
0001
0000
,  // measure 49
0200
0300
0010
0001
0100
0010
0200
0300
,  // measure 50
1000
0000
0100
0000
2000
0000
3000
0100
0000
0000
0010
0000
0002
0000
0003
0200
,  // measure 51
0000
0300
0010
0000
0200
0000
0300
0000
0010
0000
0002
0000
0003
0000
0100
0000
,  // measure 52
1000
0200
0300
1000
0100
0020
0030
0001
,  // measure 53
0100
0020
0030
0100
0010
0002
0003
0100
,  // measure 54
0010
0200
0300
1000
0100
0000
2002
0000
,  // measure 55
0000
0000
0000
0000
0000
0000
0000
0000
3003
0000
0000
0000
0100
0000
0010
0100
,  // measure 56
0000
0000
0000
0001
0000
0000
0000
0000
0000
1000
0000
0000
0100
0000
0000
0000
0000
0000
0000
0000
0000
0000
0000
0000
0220
0000
0000
0000
0000
0000
0000
0000
0330
0000
0000
0000
1000
0000
0000
0000
0000
0000
0000
0000
0000
0000
0000
0000
,  // measure 57
0100
1000
0100
0010
0001
0100
0010
0002
,  // measure 58
0003
0200
0300
0010
0100
0010
0002
0000
,  // measure 59
0003
0100
1000
0100
0010
0100
1000
0200
,  // measure 60
0300
0020
0000
0000
0030
0000
0200
0300
,  // measure 61
1000
0100
1000
0100
0010
0001
0100
0020
,  // measure 62
0030
0002
0003
0200
0300
0010
0200
0300
,  // measure 63
0010
0001
0100
0010
0001
0100
2000
0000
,  // measure 64
0000
0000
0000
3002
,  // measure 65
0000
0000
0000
2003
,  // measure 66
0000
0000
0000
3000
,  // measure 67
0000
0000
0000
1001
0000
0000
0000
0000
;

//---------------dance-single - Wrland---------------
#NOTEDATA:;
#CHARTNAME:;
#CHARTSTYLE:Pad;
#CREDIT:Wrland;
#STEPSTYPE:dance-single;
#DESCRIPTION:Wrland;
#DIFFICULTY:Hard;
#METER:13;
#METERF:13;
#RADARVALUES:0,0,0,0,0;
#NOTES:
// measure 0
0000
0000
0000
0000
0000
0000
0000
0000
0000
0000
0000
0000
1000
0000
0001
1000
,  // measure 1
0002
0000
0000
0000
1000
0000
0000
0000
1003
0000
0000
0000
0001
0000
1000
0001
,  // measure 2
2000
0000
0000
0000
0001
0000
0000
0000
3001
0000
0000
0000
1000
0000
0001
1000
,  // measure 3
0002
0000
0000
0003
0100
0000
0010
0100
0020
0000
0000
0030
0001
0000
0100
0001
,  // measure 4
0100
0000
0010
0001
0000
0010
0000
0100
0110
0000
0000
0000
0010
0000
0000
0000
,  // measure 5
0100
0000
1000
0100
1000
0100
0010
0001
,  // measure 6
0100
0000
0020
0000
0000
0030
0100
0000
0010
0000
0001
0000
0010
0000
0100
0000
,  // measure 7
2000
0000
0000
3000
0100
0000
0010
0000
0100
0000
1000
0000
0100
0000
1000
0000
,  // measure 8
0100
0020
0030
0001
0200
0300
0020
0030
,  // measure 9
0002
0003
0100
0010
0100
0010
0001
0100
,  // measure 10
0010
0200
0300
0200
0300
0020
0030
0001
,  // measure 11
0200
0300
0020
0030
0100
1000
0100
1000
,  // measure 12
0100
0000
1000
0100
0000
0000
0010
0000
0100
0000
0000
0000
0110
0000
0001
0000
,  // measure 13
0200
0000
0320
0000
0130
0010
0100
0010
,  // measure 14
0001
0000
1000
0010
0100
0000
0010
0000
0100
0000
0010
0000
0001
0000
0100
0000
,  // measure 15
0020
0000
0000
0000
0230
0000
0000
0000
1300
0000
0100
1000
0100
0000
0100
0000
,  // measure 16
0020
0000
0030
1000
0100
0000
0010
0000
0001
0010
0100
0000
0010
0000
0001
0000
,  // measure 17
0200
0000
0000
0300
0010
0000
0002
0000
0000
0003
0020
0000
0000
0030
0100
0000
,  // measure 18
0020
0000
0030
0002
0000
0003
0100
0000
0020
0000
0000
0000
0130
0000
0000
0000
,  // measure 19
0100
1000
0100
2000
3000
0100
1000
0100
,  // measure 20
0020
0000
0030
0001
0200
0000
0310
0000
,  // measure 21
0200
0000
0300
0000
2000
0000
3000
0000
0100
0000
0010
0100
0010
0000
0001
0000
,  // measure 22
0200
0300
0010
0100
0020
0000
0031
0000
,  // measure 23
0200
0000
0300
0000
2000
0000
3000
0000
0100
0000
1000
0100
1000
0000
0100
0000
,  // measure 24
0020
0000
0030
0001
0000
0000
0100
0000
0020
0000
0030
0000
0200
0000
0300
0000
,  // measure 25
0002
0003
0100
0002
0003
0020
0030
0100
,  // measure 26
0010
0000
0001
0100
0000
0000
0010
0000
0200
0000
0300
0000
1000
0000
0100
1000
,  // measure 27
0100
0010
0100
0010
0001
0100
0010
0100
,  // measure 28
2000
0000
3000
0001
0000
1000
0001
0000
1000
0000
0000
0000
0200
0000
0000
0000
,  // measure 29
0000
0000
0300
0000
0010
0000
0001
0100
0000
0000
0010
0000
0200
0000
0000
0000
,  // measure 30
0300
0000
0010
0000
0100
0000
0010
0100
0000
0000
0010
0000
0200
0000
0000
0000
,  // measure 31
0300
0001
1000
0100
1000
0200
0300
0010
,  // measure 32
0200
0000
0000
0300
0010
0000
0000
0001
0000
0000
0100
0000
0010
0000
0001
0100
,  // measure 33
0001
0000
0010
0000
0100
1000
0100
0000
0010
0000
0100
0000
0010
0000
0001
0100
,  // measure 34
0001
0000
0100
0000
0010
0100
0010
0000
0200
0000
0000
0300
1000
0100
1000
0000
,  // measure 35
0100
0010
0100
0000
0001
0100
0001
0000
0010
0100
0010
0000
0200
0000
0300
0020
,  // measure 36
0000
0030
0100
0000
0220
0000
0000
0330
0001
0000
1000
0000
0002
0000
0003
2000
,  // measure 37
0000
3000
0001
0000
1000
0000
0100
0000
1001
0000
0100
0000
0020
0000
0000
0000
,  // measure 38
0230
0000
0000
0000
0310
0000
0001
0010
0100
0000
0010
0000
0100
0010
0100
0000
,  // measure 39
0020
0000
0000
0030
0001
0100
0000
0010
0100
0000
0010
0000
0200
0000
0000
0300
,  // measure 40
0002
0000
0000
0003
0100
0001
0010
0000
0100
0000
1000
0000
0100
0000
0010
0000
,  // measure 41
0100
0000
0010
0000
0001
0000
0100
0001
0100
0000
0010
0000
0200
0000
0000
0300
,  // measure 42
1000
0000
0200
0000
0000
0300
2000
0000
0000
3000
0100
0000
0010
0000
0001
0100
,  // measure 43
0000
0000
0010
0000
0100
0000
0001
0010
0001
0000
0010
0000
0100
0000
0010
0100
,  // measure 44
0010
0000
0001
2000
0000
3000
0100
0000
0010
0000
0001
0000
0200
0000
0300
0020
,  // measure 45
0000
0030
0100
0000
0010
0000
0001
0000
0100
0000
0010
0000
0220
0000
0330
0000
,  // measure 46
2002
0000
3003
0000
1000
0000
0001
1000
0010
0000
0100
0000
1000
0010
0100
0000
,  // measure 47
0020
0000
0030
0000
0100
0010
0000
0100
0010
0000
0001
0000
0200
0000
0000
0300
,  // measure 48
0010
0000
0100
0000
0010
0000
0001
0100
0010
0000
0100
0000
0010
0000
0001
0100
,  // measure 49
0001
0000
0010
0000
0100
0010
0100
0000
1000
0000
0100
0000
2000
0000
0000
3000
,  // measure 50
0100
0000
1000
0000
0200
0000
0300
0020
0000
0030
0001
0000
0100
0000
0001
0100
,  // measure 51
0001
0000
0200
0300
0020
0000
0000
0030
0100
0000
2000
0000
3000
0000
0100
0000
,  // measure 52
0010
0000
0002
0000
0000
0003
0100
0000
0010
0000
0200
0000
0000
0300
0010
0000
,  // measure 53
0001
0000
0200
0000
0000
0300
0010
0000
0100
0000
2000
0000
0000
3000
0100
0000
,  // measure 54
1000
0000
0200
0000
0000
0300
0010
0000
0001
0000
0100
0000
0001
0100
0001
0100
,  // measure 55
0010
0000
0100
0020
0000
0030
0001
0000
0100
0000
0010
0000
1000
0000
0100
1000
,  // measure 56
0000
0100
0000
0010
1001
0000
0000
0000
0110
0000
1000
0000
0200
0000
0000
0000
,  // measure 57
0300
0000
0010
0000
0001
0000
0010
0000
0100
0000
1000
0000
0100
0000
0100
0010
,  // measure 58
0000
0000
0001
0000
0100
0000
0010
0000
0100
0000
1000
0000
0200
0000
0000
0300
,  // measure 59
1000
0100
1000
0100
0010
0001
0100
0002
,  // measure 60
0000
0003
0100
0000
0020
0000
0030
0000
0002
0000
0000
0003
0200
0000
0000
0000
,  // measure 61
0300
1000
0100
1000
0100
0010
0001
0200
,  // measure 62
0300
0000
0010
0000
0100
0000
0010
0000
0001
0000
0100
0000
0020
0000
0000
0030
,  // measure 63
0200
0000
0310
0000
0001
0000
0100
0000
0010
0000
0100
0000
0010
0000
1000
0100
,  // measure 64
0000
0000
0000
0001
0000
0000
0000
0000
0000
0100
0000
0000
0020
0000
0000
0000
0000
0000
0000
0000
0000
0030
0000
0000
1000
0000
0000
0000
0000
0000
0100
0000
0000
0000
0000
0000
1000
0000
0000
0000
0001
0000
0000
0000
1000
0000
0000
0000
,  // measure 65
0001
1000
0001
0100
0010
0100
0010
0100
0010
0001
0010
0100
,  // measure 66
1000
0000
0000
0000
0100
0000
0000
0000
0010
0000
0000
0000
0001
0000
0000
1000
0000
0000
0000
0000
0000
0100
0000
0000
0000
0000
0000
0010
0000
0000
0200
0000
0000
0000
0000
0000
0000
0000
0000
0000
0000
0000
0000
0000
0000
0000
0000
0000
,  // measure 67
0000
0000
0000
0300
0000
0000
1001
0000
0000
0000
0000
0000
0000
0000
0000
0000
;
