#TITLE:GOLDEN;
#SUBTITLE:;
#ARTIST:HUNTR/X;
#TITLETRANSLIT:;
#SUBTITLETRANSLIT:;
#ARTISTTRANSLIT:;
#GENRE:K-POP DEMON HUNTERS;
#CREDIT:Sony & Netlfix & Republic;
#MUSIC:GOLDEN.ogg;
#BANNER:GOLDEN.png;
#BACKGROUND:BG.png;
#CDTITLE:K-POP DEMON HUNTERS.png;
#SAMPLESTART:61.463;
#SAMPLELENGTH:15.000;
#SELECTABLE:YES;
#OFFSET:-0.000;
#BPMS:0.000=61.500
,15.000=123.000
,80.000=61.500
,88.000=123.000
,198.000=61.500
;
#STOPS:16.000=0.488
,102.000=0.976
;
#DISPLAYBPM:61.000:123.000;
#TAGS:DMCA;
#JACKET:GOLDEN-JACKET.png;
#BGCHANGES:0.000=GOLDEN.avi=0.000=0=0=0=StretchNoLoop====,
99999=-nosongbg-=1.000=0=0=0 // don't automatically add -songbackground-
;
#FGCHANGES:;

//--------------- dance-single - Wrland ----------------
#NOTES:
     dance-single:
     Wrland:
     Beginner:
     3:
     0,0,0,0,0:
0000
0000
0000
0000
,
0000
0000
0000
0000
,
0000
0000
0000
0000
,
0000
0000
0000
0000
,
0000
1000
0000
0000
0000
0000
0000
0000
0000
0000
0000
0000
0000
0000
0000
0000
0000
0000
0000
0000
0000
0000
0000
0000
0000
0000
0000
0000
0000
0000
0000
0000
0000
0000
0000
0000
0000
0000
0000
0000
0000
0000
0000
0000
0000
0000
0000
0000
0000
0000
0000
0000
0000
0000
0000
0000
0000
0000
0000
0000
0000
0000
0000
0000
0000
0000
0000
0000
0000
0000
0000
0000
0000
0000
0000
0000
0000
0000
0000
0000
0000
0000
0000
0000
0000
0000
0000
0000
0000
0000
0000
0000
0000
0000
0000
0000
0000
0000
0000
0000
0000
0000
0000
0000
0000
0000
0000
0000
0000
0000
0000
0000
0000
0000
0000
0000
0000
0000
0000
0000
0000
0000
0000
0000
0000
0000
0000
0000
0000
0000
0000
0000
0000
0000
0000
0000
0000
0000
0000
0000
0000
0000
0000
0000
0000
0000
0000
0000
0000
0000
0000
0000
0000
0000
0000
0000
0000
0000
0000
0000
0000
0000
0000
0000
0000
0000
0000
0000
0000
0000
0000
0000
0000
0000
0000
0000
0000
0000
0000
0000
0000
0000
0000
0000
0000
0000
0000
0000
0000
0000
0000
0000
,
1000
0000
0000
0000
,
0001
0000
0000
0000
,
1000
0000
0000
0000
,
0100
0000
0000
0000
,
0100
0000
0000
0000
,
0010
0000
0000
0000
,
0100
0000
0000
0000
,
0001
0000
0000
0000
,
0001
0000
0000
0000
,
1000
0000
0000
0000
,
1000
0000
0000
0000
,
0100
0000
0000
0000
,
0100
0000
0000
0000
,
0010
0000
0000
0000
,
0001
0000
0000
0000
,
2000
0000
0000
0000
,
3000
0000
0000
0000
,
0002
0000
0000
0000
,
0000
0000
0000
0000
,
0000
0000
0000
0000
,
0003
0000
0000
0000
0000
0000
0000
0000
0000
0000
0000
0000
0000
0000
0000
0000
0000
0000
0000
0000
0000
0000
0000
0000
0000
0000
0000
0000
0000
0000
0000
0000
0000
0000
0000
0000
0000
0000
0000
0000
0000
0000
0000
0000
0000
0000
0000
0000
0000
0000
0000
0000
0000
0000
0000
0000
0000
0000
0000
0000
0000
0000
0000
0000
0000
0000
0000
0000
0000
0000
0000
0000
0000
0000
0000
0000
0000
0000
0000
0000
0000
0000
0000
0000
0000
0000
0000
0000
0000
0000
0000
0000
0000
0000
0000
0000
0000
0100
0000
0000
0000
0000
0000
0000
0000
0000
0000
0000
0000
0000
0000
0000
0000
0000
0000
0000
0000
0000
0000
0000
0000
0000
0000
0000
0000
0000
0000
0000
0000
0000
0000
0000
0000
0000
0000
0000
0000
0000
0000
0000
0000
0000
0000
0000
0000
0000
0000
0000
0000
0000
0000
0000
0000
0000
0000
0000
0000
0000
0000
0000
0000
0000
0000
0000
0000
0000
0000
0000
0000
0000
0000
0000
0000
0000
0000
0000
0000
0000
0000
0000
0000
0000
0000
0000
0000
0000
0000
0000
0000
0000
0000
0000
,
0000
0000
0100
0000
,
0000
0000
0010
0000
,
0000
0000
0001
0000
,
0000
0000
1000
0000
,
0000
0000
0100
0000
,
0000
0000
1000
0000
,
0000
0000
0100
0000
,
0000
0000
0110
0000
,
0000
0000
1001
0000
,
0000
0000
1100
0000
,
0000
0000
0110
0000
,
0000
0000
0011
0000
,
0000
0000
0110
0000
,
0000
0000
1001
0000
,
0000
0000
1100
0000
,
0000
0000
1001
0000
,
0000
0000
1000
0000
,
0000
0000
0001
0000
,
0000
0000
1000
0000
,
0000
0000
0100
0000
,
0000
0000
0010
0000
,
0000
0000
0100
0000
,
0000
0000
0010
0000
,
0000
0000
2000
0000
,
0000
0000
0000
0000
,
3000
0000
0002
0000
,
0000
0000
0000
0000
,
0003
0000
0000
0000
;

//--------------- dance-single - Wrland ----------------
#NOTES:
     dance-single:
     Wrland:
     Easy:
     6:
     0,0,0,0,0:
0000
0000
0000
0000
,
0000
0000
0000
0000
,
0000
0000
0000
0000
,
0000
0000
0000
0000
,
0000
1000
0000
0000
0000
0000
0000
0000
0000
0000
0000
0000
0000
0000
0000
0000
0000
0000
0000
0000
0000
0000
0000
0000
0000
0000
0000
0000
0000
0000
0000
0000
0000
0000
0000
0000
0000
0000
0000
0000
0000
0000
0000
0000
0000
0000
0000
0000
0000
0000
0000
0000
0000
0000
0000
0000
0000
0000
0000
0000
0000
0000
0000
0000
0000
0000
0000
0000
0000
0000
0000
0000
0000
0000
0000
0000
0000
0000
0000
0000
0000
0000
0000
0000
0000
0000
0000
0000
0000
0000
0000
0000
0000
0000
0000
0000
1000
0000
0000
0000
0000
0000
0000
0000
0000
0000
0000
0000
0000
0000
0000
0000
0000
0000
0000
0000
0000
0000
0000
0000
0000
0000
0000
0000
0000
0000
0000
0000
0000
0000
0000
0000
0000
0000
0000
0000
0000
0000
0000
0000
0000
0000
0000
0000
0000
0000
0000
0000
0000
0000
0000
0000
0000
0000
0000
0000
0000
0000
0000
0000
0000
0000
0000
0000
0000
0000
0000
0000
0000
0000
0000
0000
0000
0000
0000
0000
0000
0000
0000
0000
0000
0000
0000
0000
0000
0000
0000
0000
0000
0000
0000
0000
,
1000
0000
0000
0000
,
0001
0000
0001
0000
,
1000
0000
0000
0000
,
0100
0000
0010
0000
,
0100
0000
0000
0000
,
0010
0000
1000
0000
,
0100
0000
0000
0000
,
0001
0000
1000
0000
,
0001
0000
0000
0000
,
1000
0000
0001
0000
,
1000
0000
0000
0000
,
0100
0000
0010
0000
,
0100
0000
0000
0000
,
0010
0000
1000
0000
,
0001
0000
0000
0000
,
2000
0001
0001
0000
,
3000
0000
0000
0000
,
0002
0000
1000
0000
,
1000
0000
0000
0000
,
1000
0000
1000
0000
,
0003
0000
0000
0000
0000
0000
0000
0000
0000
0000
0000
0000
0000
0000
0000
0000
0000
0000
0000
0000
0000
0000
0000
0000
0000
0000
0000
0000
0000
0000
0000
0000
0000
0000
0000
0000
0000
0000
0000
0000
0000
0000
0000
0000
0000
0000
0000
0000
0000
0000
0000
0000
0000
0000
0000
0000
0000
0000
0000
0000
0000
0000
0000
0000
0000
0000
0000
0000
0000
0000
0000
0000
0000
0000
0000
0000
0000
0000
0000
0000
0000
0000
0000
0000
0000
0000
0000
0000
0000
0000
0000
0000
0000
0000
0000
0000
0000
0100
0000
0000
0000
0000
0000
0000
0000
0000
0000
0000
0000
0000
0000
0000
0000
0000
0000
0000
0000
0000
0000
0000
0000
0000
0000
0000
0000
0000
0000
0000
0000
0000
0000
0000
0000
0000
0000
0000
0000
0000
0000
0000
0000
0000
0000
0000
0000
0000
0000
0000
0000
0000
0000
0000
0000
0000
0000
0000
0000
0000
0000
0000
0000
0000
0000
0000
0000
0000
0000
0000
0000
0000
0000
0000
0000
0000
0000
0000
0000
0000
0000
0000
0000
0000
0000
0000
0000
0000
0000
0000
0000
0000
0000
0000
,
0010
0000
0100
0000
,
0000
0000
0010
0000
,
1000
0000
0001
0000
,
0010
0000
0100
0001
0000
0000
1000
0000
0000
0000
0000
0000
,
0010
0000
0100
0000
,
0000
0000
1000
0000
,
0100
0000
0100
0000
,
0010
0000
0001
0100
0000
0000
0110
0000
0000
0000
0000
0000
,
0100
0000
0010
0100
0000
0000
1001
0000
0000
0000
0000
0000
,
1000
0000
0100
0010
0000
0000
1100
0000
0000
0000
0000
0000
,
0001
0000
1000
0001
0000
0000
0110
0000
0000
0000
0000
0000
,
0100
0000
1000
0100
0000
0000
0011
0000
0000
0000
0000
0000
,
0100
0000
0001
0100
0000
0000
0110
0000
0000
0000
0000
0000
,
0001
0000
0100
0001
0000
0000
1001
0000
0000
0000
0000
0000
,
0100
0000
1000
0100
0000
0000
1100
0000
0000
0000
0000
0000
,
0100
0000
0010
0100
0000
0000
1001
0000
0000
0000
0000
0000
,
0100
0100
1000
0000
,
0100
0100
0001
0000
,
0010
0010
1000
0000
,
0100
0100
0100
0000
,
0010
0001
0010
0000
,
1000
0001
0100
0000
,
1000
0100
0010
0000
,
0000
0000
2000
0000
,
0000
0000
0000
0000
,
3000
0000
0002
0000
,
0000
0000
0000
0000
,
0003
0000
0000
0000
;

//--------------- dance-single - Wrland ----------------
#NOTES:
     dance-single:
     Wrland:
     Medium:
     10:
     0,0,0,0,0:
0000
0000
0000
0000
,
0000
0000
0000
0000
,
0000
0000
0000
0000
,
0000
0000
0000
0000
,
0000
1000
0000
0000
0000
0000
0000
0000
0000
0000
0000
0000
0000
0000
0000
0000
0000
0000
0000
0000
0000
0000
0000
0000
0000
0000
0000
0000
0000
0000
0000
0000
0000
0000
0000
0000
0000
0000
0000
0000
0000
0000
0000
0000
0000
0000
0000
0000
0100
0000
0000
0000
0000
0000
0000
0000
0000
0000
0000
0000
0000
0000
0000
0000
0000
0000
0000
0000
0000
0000
0000
0000
0000
0000
0000
0000
0000
0000
0000
0000
0000
0000
0000
0000
0000
0000
0000
0000
0000
0000
0000
0000
0000
0000
0000
0000
1000
0000
0000
0000
0000
0000
0000
0000
0000
0000
0000
0000
0000
0000
0000
0000
0000
0000
0000
0000
0000
0000
0000
0000
0000
0000
0000
0000
0000
0000
0000
0000
0000
0000
0000
0000
0000
0000
0000
0000
0000
0000
0000
0000
0000
0000
0000
0000
0100
0000
0000
0000
0000
0000
0000
0000
0000
0000
0000
0000
0000
0000
0000
0000
1000
0000
0000
0000
0000
0000
0000
0000
0000
0000
0000
0000
0000
0000
0000
0000
0100
0000
0000
0000
0000
0000
0000
0000
0000
0000
0000
0000
0000
0000
0000
0000
,
1000
0000
0000
0100
0000
0000
0010
0000
0000
0000
0001
0100
,
0001
0000
0000
0000
0000
0100
0000
0000
0000
1000
0100
1000
,
0100
0100
0020
0030
,
0001
0000
0000
0100
0000
0000
0010
0000
0000
0100
0000
0001
,
0100
0000
0000
0000
0000
0010
0000
0000
0000
0000
1000
0100
,
1000
0000
0000
0000
0000
0100
0000
0000
0000
0010
0100
0010
,
0100
0000
0001
0000
0100
0000
0020
0000
0000
0030
0000
0000
,
0100
0000
0000
1000
0000
0000
0100
0000
0100
1000
0000
0100
,
0000
0000
0010
0000
0000
0100
0000
0000
0001
0100
0000
0000
,
0010
0000
0000
0100
0000
0000
1000
0000
0100
0010
0000
0000
,
0001
0000
0000
0100
0000
0000
0010
0000
0100
0010
0000
0001
,
0000
0000
0100
0000
0000
0010
0000
0000
0100
0000
0000
0010
,
0000
0000
0100
0000
0000
1000
0000
0000
0000
0100
0000
1000
,
0100
0000
0001
0000
0100
0000
0001
0000
0100
0000
0010
0000
,
1000
0000
0000
0100
0000
0000
1000
0000
0100
1000
0000
0000
,
0200
0000
0320
0000
,
0032
0000
2003
0000
,
3002
0000
0000
0000
,
2003
0000
0000
0000
,
3002
0000
0000
0000
,
0003
0000
0000
0000
0000
0000
0000
0000
0000
0000
0000
0000
0000
0000
0000
0000
0000
0000
0000
0000
0000
0000
0000
0000
0000
0000
0000
0000
0000
0000
0000
0000
0000
0000
0000
0000
0000
0000
0000
0000
0000
0000
0000
0000
0000
0000
0000
0000
0000
0000
0000
0000
0000
0000
0000
0000
0000
0000
0000
0000
0000
0000
0000
0000
0000
0000
0000
0000
0000
0000
0000
0000
0000
0000
0000
0000
0000
0000
0000
0000
0000
0000
0000
0000
0000
0000
0000
0000
0000
0000
0000
0000
0000
0000
0000
0000
0000
0100
0000
0000
0000
0000
0000
0000
0000
0000
0000
0000
0000
0000
0000
0000
0000
0000
0000
0000
0000
0000
0000
0000
0000
0000
0000
0000
0000
0000
0000
0000
0000
0000
0000
0000
0000
0000
0000
0000
0000
0000
0000
0000
0000
0000
0000
0000
0010
0000
0000
0000
0000
0000
0000
0000
0000
0000
0000
0000
0000
0000
0000
0000
0000
0000
0000
0000
0000
0000
0000
0000
0000
0000
0000
0000
0000
0000
0000
0000
0000
0000
0000
0000
0000
0000
0000
0000
0000
0000
0000
0000
0000
0000
0000
0000
,
0100
0000
0010
0100
0000
0001
0100
0000
0000
1000
0000
0000
,
0100
1000
0100
0010
,
0001
0000
0100
0001
0000
0000
0010
0000
0000
0100
0000
0000
,
0020
0030
0100
1000
,
0100
0000
1000
0100
0000
0010
0100
0000
0000
0010
0000
0000
,
0001
0000
0000
0100
0000
0000
0010
0000
0100
0010
0000
0000
,
0001
0000
0100
0001
0000
0010
0100
0000
1000
0000
0000
0000
,
0200
0000
0000
0300
0000
0000
1000
0000
0000
0000
0000
0000
0100
0000
0000
0000
1000
0000
0100
0000
0000
0000
0000
0000
,
1100
0000
0000
0100
0000
0000
0010
0000
0001
0100
0000
0000
,
0001
0000
0000
0101
0000
0000
0010
0000
0100
0010
0000
0000
,
0002
0000
0000
0003
0000
0000
0100
0000
0000
0000
0020
0000
0000
0000
0000
0000
0030
0000
0100
0000
0000
0000
0000
0000
,
1000
0000
0100
1000
0000
0000
0100
0000
0000
0010
0000
0000
,
0001
0000
0100
0001
0000
0000
0010
0000
0000
0100
0000
0000
,
1000
0000
0100
1000
0000
0000
0100
0000
0000
0010
0000
0000
,
0001
0000
0000
0100
0000
2002
0000
0000
0000
0000
3003
0000
,
0100
0000
1000
0100
0000
0000
0100
0000
0000
0010
0000
0000
,
0001
0000
0000
0100
0000
0000
0010
0000
0100
0010
0000
0000
,
0001
0000
0000
0100
0000
0000
1000
0000
0100
1000
0000
0100
,
0010
0000
0000
0001
0000
0000
0100
0000
0001
0100
0000
0000
,
0010
0100
1000
0100
,
1000
0000
0100
1000
0000
0000
0100
0000
0000
0010
0000
0000
,
0001
0000
0100
0001
0000
0000
0100
0000
0000
0010
0000
0000
,
0100
0000
0000
0010
0000
0200
0000
0000
0300
0010
0000
0000
,
0200
0000
0000
0300
0000
0000
2002
0000
3003
0220
0000
0000
,
0000
0330
0000
2200
0000
0000
0000
0000
3300
0220
0000
0000
,
0000
0000
0330
0022
0000
0000
0000
0000
0033
2002
0000
0000
,
0000
0000
3003
2200
0000
0000
0000
0000
3300
0220
0000
0000
,
0000
0000
0330
2002
0000
0000
0000
0000
0000
3003
0000
0000
;

//--------------- dance-single - Wrland ----------------
#NOTES:
     dance-single:
     Wrland:
     Hard:
     12:
     0,0,0,0,0:
0000
0000
0000
0000
,
0000
0000
0000
0000
,
0000
0000
0000
0000
,
0000
0000
0000
0000
,
0000
1000
0000
0000
0000
0000
0000
0000
0000
0000
0000
0000
0000
0000
0000
0000
0000
0000
0000
0000
0000
0000
0000
0000
0000
0000
0000
0000
0000
0000
0000
0000
0000
0000
0000
0000
0000
0000
0000
0000
0000
0000
0000
0000
0000
0000
0000
0000
0100
0000
0000
0000
0000
0000
0000
0000
0000
0000
0000
0000
0000
0000
0000
0000
0010
0000
0000
0000
0000
0000
0000
0000
0000
0000
0000
0000
0000
0000
0000
0000
0100
0000
0000
0000
0000
0000
0000
0000
0000
0000
0000
0000
0000
0000
0000
0000
0010
0000
0000
0000
0000
0000
0000
0000
0000
0000
0000
0000
0000
0000
0000
0000
0000
0000
0000
0000
0000
0000
0000
0000
0000
0000
0000
0000
0000
0000
0000
0000
0000
0000
0000
0000
0000
0000
0000
0000
0000
0000
0000
0000
0000
0000
0000
0000
0001
0000
0000
0000
0000
0000
0000
0000
0000
0000
0000
0000
0000
0000
0000
0000
0100
0000
0000
0000
0000
0000
0000
0000
0000
0000
0000
0000
0000
0000
0000
0000
0001
0000
0000
0000
0000
0000
0000
0000
0000
0000
0000
0000
0000
0000
0000
0000
,
0100
0000
0000
0010
0000
0200
0000
0300
0000
1000
0010
0001
,
0100
0000
0000
0010
0000
0001
0200
0000
0300
1000
0000
0100
,
1000
0000
0000
0100
0000
0000
0010
0100
0010
0002
0000
0000
,
0103
0000
0000
0010
0001
0100
0001
0000
0000
0010
0100
0010
,
0200
0000
0000
0300
0000
2000
0000
3000
0000
0100
1000
0100
,
1000
0000
0000
0001
0000
1000
0200
0000
0300
0010
0100
0010
,
1100
0000
0011
0000
1100
0001
0010
0000
0100
1000
0100
0002
,
0000
0000
0203
0000
0000
0310
0000
0000
0100
1000
0000
0200
,
0000
0000
2300
0000
0000
3200
0000
0000
0300
2000
0000
3000
,
0100
0000
0010
0000
0100
0000
0010
0000
0001
0000
0100
0000
,
1000
0000
0000
0100
1000
0100
1000
0000
0001
0100
0000
0001
,
1000
0000
0100
1000
0000
0100
0010
0000
0001
0100
0001
0100
,
0000
0000
1000
0100
0000
0010
0100
0000
0000
1001
0000
0000
,
0100
0000
1000
0000
0100
0000
0010
0000
0001
0000
0100
0001
,
0100
0000
0000
0010
0000
0000
0100
0001
1000
0100
0000
0000
,
2002
0000
0000
0000
3003
0000
2200
0000
0000
0000
3300
0000
,
0220
0000
0000
0000
0330
0000
0022
0000
0033
2200
0000
3300
,
0100
0010
0100
0010
0000
0000
1000
0100
1000
0100
0000
0000
,
0010
0100
0010
0100
0000
0000
0001
0100
0001
0100
0000
0000
,
0020
0000
0030
0100
1000
0100
0020
0000
0030
0001
0000
0000
,
1000
0000
0000
0000
0000
0000
0000
0000
0000
0000
0000
0000
0000
0000
0000
0000
0001
0000
0000
0000
0000
0000
0000
0000
0000
0000
0000
0000
0000
0000
0000
0000
1000
0000
0000
0000
0000
0000
0000
0000
0000
0000
0000
0000
0000
0000
0000
0000
0001
0000
0000
0000
0000
0000
0000
0000
0000
0000
0000
0000
0000
0000
0000
0000
1000
0000
0000
0000
0000
0000
0000
0000
0000
0000
0000
0000
0000
0000
0000
0000
0001
0000
0000
0000
0000
0000
0000
0000
0000
0000
0000
0000
0000
0000
0000
0000
0000
1100
0000
0000
0000
0000
0000
0000
0000
0000
0000
0000
0000
0000
0000
0000
0000
0000
0000
0000
0000
0000
0000
0000
0000
0000
0000
0000
0000
0000
0000
0000
0000
0000
0000
0000
0000
0000
0000
0000
0000
0000
0000
0000
0000
0000
0000
0000
0110
0000
0000
0000
0000
0000
0000
0000
0000
0000
0000
0000
0000
0000
0000
0000
0000
0000
0000
0000
0000
0000
0000
0000
0000
0000
0000
0000
0000
0000
0000
0000
0000
0000
0000
0000
0000
0000
0000
0000
0000
0000
0000
0000
0000
0000
0000
0000
,
0101
0000
1000
0100
0000
1000
0100
0000
0000
0010
0000
0000
,
0100
0010
0001
0100
0010
1000
0100
0000
0020
0000
0030
0000
,
0001
0100
0001
0100
0001
0100
0001
0000
0200
0000
0300
0000
,
0010
0100
1000
0100
0010
0001
0100
0000
0000
1001
0000
0000
,
0100
0000
0010
0001
0000
0100
0010
0000
0000
1000
0000
0000
,
0100
1000
0100
1000
0100
0010
0001
0000
0200
0000
0300
0000
,
0010
0100
0010
0001
0100
0001
0100
0000
0002
0000
0003
0000
,
0010
0000
0100
0000
1000
0000
0100
0000
0000
1000
0000
0000
,
0100
1000
0100
1000
0000
0000
0100
0000
0000
0001
0000
0000
,
0100
0001
0100
0001
0000
0000
0020
0000
0030
0200
0000
0300
,
2000
0000
3000
0100
0000
2000
0000
0000
3000
0100
0000
0000
,
0010
0001
0100
0001
0000
0000
0010
0000
0000
0100
0000
0000
,
1000
0100
0001
0100
,
0010
0000
0001
0100
0000
0000
0020
0000
0030
0200
0000
0300
,
2000
0000
3000
0100
0000
2000
0000
3000
0000
0100
0000
0000
,
0001
0100
0001
0100
0000
0100
0010
0000
0010
0001
0000
0001
,
1000
0000
0100
0000
0000
0000
1000
0100
0010
1000
0100
0010
,
0000
0000
0100
0010
0000
0000
0001
0100
0001
0100
0000
0010
,
1000
0100
1000
0000
0000
0001
0100
1000
0010
0001
0001
0100
,
0010
0000
0000
1000
0100
0010
0002
0000
0003
0200
0000
0300
,
0010
0000
0001
0100
0000
0000
0010
0000
0000
1000
0000
0000
,
0100
0000
1000
0100
0000
0000
0020
0000
0030
0001
0100
0001
,
0200
0000
0300
0010
0000
1000
0200
0000
0300
0010
0000
0000
,
0100
0010
0001
2002
0000
3003
0220
0000
0000
0000
0330
0000
,
2200
0000
0000
0000
0000
3300
0220
0000
0000
0000
0000
0330
,
0022
0000
0000
0000
0000
0033
2002
0000
0000
0000
0000
3003
,
2200
0000
0000
0000
0000
3300
0220
0000
0000
0000
0000
0330
,
2002
0000
3003
0000
;
