#TITLE:EL CHORRO;
#SUBTITLE:;
#ARTIST:VALLEJO 777 x JHANER TRUJILLO;
#TITLETRANSLIT:;
#SUBTITLETRANSLIT:;
#ARTISTTRANSLIT:;
#GENRE:NorteƱo Colombiano;
#CREDIT:SONDER;
#MUSIC:EL CHORRO.ogg;
#BANNER:EL CHORRO.png;
#BACKGROUND:BG.png;
#CDTITLE:Popular Latin.png;
#SAMPLESTART:73.110;
#SAMPLELENGTH:15.000;
#SELECTABLE:YES;
#OFFSET:0.000;
#BPMS:0.000=108.700
,1.000=129.000
,166.000=64.500
,168.000=129.000
,198.000=64.500
,199.000=129.000
;
#STOPS:;
#DISPLAYBPM:129.000;
#TAGS:DMCA;
#JACKET:EL CHORRO-jacket.png;
#BGCHANGES:0.000=EL CHORRO.avi=0.000=0=0=0=StretchNoLoop====,
99999=-nosongbg-=1.000=0=0=0 // don't automatically add -songbackground-
;
#FGCHANGES:;

//--------------- dance-single - Wrland ----------------
#NOTES:
     dance-single:
     Wrland:
     Beginner:
     4:
     0,0,0,0,0:
0000
0000
0000
0000
,
0000
0000
0000
0000
,
0000
0000
0000
0000
,
0000
0000
0000
0000
,
0000
0000
0000
0000
,
0000
0000
0000
0000
,
0000
0000
0000
0000
,
0100
0100
0010
0001
,
0100
0000
0010
0000
0100
0000
0000
1000
,
0100
1000
0100
1000
,
0100
0000
0001
0000
0200
0000
0300
0010
,
0200
0300
0010
0000
0001
0000
0100
0000
,
0010
0100
1000
0100
,
1000
0100
0001
0100
,
0010
0100
0020
0000
,
0130
0000
0100
0100
,
1000
0100
1000
0100
,
0001
0100
0010
0001
,
0100
0000
0001
0100
0001
0000
0100
0000
,
0010
0100
1000
0100
,
1000
0100
1000
0000
0100
0000
0010
0000
,
0001
0100
0010
0001
,
0100
0001
0100
0000
0010
0000
0100
0000
,
1000
0100
1000
0100
,
1000
0000
0100
0010
0001
0000
0100
0000
,
0010
0000
0100
0010
0100
0000
0100
0000
,
0010
0000
0001
0100
0010
0000
0100
0000
,
1000
0000
0100
1000
0100
0000
0100
0000
,
0110
0000
1001
0000
0110
0000
1000
0100
,
1000
0100
0001
0100
,
0010
0100
0010
0001
0100
0000
0010
0000
,
0220
0000
0330
0000
0001
0000
1000
0001
,
1000
0000
1000
0000
0001
0000
1000
0001
,
1000
0000
0001
0000
0100
0000
0010
0100
,
0010
0000
0100
0000
0010
0000
0100
0010
,
0100
0000
0010
0000
0001
0001
0010
0100
,
1000
0000
1001
0000
1000
0100
0010
0001
,
0001
0000
1001
0000
0100
0010
0100
0010
,
0001
0100
0010
0100
1000
0000
0100
1000
,
0100
1000
0100
0010
,
0001
0000
0100
0001
0100
0000
0010
0000
,
0100
0000
0010
0100
0020
0000
0032
0000
,
0103
0000
0010
0100
1000
0000
0100
1000
,
0100
0000
0100
0000
0010
0000
0001
0100
,
0001
0000
0100
0000
0010
0000
0100
0010
,
0001
0000
0100
0000
1000
0000
0100
1000
,
0100
0000
0100
0000
0010
0000
0001
0100
,
0001
0000
0100
0000
0010
0100
0010
0000
,
0001
0000
0100
1000
0100
0000
0100
0000
,
0020
0000
2030
3100
,
0010
0100
0010
0001
,
0100
0000
0010
0100
0010
0000
0100
0000
,
1000
0000
0100
1000
0100
0000
0100
0000
,
0010
0000
0001
0000
0100
0001
0200
0000
,
0000
0320
0000
0031
,
0100
0010
0100
0000
1000
0100
1000
0000
,
0100
1000
0100
0010
,
0001
0000
0100
0000
0010
0000
0001
0100
,
0001
0100
0010
0100
,
1000
0100
1000
0000
0100
0000
0010
0000
,
0001
0100
0001
0000
0100
0000
0010
0000
,
0100
0010
0100
0000
0010
0100
0010
0000
,
0002
1003
0000
0100
,
0010
0100
0010
0000
0001
0000
0100
0000
,
0010
0100
0010
0000
0001
0000
0100
0000
,
1000
0000
0100
0000
1000
0100
1000
0000
,
0100
0000
0100
0000
0010
0100
0010
0000
,
0001
0000
0100
0000
0010
0100
1000
0000
,
0100
0000
1000
0000
0100
0010
0001
0000
,
0100
0000
0010
0000
0001
0100
0001
0000
,
0100
0110
0000
0000
;

//--------------- dance-single - Wrland ----------------
#NOTES:
     dance-single:
     Wrland:
     Easy:
     6:
     0,0,0,0,0:
0000
0000
0000
0000
,
0000
0000
0000
0000
,
0000
0000
0000
0000
,
0000
0000
0000
0000
,
0000
0000
0000
0000
,
0000
0000
0000
0000
,
0000
0000
0000
0000
,
0100
0000
0010
0000
,
0100
0000
0010
0000
0100
0000
0000
1000
,
0100
1000
0100
0000
,
0100
0000
0000
0000
0200
0000
0300
0010
,
0200
0300
0000
0000
0001
0000
0000
0000
,
0010
0000
1000
0000
,
1000
0000
0001
0100
,
0010
0100
0020
0000
,
0130
0000
0100
0000
,
1000
0000
1000
0100
,
0001
0000
0010
0000
,
0100
0000
0001
0100
0001
0000
0000
0000
,
0010
0000
1000
0000
,
1000
1000
0100
0000
,
0001
0000
0010
0000
,
0100
0001
0100
0000
0010
0000
0000
0000
,
1000
0000
1000
0000
,
1000
0100
0001
0100
,
0010
0000
0100
0000
,
0010
0000
0001
0100
0010
0000
0000
0000
,
1000
0000
0100
0000
,
0110
0000
1001
0000
0110
0000
1000
0100
,
1000
0000
0001
0000
,
0010
0000
0010
0001
0100
0000
0010
0000
,
0220
0330
0001
0000
,
1000
0000
0001
0000
,
1000
0000
0100
0000
,
0010
0000
0010
0000
,
0100
0000
0000
0000
0001
0001
0010
0100
,
1000
0000
1001
0000
1000
0100
0010
0001
,
0001
0000
1001
0000
0100
0010
0100
0010
,
0001
0100
0010
0100
1000
0000
0000
0000
,
0100
1000
0100
0000
,
0001
0000
0100
0010
,
0100
0000
0020
0032
,
0103
0000
1000
0000
,
0100
0000
0010
0000
,
0001
0000
0010
0000
,
0001
0000
1000
0000
,
0100
0000
0010
0000
,
0001
0000
0010
0100
,
0001
0000
0100
0100
,
0020
0000
2030
3100
,
0010
0100
0010
0001
,
0000
1000
0000
0001
,
0010
0100
0000
0100
,
0010
0000
0001
0000
0100
0001
0200
0000
,
0000
0320
0000
0031
,
0000
0100
0000
1000
,
0100
1000
0000
0010
,
0000
0000
0100
0000
0010
1000
0001
0000
,
0001
0100
0000
0100
,
0000
1000
0000
0010
,
1000
0001
0000
0010
,
0000
0000
0100
0000
0100
0001
0010
0000
,
0002
1003
0000
0100
,
0000
0010
0000
0100
,
0010
0010
0001
0100
,
0000
0010
0000
1000
,
0100
0001
0000
0010
,
0000
0000
0100
0000
0010
0100
1000
0000
,
0100
0000
0000
0000
0100
0010
0001
0000
,
0100
0000
0010
0000
0001
0100
0001
0000
,
0100
0110
0000
0000
;

//--------------- dance-single - Wrland ----------------
#NOTES:
     dance-single:
     Wrland:
     Medium:
     10:
     0,0,0,0,0:
0000
0000
0000
0000
,
0000
0000
0000
0000
,
0000
0000
0000
0000
,
0000
0000
0000
0000
,
0000
0000
0000
0000
,
1000
1001
1000
1001
,
0200
0000
0300
0010
0200
0000
0300
0000
,
0010
0001
0100
0010
,
0001
0000
0100
0001
0200
0000
0300
0010
,
0200
0300
1000
0000
0100
0000
1000
0000
,
0100
0000
1000
0100
2000
3000
0100
0010
,
0002
0003
0100
0000
0010
0000
0001
0000
,
0100
0000
0010
0100
0010
0000
0001
0000
,
0100
0000
1000
0100
1000
0100
0010
0001
,
0100
0010
0100
0010
0002
0000
0000
0000
,
1003
0000
0000
0000
0100
0000
1000
0100
,
1000
0010
0100
0010
0002
0000
0103
0000
,
0010
0100
0010
0001
0200
0300
0010
0001
,
0100
0010
1000
0100
2000
3000
0200
0300
,
0010
0000
0001
0100
0002
0003
0100
0010
,
0100
1000
0100
1000
0200
0300
1000
0100
,
0010
0000
0000
0000
0001
0100
0010
0000
0001
0000
0100
0000
0010
0000
0100
0000
,
1000
0100
0010
0100
0020
0030
0001
0100
,
0010
0100
1000
0100
2000
3000
0100
1000
,
0100
0000
0010
0000
0001
0000
0100
0000
0001
0200
0000
0300
0010
0000
0100
0000
,
1000
0100
0010
0001
0100
0010
0100
1000
,
0100
0000
0010
0000
0001
0000
0100
0000
0020
0000
0000
0030
0100
0000
0010
0000
,
0001
0100
0010
1000
0100
0100
0010
0010
,
0110
0001
1100
0001
0202
0303
0010
0100
,
1000
0000
0100
0000
1000
0000
0100
0000
1000
0100
0010
0000
0001
0100
0001
0000
,
0010
0100
0010
0000
1000
0000
0100
0000
0020
0000
0000
0030
0100
0000
0010
0001
,
0100
0000
0000
0000
0001
0100
0010
0100
,
1000
0000
0100
0000
0010
0000
0100
0000
2000
0000
0000
3000
0100
0000
1000
0000
,
0100
0000
0010
0000
0001
0000
0100
0000
0020
0000
0000
0030
0001
0000
0100
0000
,
0010
0100
1000
0100
0010
0100
0010
0001
,
0200
0000
0000
0300
0010
0000
0100
0000
0010
0000
0001
0000
0100
0000
0010
0000
,
0100
1000
0100
1000
0100
0010
0001
0100
,
0010
0100
0010
0001
0101
0000
1001
0000
,
0110
0000
1100
0000
0100
0010
0001
0100
,
0110
0000
0000
0000
0001
0100
0001
0100
,
0010
0000
0100
0000
1000
0000
0100
0000
1000
0100
1000
0000
0100
0000
0010
0000
,
0001
0100
0010
0100
0020
0000
0230
0000
,
0310
0000
0100
0000
0010
0000
0001
1000
0100
0000
0010
0000
0100
0000
1000
0000
,
0100
0010
0001
0100
0010
0001
0100
0001
,
0100
0001
0100
0000
0010
0100
0100
0000
1000
0100
0001
0000
0100
0010
0100
0000
,
0010
0001
0100
0010
0100
1000
0100
1000
,
0200
0000
0000
0300
1000
0000
0100
0000
0020
0000
0000
0030
0001
0000
0100
0000
,
0002
0000
0003
0100
0002
0003
0200
0300
,
0020
0000
0030
0100
2000
3000
0200
0300
,
2000
0000
0000
0000
3000
0000
0001
0000
2000
0000
0000
3000
0200
0000
0300
0000
,
0010
0001
0100
0010
0100
1000
0100
0010
,
0001
0000
0100
0000
0010
0000
0100
0000
0010
0000
0001
0000
0100
0001
0100
0000
,
0010
0100
0010
0000
1000
0100
1000
0000
0100
0010
0100
0000
0010
0001
0100
0000
,
0010
1000
0001
0000
0100
0010
0010
0000
0100
0001
1000
0000
0200
0000
0300
0000
,
1000
0000
0100
0000
0020
0000
0000
0030
0001
0000
1000
0000
0001
0000
0100
0000
,
1000
0000
0100
0000
0010
0000
0100
0000
0001
0000
0100
0000
0020
0000
0000
0030
,
0100
0010
0001
0100
0010
0100
2000
3000
,
0100
0000
1000
0000
0100
0000
0010
0000
0001
0000
0100
0000
0020
0000
0000
0030
,
0200
0000
0000
0300
0010
0000
0001
0000
0100
0000
0010
0000
0200
0000
0300
0000
,
0100
0000
0010
0000
0001
0000
0100
0000
0001
0000
0100
0000
0001
0100
0001
0000
,
0010
0100
1000
0100
0010
0001
0100
0010
,
0100
0000
1000
0000
0100
0000
0010
0000
0001
0000
0100
0000
0001
0100
0001
0000
,
0010
0100
1000
0000
0010
0001
0100
0010
,
0001
0100
0010
0100
1000
0100
2000
3000
,
0100
0000
1000
0100
1000
0000
0100
0000
0010
0000
0001
0000
0100
0000
0010
0000
,
0001
0100
0010
0001
0100
0010
0200
0300
,
0010
0000
0100
0010
0100
0000
0010
0000
0001
0000
0100
0000
0010
0000
0001
0000
,
0100
0010
0100
1000
0100
1000
0200
0300
,
1000
0000
0100
1000
0100
0000
0100
0000
0010
0000
0001
0000
0100
0001
0010
0000
,
0100
0010
0100
0000
1000
0100
1000
0000
0100
0010
0100
0000
0001
0000
0100
0000
,
0010
0100
0110
0000
0000
0000
0000
0000
;

//--------------- dance-single - Wrland ----------------
#NOTES:
     dance-single:
     Wrland:
     Hard:
     13:
     0,0,0,0,0:
0000
0000
0000
0000
,
0000
0000
0000
0000
,
0000
0000
0000
0000
,
0000
0000
0000
0000
,
0000
0000
0000
0000
,
0001
1000
0001
1000
0001
1000
0001
1000
,
0002
0003
1001
0100
,
0010
0000
0001
0000
0100
0000
0010
0002
0000
0003
0100
0000
0100
0000
0010
0000
,
0001
0100
0001
0100
0020
0030
0100
0010
,
0001
0000
0000
0000
0100
0000
0010
0000
0001
0000
0100
0000
0010
0000
0100
0020
,
0000
0030
0001
0000
0100
0000
0010
0000
0200
0000
0300
0000
1000
0000
0100
0000
,
1000
0000
0000
0000
0100
0001
0000
0100
0000
0000
0100
0000
0010
0001
0000
1100
,
0000
0000
0100
0000
0010
0000
0001
0000
0100
0000
0010
0000
0100
0010
1000
0000
,
0100
0000
0010
0000
0001
0000
0100
0000
0001
0100
0001
0000
0100
0000
0010
0000
,
0100
0000
0000
0010
0000
0000
0100
0000
0000
0000
0000
0000
0010
0000
0000
0000
0000
0000
0100
0000
0000
0000
0000
0000
1000
0000
0000
0000
0100
0000
0000
0000
0010
0000
0000
0000
0001
0000
0000
0000
0010
0000
0000
0000
0100
0000
0000
0000
,
1001
0000
0000
0000
0100
0010
0001
0100
,
0010
0000
0100
0000
1000
0000
0100
0000
0020
0000
0000
0030
0001
0000
0100
0001
,
0010
0000
0100
0000
1000
0000
0100
0000
2000
0000
3000
0000
1000
0010
0000
0200
,
0000
0300
0010
0000
0001
0000
0100
0000
0020
0000
0030
0000
0001
0000
0100
0000
,
0010
0100
1000
0100
0020
0030
0001
0100
,
0001
0100
0001
0000
0100
0000
0010
0000
0200
0000
0300
0000
1000
0000
0100
1000
,
0100
0000
0010
0000
0100
0000
0010
0000
0001
0000
0100
0000
0010
0100
0001
0000
,
0010
0000
0100
0000
1000
0000
0100
0000
0020
0000
0030
0000
0001
0000
0100
0001
,
0100
0010
0100
1000
0100
0010
0001
0100
,
0010
0001
0100
0000
1000
0000
0100
0000
0020
0000
0030
0000
0001
0000
0100
0001
,
0100
0010
0100
1000
0100
0010
0001
0100
,
0010
0100
0001
0000
0100
0000
0010
0000
0200
0000
0300
0000
1000
0000
0100
1000
,
0100
0100
0010
0001
0100
0010
0001
0100
,
0110
0000
1001
0000
0110
0000
1001
0000
0020
0000
0030
0000
0100
0000
1000
0100
,
1000
0100
0010
0001
0100
0010
0001
0100
,
0010
0000
0001
0000
0100
0000
0010
0000
0200
0000
0000
0300
0010
0000
0001
0100
,
0001
0000
0000
0000
1000
0100
1000
0100
,
0010
0000
0001
0000
0100
0000
0001
0000
0100
0001
0100
0000
0010
0000
0100
0000
,
1000
0100
0010
0001
0100
0010
0001
0100
,
0010
0000
0100
0000
0010
0000
0001
0000
0100
0000
0000
0000
0010
0000
0100
0010
,
0100
0010
0001
0100
0010
0100
1000
0100
,
0010
0000
0001
0000
0100
0000
0010
0000
0100
0000
0000
0000
0010
0000
0001
0100
,
0001
0100
0010
0100
1001
0100
1010
0001
,
0101
0000
0010
0000
1010
0001
0100
0000
0020
0000
1030
0100
0001
0000
0100
0000
,
1001
0000
0110
0000
0001
0100
0010
0100
,
0010
0000
0001
0000
0100
0001
0100
0000
0010
0000
0100
0000
1000
0000
0100
1000
,
0100
0000
0100
0000
0010
0000
0001
0000
0200
0000
0000
0000
0320
0000
0001
0100
,
0130
0000
0100
0000
0010
0000
0001
0100
0001
0000
0100
0000
0010
0000
0100
0000
,
1000
0000
0100
0000
0010
0000
0001
0000
0100
0000
0010
0000
0100
0010
1000
0000
,
0200
0000
0000
0300
1000
0000
0100
0000
0010
0000
0001
0000
0100
0000
0001
0000
,
0100
0010
0100
0000
0100
0000
1000
0000
0100
0000
0010
0000
0100
0000
0010
0000
,
0001
0100
0010
0000
0100
0000
0010
0100
0010
0000
0001
0000
0100
0001
0010
1000
,
0200
0000
0300
0010
0000
0000
0100
0010
0001
0000
0010
0000
0100
0000
1000
0000
,
0200
0000
0000
0300
1000
0000
0100
1000
0100
0000
0100
0000
0010
0000
0001
0000
,
0100
0000
0001
0010
0100
0000
0010
0000
0020
0000
0000
0000
0130
0000
0010
0000
,
0100
0000
1000
0100
1000
0000
0100
0000
0010
0000
0001
0000
0100
0000
0010
0000
,
0001
0000
0100
0000
0010
0000
0001
0000
0100
0000
0001
0000
0100
0001
0100
0000
,
0010
0000
0100
0000
1000
0000
0100
0000
0010
0000
0001
0000
0100
0001
0010
0000
,
0100
0010
1000
0000
0100
1000
0010
0000
0001
0010
0100
0000
0010
0000
0001
0000
,
0100
0000
0010
0100
0001
0000
0010
0000
0100
0000
0010
0000
0001
0000
0100
0000
,
0010
0000
0100
0000
1000
0000
0100
0000
0010
0000
0001
0000
0200
0000
0000
0300
,
0010
0000
0001
0000
0100
0000
0010
0000
0100
0000
1000
0000
0200
0000
0000
0300
,
1000
0100
0010
0000
0001
0000
0100
0000
0010
0000
0100
0000
2000
0000
0000
3000
,
0100
0000
1000
0000
0100
0000
0010
0000
0001
0000
0100
0000
0020
0000
0000
0030
,
0100
0000
0010
0000
0001
0000
0100
0000
0010
0000
0100
0000
0010
0001
0100
0000
,
0001
0000
0100
0001
0100
0000
0010
0000
0100
0000
0010
0000
0001
0000
0100
0000
,
0010
0000
0100
0000
1000
0000
0100
0000
1000
0000
0100
0000
0020
0000
0000
0030
,
0001
0000
0100
0001
0100
0000
0010
0000
0100
0000
1000
0000
0200
0000
0000
0300
,
0010
0000
0001
0000
0100
0000
0010
0000
0100
0100
1000
0010
0100
0000
0010
0000
,
0100
0000
0010
0000
0001
0000
0100
0000
0010
0000
0100
0000
1000
0010
0100
0000
,
0010
0000
0001
0000
0100
1000
0010
0000
0001
0000
0100
0000
0020
0000
0000
0030
,
0100
0000
0010
0100
0010
0000
0001
0000
0100
0000
0010
0000
0100
0000
1000
0000
,
0100
0000
1000
0000
0100
0000
0010
0000
0001
0010
0100
0000
0001
0100
0001
0000
,
0010
0001
0100
0000
1000
0010
0100
0000
0010
0000
0001
0000
0100
0001
0100
0000
,
0010
0100
0010
0000
1000
0100
1000
0000
0100
0010
0100
0000
0010
0000
0100
0000
,
0010
0001
1001
0000
0000
0000
0000
0000
;

//--------------- dance-single - QUIERES JUGAR CONMIGO? ----------------
#NOTES:
     dance-single:
     QUIERES JUGAR CONMIGO?:
     Challenge:
     16:
     0,0,0,0,0:
0000
0000
0000
0000
,
0000
0000
0000
0000
,
0000
0000
0000
0000
,
0000
0000
0000
0000
,
0000
0000
0000
0000
,
0001
0000
1000
0000
0100
0000
0010
0000
0100
0000
0010
0000
0001
0010
0100
1000
,
0110
0000
0000
1000
1001
0000
0100
0010
,
0001
0000
0100
0000
0001
0100
1000
0010
0002
0003
0100
0000
1000
0000
0100
0000
,
0010
0000
0001
0000
0100
0000
0001
0100
0002
0000
1003
0000
0010
0000
0100
0010
,
0200
0000
0300
0000
1000
0000
0100
0000
0010
0000
0001
0000
0100
0000
0001
0200
,
0000
0300
0010
0000
0100
0010
1000
0001
0200
0000
0310
0000
0100
0010
0100
0010
,
0002
0000
0003
0000
0100
1000
0000
0100
0001
0000
0100
0000
0010
0100
0000
0010
,
1000
0000
0001
0000
0100
0010
0100
0000
1000
0000
0100
0000
1000
0010
0100
0000
,
0010
0000
0001
0000
0100
1000
0001
0100
0001
0000
0100
0000
0010
0100
0010
0100
,
1000
0000
0000
0100
0000
0000
0010
0000
0000
0001
0000
0000
0101
0000
1010
0000
0101
0000
1010
0000
0011
0000
0110
0000
,
1001
0000
0000
0000
0200
0300
0020
0030
0001
0000
0100
0000
0001
0100
0001
1000
,
0010
0100
0010
0001
0200
0010
0320
1000
,
0130
0000
1000
0000
0100
0001
1000
0010
0100
0000
0010
0000
0001
0010
0000
0100
,
0010
0000
0001
0000
0100
0010
0010
0100
2000
0000
0010
0000
3020
0100
0001
1000
,
0032
0000
0100
0000
0013
1000
0100
0010
2000
0000
3100
0000
0020
0000
0130
0000
,
2000
0010
3100
0000
0020
0100
0031
0000
0200
0010
0001
0010
0320
0000
0100
1000
,
0130
0000
0100
0000
0010
1000
0001
0010
0100
0000
0010
0001
0100
0000
1000
0010
,
0100
0000
0010
1000
0001
0000
0100
0000
0020
0000
0100
1000
0230
0000
0010
0000
,
1300
0000
0010
0000
0001
1000
0100
0000
1000
0000
0100
0000
1000
0010
0100
0000
,
0010
0000
0001
0000
0100
0010
0100
0000
0200
0000
0001
1000
0320
0000
1000
0000
,
0031
0100
0100
0000
0010
0001
0100
0010
2000
0000
3100
0000
0020
0000
0031
0000
,
0200
0000
0310
0000
0200
0001
1300
0010
0200
0000
0001
0000
0310
0000
0010
0100
,
0010
0000
0001
0010
0100
0001
0020
0000
0130
1000
0020
0000
0130
1000
0010
0100
,
0110
0000
0110
0000
1001
0000
1001
0000
0100
0010
0010
0100
0001
0000
0100
0000
,
0010
0001
0100
0010
1000
0000
0100
0000
0020
0000
0031
0000
0200
0000
0310
0000
,
0002
0000
0103
0000
0010
0001
0100
0000
2000
0000
0000
0000
3100
0000
0010
0100
,
0010
0001
1000
0001
0110
0000
0100
0000
0001
0010
0010
0000
0100
0010
1000
0000
,
0100
0001
0010
0000
0001
0000
0100
0000
0010
0100
0001
0000
0100
0010
0100
0000
,
0010
0000
0100
0001
0010
0000
0001
0000
0100
0001
0010
0010
0100
0100
1000
0100
,
0100
0000
0010
1000
0001
0000
0100
0000
0010
0100
0001
0010
0100
0000
0010
0000
,
0100
0001
0010
0100
0001
0010
0100
0000
0010
0000
1000
0010
0100
0001
0010
1000
,
0001
0000
0100
0000
0010
0000
0001
0000
0100
0001
0010
0100
1000
0001
0100
1000
,
0020
0000
0000
0001
0000
0000
0230
0000
0000
0310
0000
0000
1001
0000
1001
0000
1001
0000
0101
0000
0101
0000
0101
0000
,
0110
0000
0000
0000
0110
0000
0000
0000
0110
0000
0000
0000
1001
0000
0000
0000
1001
0000
0000
0000
1001
0000
0000
0000
0100
0000
0000
0010
0000
0000
0010
0000
0000
0100
0000
0000
0001
0000
0000
0000
0000
0000
0100
0000
0000
0000
0000
0000
,
0110
0000
0000
0000
1001
0000
0100
0001
0020
0000
1030
0000
0100
0000
0010
0000
,
0001
0010
0100
0001
0010
0000
0100
0000
0002
0100
1000
0100
2003
0000
3100
0000
,
0100
0000
0000
0010
0000
0000
0100
0000
0000
0010
0000
0000
0100
0000
0000
0000
0010
0000
0000
0000
0100
0000
0000
0000
0002
0000
0000
0000
0000
0000
0000
0000
0000
1000
0000
0000
0203
0000
0000
0001
0000
0000
0010
0000
0000
0001
0000
0000
,
0310
0001
0100
0010
0010
0000
0001
0000
0100
0010
0010
0001
0100
0000
1000
0010
,
0100
0000
1000
0000
0100
1000
0010
0000
0001
0000
0100
0000
0010
0100
1000
0001
,
0020
0000
0130
0000
0002
0000
0103
0000
0200
0000
0310
0001
0002
1000
0103
0010
,
2000
3100
0020
0031
0200
0310
0002
0103
,
0010
0001
0010
0001
0100
0001
1000
0100
0010
0000
0100
0010
0100
0001
0100
0001
,
0020
0000
1030
0000
0010
0000
0100
0010
0100
0000
0010
0000
0001
0000
1000
0010
,
0200
0000
0301
0000
1000
0000
0100
0010
1000
0000
0100
0000
0100
0000
0010
1000
,
0002
0000
0013
0000
0100
0000
0010
0001
2000
0100
0010
0001
3100
0010
0101
0000
,
0001
0100
1001
0000
0100
0010
1001
0000
0100
0001
0010
0100
1001
0000
0100
0000
,
0010
0000
0001
0000
0100
0000
0010
0000
0001
1000
0100
0001
0020
0000
0100
0000
,
0031
1000
0100
0010
0001
0000
0100
0001
0010
0001
0100
0010
1000
0100
0100
0000
,
0010
0010
0001
0000
0100
0010
0010
0000
0001
0010
0100
0001
0020
0000
0100
0000
,
1000
0000
0100
0000
2030
0100
0010
0001
3100
0001
0010
1000
0100
0000
0010
0000
,
0001
0010
0100
0001
0010
0000
0100
0000
1000
0001
0100
0010
2000
0000
0010
0000
,
3200
0001
1000
0010
0001
0000
0310
0000
0001
0010
0100
0001
0020
0000
0100
0000
,
1030
0001
0100
0000
0010
0001
0100
0010
1000
0000
0100
0000
0020
0000
0100
0000
,
0032
0010
0100
1000
0013
0000
0100
0000
1000
0010
0100
0001
0020
0000
0130
0000
,
0002
0000
0103
0000
2000
0000
3100
0000
0020
0001
0130
0000
0020
1000
0100
0001
,
0230
0001
1000
0010
1000
0000
0310
0000
0002
0010
0103
1000
0020
0000
0130
0000
,
2000
0000
3100
0000
0020
0000
0031
0000
0200
0000
0310
0000
0002
1000
0100
1000
,
0203
0000
0001
0010
0311
0000
0100
0000
1010
0000
0100
0001
0010
0000
0100
0000
,
0001
0010
0100
0001
0010
0000
0001
0000
0100
0001
0020
0001
0230
0000
0001
0010
,
2300
0000
0010
0001
3200
0000
0010
0010
0302
0000
0100
0010
0013
0100
0001
0000
,
0100
0001
0010
0000
0100
0010
1000
0000
0100
0001
0010
0100
0002
0000
0013
0000
,
0200
0000
0310
0000
0002
0000
0100
0010
0103
0000
1000
0010
0200
0000
0310
0000
,
2000
0000
3100
0000
0020
0000
0031
0000
0200
0000
0310
0000
0200
0001
0010
0000
,
2300
0000
0010
0001
3100
0000
0010
0000
0001
0010
0100
1000
0011
0000
0001
0000
,
1100
0001
0010
0000
1001
0010
0100
0000
0011
0100
0001
0000
2000
0000
0100
0010
,
3102
0013
1MM1
0000
0000
0000
0000
0000
;
