#TITLE:신선놀음;
#SUBTITLE:;
#ARTIST:스트레이 키즈;
#TITLETRANSLIT:DIVINE;
#SUBTITLETRANSLIT:;
#ARTISTTRANSLIT:Stray Kids;
#GENRE:K-Pop;
#CREDIT:JYP;
#MUSIC:DIVINE.ogg;
#BANNER:DIVINE.png;
#BACKGROUND:BG.png;
#CDTITLE:Korean.png;
#SAMPLESTART:61.130;
#SAMPLELENGTH:15.000;
#SELECTABLE:YES;
#OFFSET:0.000;
#BPMS:0.000=99.000
,21.000=198.000
,341.000=99.000
,343.000=198.000
;
#STOPS:0.000=0.032
,277.000=2.121
,292.000=0.152
,292.500=0.152
;
#DISPLAYBPM:198.000;
#JACKET:DIVINE-jacket.png;
#DISCIMAGE:;
#CDIMAGE:;
#TAGS:DMCA;
#BGCHANGES:0.000=DIVINE.avi=0.000=0=0=0=StretchNoLoop====,
99999=-nosongbg-=1.000=0=0=0 // don't automatically add -songbackground-
;
#FGCHANGES:;

//--------------- dance-single - Wrland ----------------
#NOTES:
     dance-single:
     Wrland:
     Beginner:
     4:
     0,0,0,0,0:
0000
0000
0000
0000
,
0000
0000
0000
0000
,
0000
0000
0000
0000
,
0000
0000
0000
0000
,
0000
0000
0000
0000
,
0000
0001
0000
0000
,
0000
0010
0000
0000
,
0000
0100
0000
0000
,
0000
0100
0000
0000
,
0000
0010
0000
0000
,
0000
0001
0000
0000
,
0000
0100
0000
0000
,
0000
1000
0000
0000
,
0000
0100
0000
0000
,
0000
0010
0000
0000
,
0000
0100
0000
0000
,
0000
0001
0000
0000
,
0000
0100
0000
0000
,
0000
0001
0000
0000
,
0000
0100
0000
0000
,
0000
0000
0000
0000
,
0000
0100
0000
0000
,
0000
0100
0000
0000
,
0000
0010
0000
0000
,
0000
0001
0000
0000
,
0000
0100
0000
0000
,
0000
0001
0000
0000
,
0000
0100
0000
0000
,
0000
1000
0000
0000
,
0000
0100
0000
0000
,
0000
0001
0000
0000
,
0000
0100
0000
0000
,
0000
0010
0000
0000
,
0000
1000
0000
0000
,
0000
0010
0000
0000
,
0000
0010
0000
0000
,
0000
0010
0000
0000
,
0000
0020
0000
0000
,
0000
0000
0000
0000
,
0030
2000
0000
0000
,
0000
0000
0000
0000
,
3000
0200
0000
0000
,
0000
0000
0000
0000
,
0300
0020
0000
0000
,
0000
0000
0000
0000
0000
0030
0000
0000
,
0000
0110
0000
0000
,
0000
0000
0000
0110
,
0000
1001
0000
0000
,
0000
0000
0000
0000
,
0000
1100
0000
0000
,
0000
0000
0000
1100
,
0000
0110
0000
0000
,
0000
0000
0000
0000
,
0000
0010
0000
0000
,
0000
0100
0000
0000
,
0000
0001
0000
0000
,
0000
0100
0000
0000
,
0000
1000
0000
0000
,
0000
0100
0000
0000
,
0000
0100
0000
0000
,
0000
0010
0000
0000
,
0000
0010
0000
0000
,
0000
0001
0000
0000
,
0000
0100
0000
0000
,
0000
0100
0000
0000
,
0000
0010
0000
0000
,
0000
0010
0000
0000
,
0000
0100
0000
0000
,
0000
0001
0000
0000
,
0000
0000
0200
0000
,
0000
0000
0000
0000
,
0000
0300
0000
0000
,
0000
0000
0000
0000
,
0000
0010
0000
0000
,
0000
0010
0000
0000
,
0000
0100
0000
0000
,
0000
0100
0000
0000
,
0000
0010
0000
0000
,
0000
1000
0000
0000
,
0000
1100
0000
0000
,
0000
0000
0000
1100
,
0000
0110
0000
0000
,
0000
0000
0000
0110
,
0000
0011
0000
0000
,
0000
0000
0000
0011
,
0000
0000
0000
0000
,
0000
0000
0000
1000
,
0000
0000
0000
1000
,
0000
0000
0000
0100
,
0000
0000
0000
0100
,
0000
0000
0000
0010
,
0000
0000
0000
0010
,
0000
0000
0000
0001
,
0000
0000
0000
0001
,
0000
0000
0000
0100
,
0000
0000
0000
0100
,
0000
0000
0000
0001
,
0000
0000
0000
0001
,
0000
0000
0000
0010
,
0000
0000
0000
1000
,
0000
0000
0000
0200
,
0000
0000
0000
0000
,
0000
0000
0300
0000
;

//--------------- dance-single - Wrland ----------------
#NOTES:
     dance-single:
     Wrland:
     Easy:
     7:
     0,0,0,0,0:
0000
0000
0000
0000
,
0000
0000
0000
0000
,
0000
0000
0000
0000
,
0000
0000
0000
0000
,
0000
0000
0000
0000
,
0000
0001
0000
0100
,
0000
0010
0100
0010
,
0000
0100
0000
1000
,
0000
0100
1000
0100
,
0000
0100
0000
0010
,
0000
0001
0100
0001
,
0000
0100
0000
0010
,
0000
0100
0010
0001
,
0000
0100
0000
1000
,
0000
0100
1000
0100
,
0000
0100
0000
0010
,
0000
0001
0100
0001
,
0000
0100
0000
0010
,
0000
0001
0100
0010
,
0000
0100
0000
1000
,
0000
0000
0000
0000
,
0000
0100
0000
1000
,
0000
0100
1000
0100
,
0000
0100
0000
0010
,
0000
0001
0100
0001
,
0000
0100
0000
0010
,
0000
0001
0100
0010
,
0000
0100
0000
1000
,
0000
0100
1000
0100
,
0000
0100
0000
0010
,
0000
0001
0100
0001
,
0000
0100
0000
0010
,
0000
0100
1000
0100
,
0000
1000
0000
0100
,
0000
0010
0001
0100
,
0000
0010
0000
0100
,
0000
0010
0001
0100
,
0000
0020
0000
0000
,
0000
0000
0000
0000
,
0030
2000
0000
0000
,
0000
0000
0000
0000
,
3000
0200
0000
0000
,
0000
0000
0000
0000
,
0300
0020
0000
0000
,
0000
0000
0000
0000
0000
0030
0000
0000
,
0000
0110
0000
0110
,
0000
0110
0000
0110
,
0000
1001
0000
0000
,
0000
0000
0000
0000
,
0000
1100
0000
1100
,
0000
1100
0000
1100
,
0000
0110
0000
0000
,
0000
0000
0000
0000
,
0000
0010
0000
0010
,
0000
0100
0010
0000
,
0000
0001
0000
0001
,
0000
0001
0100
0000
,
0000
1000
0000
1000
,
0000
1000
0100
0000
,
0000
0000
0100
0000
0010
0100
0000
0000
,
0000
0000
0010
0000
0001
0100
0000
0000
,
0000
0010
0000
0010
,
0000
0001
0100
0000
,
0000
0100
0000
1000
,
0000
0100
1000
0000
,
0000
0100
0000
0100
,
0000
0010
0100
0000
,
0000
0010
0000
0001
,
0000
0100
0010
0000
,
0000
0000
0100
0000
,
0100
0000
0010
0100
,
0000
0000
0000
0000
,
0000
0000
0000
0000
,
0000
0010
0000
0100
,
0000
0010
0100
0000
,
0000
0010
0000
0001
,
0000
0100
0001
0100
,
0000
0010
0000
0100
,
0000
1000
0100
1000
,
0000
1100
0000
1100
,
0000
1100
0000
0000
,
0000
0110
0000
0110
,
0000
0110
0000
0000
,
0000
0011
0000
0011
,
0000
0011
0000
0000
,
0000
0000
0000
0000
,
0000
0000
0000
1000
,
0000
0001
0000
1000
,
0001
1000
0000
0100
,
0000
1000
0000
0100
,
1000
0100
0000
0100
,
0000
0010
0000
0100
,
0010
0100
0000
0001
,
0000
0100
0000
0001
,
0100
0001
0000
0100
,
0000
0010
0000
0100
,
0010
0100
0000
0001
,
0000
0100
0000
0001
,
0100
0001
0000
0010
,
0000
0100
0000
1000
,
0100
1000
0000
0200
,
0000
0000
0000
0000
,
0000
0000
0300
0110
;

//--------------- dance-single - Wrland ----------------
#NOTES:
     dance-single:
     Wrland:
     Medium:
     10:
     0,0,0,0,0:
0000
0000
0000
0000
,
0000
0000
0000
0000
,
0000
0000
0000
0000
,
0000
0000
0000
0000
,
0000
0000
0000
0000
,
0000
0001
2000
0000
,
3000
0000
0100
0000
1000
0100
1000
0000
,
0100
0000
0010
0000
0001
0100
0010
0000
,
0100
0010
0000
0001
0000
0100
0000
0010
,
0000
0100
0020
0000
0000
0000
0000
0000
,
0000
0000
0030
0100
,
0110
0000
0001
0100
,
0010
0100
0000
1000
0000
0100
0000
1000
,
0100
2000
0000
0000
,
0000
0000
0000
0000
,
3000
0000
0001
0000
1000
0000
0001
1000
,
0000
0001
0000
0100
0000
0010
0000
0100
,
0000
0010
0001
0000
0200
0000
0000
0000
,
0300
0000
0100
0000
1000
0100
1000
0000
,
0100
0000
0010
0000
0001
0100
0010
0000
,
0100
0001
0000
0100
0020
0000
0000
0000
,
0000
0000
0130
0000
1000
0100
0000
0010
,
0000
0100
0010
0000
0100
0010
0000
0001
,
1000
0000
0010
0000
0100
0010
0100
0000
,
0001
0100
0001
0000
0100
0020
0000
0000
,
0030
0000
0100
0000
0010
0001
0100
0000
,
0010
0000
0100
0000
1000
0100
1000
0000
,
0100
0000
0010
0000
0001
0100
0010
0000
,
0100
0000
0010
0000
0001
0100
0002
0000
,
0000
0003
0100
0000
0010
0100
0010
0000
,
0001
0000
0100
0000
0010
0100
1000
0000
,
0100
0000
0010
0000
0001
0100
0001
0000
,
0100
0000
0010
0000
0100
0010
0000
0100
,
0000
1000
0100
0000
1000
0000
0100
0000
,
0010
0001
0100
0000
0010
0000
0001
0000
,
0100
0000
0010
0000
0100
0010
0000
0001
,
1000
0000
0001
0100
0000
0010
0100
0000
,
0010
0002
0000
1000
,
1000
1000
0000
0003
,
0000
2000
0000
0001
,
0001
0001
0000
3000
,
0000
0000
0200
0000
0000
0000
0000
0010
,
0000
0010
0000
0010
0000
0000
0300
0000
,
0000
0000
0001
1000
0000
0010
0100
0000
,
0110
0000
0000
0010
0000
0100
0010
0000
,
0000
0100
0000
0110
,
0000
0010
0000
0110
,
0000
0000
0100
0000
1000
0200
0000
0000
,
0300
0000
0100
0000
0010
0002
0000
0000
,
0003
0101
0000
1010
,
0000
0101
0000
1010
,
0000
0000
0100
0000
0010
0002
0000
0000
,
0003
0000
0100
0000
1000
0200
0000
0000
,
0000
0000
0300
0000
0100
1000
0100
0000
,
1000
0000
0100
0010
0200
0000
0000
0000
,
0300
0000
0100
0000
0010
0001
0100
0000
,
0010
0000
0001
0100
0002
0000
0000
0000
,
0003
0000
0100
0000
0010
0100
0010
0000
,
0001
0000
0100
0010
0200
0000
0000
0300
,
0000
0100
1000
0000
0100
2000
0000
0000
,
3000
0100
0010
0000
0001
0200
0000
0000
,
0000
0310
0000
0010
,
0001
1000
0100
0000
0010
0100
0010
0000
,
0001
0000
0100
0000
0010
0100
0010
0000
,
0001
0000
0100
0000
0001
0100
0002
0000
,
0000
0103
0000
0010
,
0100
0010
0010
0000
0001
0000
0100
0000
,
0010
0100
0010
0000
0001
0000
0100
0000
,
0010
0100
1000
0000
0100
0000
0020
0000
,
0000
0000
0000
0030
0100
0000
0010
0100
,
0010
0000
0001
0000
0100
0000
0010
0100
,
0010
0000
0100
0000
1000
0000
0001
1000
,
0001
0000
1000
0000
0001
1000
0001
0000
,
0000
0000
0100
0000
1000
0100
1000
0000
,
0100
0000
0010
0100
0020
0000
0000
0000
,
0030
0000
0100
0000
0010
0001
0100
0000
,
0010
0000
0100
0010
0200
0000
0000
0300
,
0000
0010
0100
0000
0010
0002
0000
0000
,
0003
0100
0010
0000
0100
2000
0000
0000
,
3000
1100
0000
0110
,
0000
1100
0000
0110
,
0000
0101
0000
1100
,
0000
0110
0000
1001
,
0000
1100
0000
0110
,
0000
0011
0000
0110
,
0000
0000
0000
0000
0000
0000
0000
0000
0000
0000
0000
1000
0001
0000
0000
0000
,
0100
0010
0000
0100
0000
0010
0002
0000
,
0000
0003
0100
0000
0010
0000
0001
0000
,
0100
0010
0100
0000
1000
0000
0100
0000
,
0010
0100
0000
0010
0000
0001
0100
0000
,
0010
0100
0000
1000
0000
0100
1000
0000
,
0100
0000
0010
0100
0000
0010
0000
0100
,
0000
0010
0000
0001
0100
0001
0010
0000
,
0100
0010
0000
0100
0000
1000
0100
0000
,
1000
0100
0000
0010
0000
0001
0100
0000
,
0010
0000
0100
0000
0010
0100
0010
0000
,
0001
0000
0100
0010
0100
0000
0010
0000
,
0100
0000
0010
0000
0001
0100
0001
0000
,
0100
0010
0000
0100
0000
1000
0100
0000
,
1000
0000
0100
0000
0010
0100
0010
0000
,
0001
0000
0100
0000
0010
0100
0020
0000
,
0000
0000
0000
0000
,
0000
0000
0000
0130
;

//--------------- dance-single - Wrland ----------------
#NOTES:
     dance-single:
     Wrland:
     Hard:
     12:
     0,0,0,0,0:
0000
0000
0000
0000
,
0000
0000
0000
0000
,
0000
0000
0000
0000
,
0000
0000
0000
0000
,
0000
0000
0000
0000
,
0000
0100
0020
0000
,
0030
0000
0100
0000
1000
0100
1000
0000
,
0100
0000
0010
0000
0001
0100
0002
0003
,
0100
0020
0030
0200
0300
2000
3000
0200
,
0300
1000
0200
0000
0000
0300
0010
0000
,
0001
0000
0010
0000
0001
0010
0010
0000
,
0001
0000
0010
0000
0100
0010
2000
3000
,
0100
2000
3000
0200
0300
0020
0030
0002
,
0003
0100
0020
0000
0000
0000
0000
0000
,
0030
0000
0100
0000
1000
0100
1000
0000
,
0100
0000
0000
0000
0010
0000
0000
0000
0001
0000
0000
0000
0100
0000
0000
0010
,
0000
0200
0000
0300
0010
0200
0300
0010
,
0000
0001
0200
0000
0000
0300
0010
0000
,
0001
0000
0010
0000
0001
0010
0100
0000
,
1000
0000
0100
0000
1000
0100
1000
0000
,
0100
0010
0002
0000
,
0000
0000
1003
0000
0100
0020
0030
0001
,
0000
0100
0020
0030
0100
2000
3000
0100
,
0020
0030
0002
0003
0100
0010
0002
0003
,
0100
0010
2000
3000
0100
1000
0200
0000
,
0000
0000
0310
0000
0001
0100
0020
0030
,
0100
0000
1000
0000
0100
1000
0200
0300
,
0010
0000
0001
1000
0200
0300
0010
0001
,
1000
0000
0100
0000
0010
0000
0001
0000
0100
0000
0010
0000
0200
0000
0000
0001
,
0000
0001
0310
0000
0001
0000
0010
0200
,
0300
0010
0002
0003
0100
0020
0030
0200
,
0300
1000
0100
0000
2000
3000
0100
2000
,
3000
0100
2000
3000
0100
0020
0030
0001
,
0000
0100
0010
0000
0200
0300
0001
0020
,
0030
0001
0200
0300
0010
0020
0030
1000
,
0000
0100
2000
3000
0100
0020
0030
0001
,
0020
0030
0100
1000
0001
0100
1000
0100
,
0010
0001
0200
0300
0010
0200
0300
0020
,
0030
0002
0003
0200
0300
0020
0130
0000
,
0000
0000
0000
0000
0010
0002
0003
0200
,
0300
0020
0030
0200
0300
2000
3100
0000
,
0000
0000
0000
0000
0100
0020
0030
0002
,
0003
0200
0300
0020
0030
0200
1300
0000
,
0000
0000
0001
1000
0000
0001
1000
0000
,
0002
0000
0000
1003
0000
1000
0001
0000
,
0000
1100
0000
0110
,
0000
1100
0000
0110
,
0001
0100
0020
0030
0100
0020
0000
0030
,
0000
0100
0020
0030
0001
0200
0000
0000
,
0300
0011
0000
0110
,
0000
1100
0000
0110
,
0000
0001
0200
0300
0010
0200
0000
0300
,
0000
1000
0200
0300
1000
0200
0000
0000
,
0300
0000
0100
0000
0010
0001
0100
0000
,
0010
0000
0100
0010
0100
0000
0110
0000
,
0000
0000
0001
0000
0100
0001
0100
0000
,
0010
0000
0100
1000
0100
0000
1100
0000
,
0000
0000
0100
0000
0010
0001
0100
0000
,
0010
0000
0100
0010
0200
0000
0300
0000
,
0001
0100
0002
0003
0100
0020
0030
0100
,
0000
1000
0200
0300
1000
0200
0300
0010
,
0100
0010
0002
0000
0103
0000
0010
0000
,
0001
0100
0001
0000
0100
0000
0010
0000
,
0100
0010
0100
0000
1000
0000
0100
0000
,
1000
0100
1000
0000
0100
0000
0010
0000
,
0001
0100
0002
0000
0003
0000
0100
0000
,
1000
0100
1000
0000
0100
0000
0010
0000
,
0001
0100
0001
0000
0100
0000
0010
0000
,
0100
1000
0100
0000
0010
0000
0002
0000
,
0000
0000
0000
0003
1000
0000
0001
1000
,
0001
0000
0100
1000
0100
0000
0010
0001
,
0100
0010
0001
0001
,
0001
0000
0001
0000
0001
1000
0001
0000
,
1000
1000
0001
0000
1000
0001
1000
0000
,
0100
0000
1000
0100
2000
3000
1100
0000
,
0000
0000
0100
0000
0010
0001
0100
0000
,
0010
0000
0001
0100
0002
0003
0101
0000
,
0000
0010
0200
0300
0010
0002
0003
0100
,
0000
1000
0200
0300
1000
0200
0300
0010
,
0000
0001
0101
0000
0000
0000
1100
0000
,
0000
0110
0000
0011
,
0001
0010
0101
0000
0000
0000
1100
0000
,
0000
0110
0000
1001
,
1000
0100
1100
0000
0000
0000
0110
0000
,
0000
0101
0000
1010
,
0000
0100
0020
0000
0000
0000
0130
0000
,
0010
0200
0300
0010
0000
0001
0200
0000
,
0000
0300
0010
0000
0100
0000
0010
0000
,
0001
0100
0001
0000
0100
0000
0010
0000
,
0100
2000
3000
0001
0000
1000
0200
0300
,
1000
0200
0300
0010
0000
0001
0100
0000
,
0010
0001
0100
2000
3000
0002
0003
0200
,
0300
0020
0030
0002
0003
0100
0020
0030
,
0100
2000
3000
0100
0000
0010
0002
0003
,
0100
0020
0030
0200
0300
1000
0200
0000
,
0310
0000
0100
0000
0010
0001
0200
0000
,
0310
0000
0100
1000
0100
1000
0002
0000
,
0103
0000
0010
0000
0100
0010
0200
0000
,
0310
0000
0001
0000
0100
0001
0200
0000
,
1300
0000
0100
0000
1000
0100
2000
0000
,
3100
0000
0010
0000
0001
0100
0020
0000
,
0000
0000
0000
0000
,
0030
0000
0000
0110
;

//--------------- dance-single - Wrland ----------------
#NOTES:
     dance-single:
     Wrland:
     Challenge:
     14:
     0,0,0,0,0:
0000
0000
0000
0000
,
0000
0000
0000
0000
,
0000
0000
0000
0000
,
0000
0000
0000
0000
,
0000
0000
0000
0000
,
0000
0101
0020
0130
,
0001
0010
0200
0000
1300
0000
0100
0000
,
1000
0100
1000
0000
0200
0300
0020
0030
,
0100
0020
0030
0002
0003
0200
0300
0010
,
0100
1000
0100
0000
0020
0000
0130
0000
,
0010
0001
0200
0000
0310
0000
0100
0000
,
1000
0100
1000
0000
0200
0300
0020
0030
,
0001
0200
0300
2000
3000
0200
0300
0010
,
0001
0100
0010
0000
0200
0000
0310
0000
,
0001
0100
0020
0000
0130
0000
1000
0000
,
0100
0000
0000
0000
1000
0000
0000
0000
0200
0000
0300
0000
1000
0000
0000
0100
,
0000
0020
0030
0100
0010
0200
0300
0010
,
1000
0010
0002
0003
0100
0010
0200
0000
,
0310
0000
0001
0000
0100
0010
0200
0000
,
1300
0000
0100
0000
1000
0100
2000
0000
,
3100
0000
0010
0000
0001
0100
0010
0010
,
0010
0000
0200
0300
1000
0200
0300
0020
,
0030
0001
0020
0030
0100
2000
3000
0100
,
0020
0030
0200
0300
0010
0100
0002
0003
,
0100
0000
0001
0000
0020
0000
0030
0000
0100
0000
0010
0000
1100
0000
0000
0101
,
0000
0110
2000
3000
0100
0010
0001
1000
,
0100
0000
0010
0000
0100
0000
0010
0000
0001
0000
0100
0000
0010
0000
0000
0001
,
0000
0100
0010
0001
0200
0300
0010
0100
,
0010
0000
0100
0000
0010
0000
0001
0000
0100
0000
1000
0000
0010
0000
0000
0001
,
0000
1000
0100
0000
0021
0000
0030
1200
,
0300
0010
0200
0300
0010
0002
0003
0100
,
0010
1000
0100
0010
1200
0000
0300
0021
,
0030
0001
0100
0001
0010
0100
1000
0020
,
0030
0001
0100
0000
0021
0000
0030
1200
,
0300
1000
0100
0010
1000
0200
0300
0010
,
0100
0001
0200
0300
0010
0200
0300
0010
,
0002
0003
0100
1000
0100
0010
0001
0100
,
0010
0000
0200
0300
0010
0200
0300
0020
,
0030
0002
0003
2000
3000
0100
0020
0000
,
0031
0000
0100
0000
0010
0200
0300
0002
,
0003
0200
0300
0020
0030
0100
2000
0000
,
3100
0000
0010
0000
0001
0200
0300
0020
,
0030
0200
0300
2000
3000
0100
2000
0000
,
3100
0000
0010
0100
0000
0100
0010
0000
,
0010
0000
0001
0100
0010
0100
0010
0000
,
0000
2001
3000
1200
,
0300
0120
0030
1001
,
1000
0100
0002
0003
1000
0002
0000
0103
,
0000
0010
0200
0300
0010
0002
0000
0103
,
0000
0010
2100
0000
3000
0000
0120
0000
,
0030
0012
0003
0110
,
0001
0010
2000
3000
0100
2000
0000
3100
,
0000
0010
0002
0003
0100
0020
0000
0130
,
0000
1000
0100
0000
1000
0100
0020
0030
,
0001
0000
0100
0010
0200
0000
0310
0000
,
0110
0000
0001
0000
0100
0010
0200
0300
,
1000
0000
0100
1000
0200
0000
1300
0000
,
0110
0000
0001
0000
0100
0001
0200
0300
,
0010
0000
0100
1000
0200
0000
0310
0000
,
0100
0010
0002
0003
0100
0020
0030
0100
,
0000
1000
0200
0300
1000
0100
0010
0001
,
0100
0010
0200
0000
0300
0000
0010
0000
,
0001
1000
0200
0300
0020
0030
0200
0300
,
0010
0001
0100
0010
0100
0010
0200
0300
,
0010
0001
0100
0010
0100
1000
0200
0000
,
0000
0000
0310
0000
0000
0000
0010
0100
,
0001
0010
0200
0300
0020
0030
0002
0003
,
0100
0010
0200
0300
2000
3000
0200
0300
,
1000
0100
0020
0030
0001
0000
0200
0000
,
0000
0000
0000
0300
0010
0000
0001
0100
,
0010
0000
0100
0000
1000
0000
0100
1000
,
0100
0000
0010
0000
0001
0000
0100
0010
,
0100
0000
1000
0000
0100
1000
0100
0000
,
1100
0110
0100
0000
0010
0001
0200
0000
,
0310
0000
0100
1000
0200
0300
0020
0000
,
0000
0000
0130
0000
1000
0100
2000
3000
,
0200
0300
0010
0001
0200
0300
0010
0001
,
0100
0010
2000
3000
0100
2000
3000
0100
,
0000
0010
0002
0003
0100
0020
0030
0100
,
0000
0010
1001
0000
0100
0010
1100
0000
,
0010
0001
0101
0000
0010
0100
0011
0000
,
0100
0010
1100
0000
0100
0010
0101
0000
,
0010
0100
1100
0000
0010
0001
0201
0000
,
0300
0000
1010
0000
0001
0100
0011
0000
,
0100
0010
0110
0000
1000
0100
1100
0000
,
0100
0000
0010
0000
0200
0000
0000
0000
0000
0000
0300
0010
0100
0000
0000
0000
,
0010
0100
0000
0010
0000
0001
0020
0000
,
0100
0000
1000
0000
0100
1000
0100
0000
,
0100
0000
1000
0000
0230
0010
0010
0000
,
0001
0000
1000
0000
0010
0001
0010
0000
,
0010
0010
0000
0001
0000
1000
0320
0000
,
0100
0000
1000
0001
0000
1000
0000
0100
,
0000
1000
0000
0001
0100
1000
0230
0000
,
0010
0001
0000
1000
0000
0001
1000
0000
,
0010
0001
0000
0010
0000
0010
0301
1000
,
0010
0000
0101
0000
0010
0100
0010
0000
,
0100
0000
1001
0100
1000
0100
0020
0030
,
0100
0000
0010
0000
0001
0100
0001
0000
,
0100
0010
0000
0100
0000
1000
0101
0000
,
1000
0000
0100
0001
0010
0100
0010
0000
,
0001
0000
0100
0000
0010
0100
0020
0000
,
0000
0000
0000
0000
,
0000
0000
0000
0130
;
