#VERSION:0.83;
#TITLE:CONDENA;
#SUBTITLE:;
#ARTIST:GONZA BOZZONI;
#TITLETRANSLIT:;
#SUBTITLETRANSLIT:;
#ARTISTTRANSLIT:;
#GENRE:Latin;
#CREDIT:BOZZONI;
#MUSIC:CONDENA.ogg;
#BANNER:CONDENA.png;
#BACKGROUND:CONDENA-bg.png;
#JACKET:CONDENA-jacket.png;
#DISCIMAGE:;
#CDIMAGE:;
#SELECTABLE:YES;
#LYRICSPATH:;
#CDTITLE:Popular Latin.png;
#SAMPLESTART:38.568;
#SAMPLELENGTH:15;
#OFFSET:0.003;
#BPMS:0.000000=140.000000;
#STOPS:92.000000=0.857000,
218.000000=0.857000,
284.000000=1.286000
;
#WARPS:;
#DELAYS:;
#SPEEDS:;
#SCROLLS:;
#TICKCOUNTS:;
#TIMESIGNATURES:;
#LABELS:;
#COMBOS:;
#FAKES:;
#BGCHANGES:;
#FGCHANGES:;
#ATTACKS:;
#TAGS:DMCA;
#DISPLAYBPM:140.000;

//---------------dance-single - Wrland---------------
#NOTEDATA:;
#CHARTNAME:;
#CHARTSTYLE:Pad;
#CREDIT:Wrland;
#STEPSTYPE:dance-single;
#DESCRIPTION:Wrland;
#DIFFICULTY:Beginner;
#METER:2;
#METERF:2;
#RADARVALUES:0,0,0,0,0;
#NOTES:
// measure 0
0000
0000
0000
0000
,  // measure 1
0000
0000
0000
0000
,  // measure 2
0000
0000
0000
0000
,  // measure 3
0000
0000
0000
0000
,  // measure 4
0000
0000
0000
0000
,  // measure 5
0000
0000
0000
0000
,  // measure 6
0000
0000
0000
0000
,  // measure 7
0000
0000
0000
0000
,  // measure 8
0100
0000
0000
0000
,  // measure 9
0100
0000
0000
0000
,  // measure 10
0001
0000
0000
0000
,  // measure 11
0001
0000
0000
0000
,  // measure 12
0100
0000
0000
0000
,  // measure 13
0100
0000
0000
0000
,  // measure 14
0010
0000
0000
0000
,  // measure 15
0100
0000
0000
0000
,  // measure 16
0001
0000
0010
0000
,  // measure 17
0100
0000
0100
0000
,  // measure 18
1000
0000
0100
0000
,  // measure 19
0100
0000
0010
0000
,  // measure 20
0100
0000
0010
0000
,  // measure 21
1000
0000
0100
0000
,  // measure 22
0001
0000
0100
0000
,  // measure 23
0000
0000
0010
0000
,  // measure 24
0001
0000
0000
0200
0000
0000
0300
0000
,  // measure 25
0000
0000
0010
0000
,  // measure 26
0100
0000
0000
2000
0000
0000
3000
0000
,  // measure 27
0000
0000
0100
0000
,  // measure 28
0000
0000
0001
0000
,  // measure 29
0000
0000
0010
0000
,  // measure 30
0000
0000
0000
0000
,  // measure 31
0000
0000
0100
0000
,  // measure 32
0000
0000
0001
0000
,  // measure 33
0000
0000
0010
0000
,  // measure 34
0000
0000
0100
0000
,  // measure 35
0000
0000
0100
0000
,  // measure 36
0000
0000
0001
0000
,  // measure 37
0000
0000
0010
0000
,  // measure 38
0000
0000
0000
0000
,  // measure 39
0000
0000
0100
0000
,  // measure 40
0000
0000
1000
0000
,  // measure 41
0000
0000
0010
0000
,  // measure 42
0000
0000
0100
0000
,  // measure 43
0000
0000
0001
0000
,  // measure 44
0000
0000
0010
0000
,  // measure 45
0000
0000
1000
0000
,  // measure 46
0000
0000
0010
0000
,  // measure 47
0000
0000
0010
0000
,  // measure 48
0100
0000
0010
0000
,  // measure 49
1000
0000
0100
0000
,  // measure 50
0010
0000
0010
0000
,  // measure 51
0100
0000
1000
0000
,  // measure 52
0010
0000
1000
0000
,  // measure 53
0001
0000
0100
0000
,  // measure 54
0010
0000
0000
0000
,  // measure 55
0100
0000
0000
0000
0010
0000
0000
0002
,  // measure 56
0000
0003
0000
0000
,  // measure 57
0100
0000
0000
0000
0010
0000
0000
2000
,  // measure 58
0000
3000
0000
0000
,  // measure 59
0100
0000
0000
0000
,  // measure 60
0001
0000
0000
0000
,  // measure 61
0010
0000
0000
0000
,  // measure 62
0000
0000
0000
0000
,  // measure 63
0100
0000
0000
0000
0010
0000
0000
0002
,  // measure 64
0000
0003
0000
0000
,  // measure 65
0100
0000
0000
0000
0010
0000
0000
0002
,  // measure 66
0000
0003
0000
0000
,  // measure 67
0100
0000
0000
0000
,  // measure 68
0100
0000
0000
0000
,  // measure 69
0100
0000
0000
0000
,  // measure 70
0100
0000
0020
0000
,  // measure 71
0030
0220
0000
0000
,  // measure 72
0000
0000
0000
0000
,  // measure 73
0000
0000
0000
0000
,  // measure 74
0330
0000
0000
0000
;

//---------------dance-single - Wrland---------------
#NOTEDATA:;
#CHARTNAME:;
#CHARTSTYLE:Pad;
#CREDIT:Wrland;
#STEPSTYPE:dance-single;
#DESCRIPTION:Wrland;
#DIFFICULTY:Easy;
#METER:4;
#METERF:4;
#RADARVALUES:0,0,0,0,0;
#NOTES:
// measure 0
0000
0000
0000
0000
,  // measure 1
0000
0000
0000
0000
,  // measure 2
0000
0000
0000
0000
,  // measure 3
0000
0000
0000
0000
,  // measure 4
0000
0000
0000
0000
,  // measure 5
0000
0000
0000
0000
,  // measure 6
0000
0000
0000
0000
,  // measure 7
0000
0000
0000
0000
,  // measure 8
0100
0000
0100
0000
,  // measure 9
0100
0000
0010
0000
,  // measure 10
0001
0000
0001
0000
,  // measure 11
0001
0000
1000
0000
,  // measure 12
0100
0000
1000
0000
,  // measure 13
0100
0000
0100
0000
,  // measure 14
0010
0000
0001
0000
,  // measure 15
0100
0000
0010
0000
,  // measure 16
0001
0100
0001
0000
,  // measure 17
0100
0010
0100
0000
,  // measure 18
1000
0100
1000
0000
,  // measure 19
0100
0010
0001
0000
,  // measure 20
0100
0010
0100
0000
,  // measure 21
1000
0100
1000
0000
,  // measure 22
0100
0010
0100
0000
,  // measure 23
0000
0000
0010
0000
,  // measure 24
0001
0000
0000
0200
0000
0000
0300
0000
,  // measure 25
0000
0000
0010
0000
,  // measure 26
0100
0000
0000
2000
0000
0000
3000
0000
,  // measure 27
0000
0000
0100
0000
,  // measure 28
0010
0000
0001
0000
,  // measure 29
0100
0000
0010
0000
,  // measure 30
0001
0000
0000
0000
,  // measure 31
0000
0000
0100
0000
,  // measure 32
0010
0000
0001
0000
,  // measure 33
0100
0000
0010
0000
,  // measure 34
0001
0000
0100
0000
,  // measure 35
1000
0000
0100
0000
,  // measure 36
0010
0000
0001
0000
,  // measure 37
0100
0000
0010
0000
,  // measure 38
0001
0000
0000
0000
,  // measure 39
0000
0000
0100
0000
,  // measure 40
0100
0000
1000
0000
,  // measure 41
0100
0000
0010
0000
,  // measure 42
0001
0000
0100
0000
,  // measure 43
0010
0000
0001
0000
,  // measure 44
0100
0000
0010
0000
,  // measure 45
0100
0000
1000
0000
,  // measure 46
0100
0000
0010
0000
,  // measure 47
0100
0000
0010
0001
,  // measure 48
0100
0000
0010
0100
,  // measure 49
1000
0000
0100
1000
,  // measure 50
0100
0000
0010
0001
,  // measure 51
0100
0000
0010
0100
,  // measure 52
0010
0000
0001
0100
,  // measure 53
0001
0000
0100
1000
,  // measure 54
0100
0000
0000
0000
,  // measure 55
0100
0000
0000
0000
0010
0000
0000
0002
,  // measure 56
0000
0003
0000
0000
,  // measure 57
0100
0000
0000
0000
0010
0000
0000
2000
,  // measure 58
0000
3000
0000
0000
,  // measure 59
0100
0000
0010
0000
,  // measure 60
0001
0000
0100
0000
,  // measure 61
0010
0000
0100
0000
,  // measure 62
0000
0000
0000
0000
,  // measure 63
0100
0000
0000
0000
0010
0000
0000
0002
,  // measure 64
0000
0003
0000
0000
,  // measure 65
0100
0000
0000
0000
0010
0000
0000
0002
,  // measure 66
0000
0003
0000
0000
,  // measure 67
0100
0000
0010
0000
,  // measure 68
0100
0000
1000
0000
,  // measure 69
0100
0000
0010
0000
,  // measure 70
0100
0000
0020
0000
,  // measure 71
0030
0220
0000
0000
,  // measure 72
0000
0000
0000
0000
,  // measure 73
0000
0000
0000
0000
,  // measure 74
0330
0000
0000
0000
;

//---------------dance-single - Wrland---------------
#NOTEDATA:;
#CHARTNAME:;
#CHARTSTYLE:Pad;
#CREDIT:Wrland;
#STEPSTYPE:dance-single;
#DESCRIPTION:Wrland;
#DIFFICULTY:Medium;
#METER:9;
#METERF:9;
#RADARVALUES:0,0,0,0,0;
#NOTES:
// measure 0
0000
0000
0000
0000
,  // measure 1
0000
0000
0000
0000
,  // measure 2
0000
0000
0000
0000
,  // measure 3
0000
0000
0000
0000
,  // measure 4
1000
0001
1000
0100
,  // measure 5
1000
0000
0100
0000
0010
0000
0001
0100
,  // measure 6
0000
0010
0100
0000
0010
0000
0001
0000
,  // measure 7
0100
0010
0001
0100
,  // measure 8
0010
0100
0000
0010
0000
0001
0000
0100
,  // measure 9
0000
0010
0000
0100
1000
0100
0000
1000
,  // measure 10
0100
0001
0010
0100
0002
0003
0100
0000
,  // measure 11
0010
0000
0001
0100
0000
0010
0100
0000
,  // measure 12
1000
0100
0000
1000
0000
0100
0000
0010
,  // measure 13
0001
0000
0100
0000
0010
0100
0010
0001
,  // measure 14
0100
0010
0000
0100
0000
1000
0000
0100
,  // measure 15
2000
3000
0100
0000
1000
0100
1000
0100
,  // measure 16
0010
0001
0100
0020
0030
0001
0100
0010
,  // measure 17
0100
1000
0100
2000
3000
0100
1000
0100
,  // measure 18
0010
0000
0001
0000
0100
0001
0100
0000
,  // measure 19
0010
0000
0100
0000
1000
0100
0010
0001
,  // measure 20
0100
0020
0030
0100
0000
0010
0000
0001
,  // measure 21
0100
0010
0100
0010
0100
0001
0100
0010
,  // measure 22
0200
0300
0010
0000
0001
0100
0001
0000
,  // measure 23
0000
0100
0010
0001
,  // measure 24
0200
0000
0300
0020
0000
0030
0100
0000
,  // measure 25
0010
0000
0001
0100
0001
0000
0100
0000
,  // measure 26
0020
0000
0030
0200
0000
0300
0010
0000
,  // measure 27
0100
0010
0001
0100
0010
0000
0100
1000
,  // measure 28
0100
0000
1000
0100
0010
0000
0001
0100
,  // measure 29
0001
0000
0100
0010
0000
0001
0100
0001
,  // measure 30
0100
0010
0200
0000
,  // measure 31
0300
0010
0100
0000
0010
0000
0001
0000
,  // measure 32
0100
0010
0100
0010
0000
0001
0100
0000
,  // measure 33
0010
0000
0100
1000
0100
0000
1000
0000
,  // measure 34
0100
1000
0100
0010
0000
0001
0100
0010
,  // measure 35
0000
0100
0010
0001
0100
0000
0010
0000
,  // measure 36
0100
0010
0001
0100
0000
0010
0100
0000
,  // measure 37
0100
0000
1000
0100
1000
0000
0100
0000
,  // measure 38
0100
0010
0001
0100
0000
0010
0100
0010
,  // measure 39
0000
0001
0100
0001
0100
0000
0010
0000
,  // measure 40
0100
0010
0100
0010
0001
0000
0100
0000
,  // measure 41
1000
0100
1000
0100
0010
0000
0100
0000
,  // measure 42
0010
0001
0100
0000
0010
0000
0100
0000
,  // measure 43
1000
0100
1000
0000
0100
0000
0010
0100
,  // measure 44
0010
0001
0100
0001
0100
0000
0010
0000
,  // measure 45
0100
0010
0100
0000
1000
0000
0100
0000
,  // measure 46
1000
0100
1000
0000
0100
0000
1000
0000
,  // measure 47
0100
1000
0100
0001
0100
0010
0100
0020
,  // measure 48
0030
0001
0100
0010
0100
1000
0100
1000
,  // measure 49
0000
0100
1000
0100
0020
0030
0001
0000
,  // measure 50
0100
0010
0100
0000
0001
0000
0100
0000
,  // measure 51
0010
0100
0010
0001
0100
0010
0100
2000
,  // measure 52
3000
0100
0000
1000
0100
0010
0100
0010
,  // measure 53
1000
0001
0100
0010
0002
0003
0100
0000
,  // measure 54
0010
0100
0010
0000
0000
0000
0010
0000
,  // measure 55
0100
0000
0010
0000
0002
0003
0100
0020
,  // measure 56
0000
0030
0100
0010
0001
0100
0010
0100
,  // measure 57
1000
0000
0100
0000
1000
0000
0100
2000
,  // measure 58
0000
3000
0100
0000
0010
0000
0001
0100
,  // measure 59
0001
0000
0100
0010
0100
0000
1000
0100
,  // measure 60
1000
0000
0100
0010
0001
0000
0100
0010
,  // measure 61
0100
0001
0100
0010
0100
0000
1000
0000
,  // measure 62
0200
0000
0300
0010
,  // measure 63
0001
0000
0100
0001
0200
0300
0010
0200
,  // measure 64
0000
0300
1000
0010
0000
0100
1000
0001
,  // measure 65
0100
0000
0010
0000
0002
0003
0100
0002
,  // measure 66
0003
0100
0010
0001
0100
0010
0100
1000
,  // measure 67
0100
0000
1000
0100
0010
0000
0001
0100
,  // measure 68
0010
0000
0100
0010
0001
0000
0100
0010
,  // measure 69
0100
0000
0010
0001
0100
0000
0010
0100
,  // measure 70
1000
0000
0100
1000
0100
0000
0010
0001
,  // measure 71
0100
0220
0000
0000
,  // measure 72
0000
0000
0000
0000
,  // measure 73
0000
0000
0000
0000
,  // measure 74
0330
0000
0000
0000
;

//---------------dance-single - Wrland---------------
#NOTEDATA:;
#CHARTNAME:;
#CHARTSTYLE:Pad;
#CREDIT:Wrland;
#STEPSTYPE:dance-single;
#DESCRIPTION:Wrland;
#DIFFICULTY:Hard;
#METER:12;
#METERF:12;
#RADARVALUES:0,0,0,0,0;
#NOTES:
// measure 0
0000
0000
0000
0000
,  // measure 1
0000
0000
0000
0000
,  // measure 2
0000
0000
0000
0000
,  // measure 3
0000
0000
0000
0000
,  // measure 4
1000
0001
1000
0000
0100
0010
0100
0000
,  // measure 5
0010
0001
0010
0000
0100
0000
0010
0000
,  // measure 6
0001
0100
0001
0000
0100
0010
0100
0000
,  // measure 7
1000
0000
0100
0000
1000
0000
0100
0010
,  // measure 8
0001
0200
0300
0020
0030
0200
0300
0020
,  // measure 9
0030
0000
0002
0000
0003
0000
0100
0000
0010
0000
0000
0001
0000
0000
0100
0000
,  // measure 10
0010
0010
0010
0100
0020
0030
0100
0000
,  // measure 11
0010
0000
0001
0000
0100
0001
0100
0000
,  // measure 12
0010
0200
0300
2000
3000
0200
0300
1000
,  // measure 13
0200
0300
0010
0000
0100
0010
0001
0100
,  // measure 14
0010
0200
0300
0020
0030
0200
0300
0010
,  // measure 15
0002
0003
0100
0000
0010
0100
0010
0001
,  // measure 16
0100
0010
0100
0020
0030
0001
0100
0010
,  // measure 17
0100
1000
0001
0200
0300
0010
0100
0010
,  // measure 18
0002
0003
0100
0000
0010
0100
0010
0001
,  // measure 19
2000
3000
0100
1000
0100
1000
0100
0010
,  // measure 20
0001
0200
0300
0020
0030
0200
0300
0010
,  // measure 21
0001
0100
0010
0100
0010
0100
0010
0001
,  // measure 22
0200
0300
0020
0030
0100
1000
0100
0010
,  // measure 23
1001
0000
0100
0000
0010
0000
0001
0100
,  // measure 24
0020
0030
0100
0020
0030
0010
0100
0010
,  // measure 25
0001
0100
0010
0100
2000
3000
0100
0010
,  // measure 26
0002
0003
0100
0020
0030
0100
0010
0001
,  // measure 27
0100
0001
0010
0000
0100
0000
1000
0000
0200
0000
0300
0000
1000
0000
0100
0000
,  // measure 28
2000
3000
0100
0010
0002
0003
0100
0010
,  // measure 29
0200
0300
0001
0200
0300
0010
0100
0010
,  // measure 30
2000
3000
0100
1000
0110
0000
0000
0000
,  // measure 31
0000
0010
0100
0010
0002
0000
1003
0000
,  // measure 32
0100
0010
0100
0020
0030
0001
0100
0000
,  // measure 33
0200
0300
1000
0100
1000
0001
0200
0300
,  // measure 34
0010
0100
0010
0001
0100
0001
0010
0002
,  // measure 35
0003
0020
0030
0100
0001
0010
0200
0300
,  // measure 36
1000
0020
0030
0100
0020
0030
0001
0010
,  // measure 37
0100
0000
0010
0000
0001
0000
0200
0000
0000
0300
0010
0000
0200
0000
0300
0000
,  // measure 38
1000
0100
1000
0002
0003
1000
0010
0001
,  // measure 39
0010
0100
0010
0100
2000
3000
0100
0000
,  // measure 40
1000
0100
1000
0100
0010
1000
0001
0100
,  // measure 41
0010
0000
0001
0000
0100
0000
0000
0000
0100
0010
0001
0000
0010
0000
0001
0000
,  // measure 42
0100
0020
0030
1000
0010
0100
0010
0001
,  // measure 43
0100
0010
0001
0000
0010
0000
0001
0000
0100
0000
0010
0000
0001
0000
0100
0000
,  // measure 44
0010
0100
0010
1000
0100
0010
0001
0100
,  // measure 45
0010
0100
0001
0010
0001
0100
0010
0100
,  // measure 46
1000
0000
0100
0000
0010
0000
0001
0000
0200
0000
0000
0300
0020
0000
0000
0030
,  // measure 47
0100
0000
0010
0100
0001
0000
0100
0000
0010
0000
0100
0000
0010
0000
0002
0000
,  // measure 48
0003
0010
0100
0010
0001
0100
0010
0200
,  // measure 49
0300
1000
0100
1000
0200
0300
2000
3000
,  // measure 50
0100
0010
0001
2000
3000
0200
0300
1000
,  // measure 51
0100
0010
0001
0100
0010
0100
0001
0200
,  // measure 52
0300
0020
0030
0100
0010
0001
0010
0100
,  // measure 53
0010
0001
0100
0010
0200
0300
0020
0030
,  // measure 54
1000
0100
1000
0000
0110
0000
0000
0000
,  // measure 55
0020
0030
0001
0100
0020
0030
0100
2000
,  // measure 56
3000
0100
1000
0100
0010
0001
0100
0010
,  // measure 57
0200
0300
0020
0030
0001
0010
0100
0002
,  // measure 58
0003
0000
0100
0000
0010
0000
0001
0000
0100
0010
0100
0000
0100
0000
1000
0000
,  // measure 59
0200
0300
0100
0010
0002
0003
0100
0010
,  // measure 60
0200
0300
1000
0100
2000
3000
0100
0020
,  // measure 61
0030
0000
0001
0000
0100
0000
0001
0000
0100
0010
0001
0000
0100
0000
1000
0000
,  // measure 62
0110
0000
0000
0000
0000
0001
0100
0010
,  // measure 63
0200
0300
1000
0010
0200
0300
1000
0200
,  // measure 64
0300
0010
0001
0100
0010
0001
0100
0010
,  // measure 65
0200
0300
1000
0010
0200
0300
1000
0020
,  // measure 66
0030
0000
0100
0000
0010
0000
0001
0000
0100
0001
0010
0000
0100
0000
1000
0000
,  // measure 67
0200
0300
0100
0010
0002
0003
0100
0010
,  // measure 68
0200
0300
0010
0001
0200
0300
0010
0100
,  // measure 69
0020
0030
0001
0100
0020
0030
0001
0100
,  // measure 70
0020
0030
0100
1000
0200
0300
0010
0001
,  // measure 71
1001
0220
0000
0000
,  // measure 72
0000
0000
0000
0000
,  // measure 73
0000
0000
0000
0000
,  // measure 74
0330
0000
0000
0000
;
