#TITLE:Baby Bleep March;
#SUBTITLE:;
#ARTIST:seiya-murai;
#MUSIC:Baby Bleep March.ogg;
#BANNER:Baby Bleep March.png;
#BACKGROUND:Baby Bleep March-bg.png;
#LYRICSPATH:;
#CDTITLE:jubeat.png;
#SAMPLESTART:44.168;
#SAMPLELENGTH:15.000;
#OFFSET:0.001;
#BPMS:0.000000=179.989000;
#STOPS:296.000000=0.500000;
#TIMESIGNATURES:;
#BGCHANGES:;
#FGCHANGES:;
#ATTACKS:;
#SPEEDS:;
#SCROLLS:;
#DISPLAYBPM:179.000;

//---------------dance-single - Wrland---------------
#NOTES:
     dance-single:
     Wrland:
     Beginner:
     5:
     0,0,0,0,0:
// measure 0
0000
0000
0000
0000
,  // measure 1
0000
0000
0000
0000
,  // measure 2
0000
0000
0000
0000
,  // measure 3
0000
0000
0000
0000
,  // measure 4
0000
0000
0000
0000
,  // measure 5
1000
0001
0001
0100
,  // measure 6
0001
0000
0100
0001
0100
0000
0010
0000
,  // measure 7
0100
1000
0100
1000
,  // measure 8
0100
0000
0010
0100
0001
0000
0001
0000
,  // measure 9
0100
0010
0100
1000
,  // measure 10
0100
1000
0100
0010
,  // measure 11
0001
0100
0010
0001
,  // measure 12
1001
0000
1100
0000
,  // measure 13
0100
0010
0001
0100
,  // measure 14
0001
0000
0100
0001
0100
0000
0010
0000
,  // measure 15
0100
1000
0100
1000
,  // measure 16
0100
0000
0010
0100
0010
0000
0001
0000
,  // measure 17
0100
0010
0001
0100
,  // measure 18
0010
0100
1000
0100
,  // measure 19
1000
0100
0010
0001
,  // measure 20
0100
0000
0001
0100
0001
0000
0100
0000
,  // measure 21
0010
0100
1000
0100
,  // measure 22
1000
0100
1000
0000
0100
0000
0010
0000
,  // measure 23
0001
0100
0010
0001
,  // measure 24
0100
0000
0000
0010
,  // measure 25
0001
0100
0010
0100
,  // measure 26
1000
0100
0000
0100
,  // measure 27
0010
0001
0100
0010
,  // measure 28
0001
0100
0010
0001
,  // measure 29
0200
0000
0000
0000
,  // measure 30
0320
0000
0000
0000
,  // measure 31
0031
0010
0001
0010
,  // measure 32
0100
0000
0010
0000
0100
0010
0002
0000
,  // measure 33
0003
0100
0000
0010
0100
0000
0010
0000
,  // measure 34
0001
0100
0010
0100
,  // measure 35
0000
0100
0000
0010
0001
0000
0100
0000
,  // measure 36
0010
0000
0100
0000
0010
1000
0001
0000
,  // measure 37
0000
0010
0000
0100
1000
0000
0100
0000
,  // measure 38
1000
0100
0010
0001
,  // measure 39
0100
0010
0001
0100
,  // measure 40
0020
0000
0000
0000
,  // measure 41
0130
0001
0100
0010
,  // measure 42
0100
0001
1001
0000
1000
1001
0000
0100
,  // measure 43
0010
0001
0100
0010
,  // measure 44
0100
0010
0110
0000
1000
1100
0000
0100
,  // measure 45
0010
0100
0010
0001
,  // measure 46
0100
0001
0100
0000
0010
0000
0100
0000
,  // measure 47
1000
0100
1000
0100
,  // measure 48
0010
0001
0100
0010
,  // measure 49
0001
0100
0010
0100
,  // measure 50
0010
0100
0010
0000
0001
0000
0100
0000
,  // measure 51
0010
0001
0100
0010
,  // measure 52
0002
0000
0000
1003
,  // measure 53
0000
1000
0000
0100
1000
0000
0100
0000
,  // measure 54
0010
0001
0100
0010
,  // measure 55
0000
0100
0000
0010
0001
0000
0100
0000
,  // measure 56
0010
0000
0100
0000
0010
1000
0001
0000
,  // measure 57
0000
0001
0000
0100
0010
0000
0100
0000
,  // measure 58
1000
0000
0100
0000
1000
0000
0100
0010
,  // measure 59
0001
0100
0010
0001
,  // measure 60
0200
0000
0000
0000
,  // measure 61
0300
0010
0000
0001
0100
0000
0010
0000
,  // measure 62
0100
1000
0100
1000
,  // measure 63
0000
0100
0000
0010
0001
0000
0100
0000
,  // measure 64
0010
0000
0001
0000
0100
0010
0001
0000
,  // measure 65
0000
0100
0000
0010
0001
0000
0100
0000
,  // measure 66
0010
0100
0010
0001
,  // measure 67
0100
0010
0001
1000
,  // measure 68
0100
1000
0100
0010
,  // measure 69
0001
0100
0010
0001
,  // measure 70
2000
0000
0000
0000
0000
0000
0000
3000
,  // measure 71
0001
1000
1001
0000
0001
1001
0000
0001
,  // measure 72
0000
0100
0010
0000
0100
0000
0010
0000
,  // measure 73
0001
0100
0011
0000
0001
1100
0000
0010
,  // measure 74
0000
0100
0000
0110
0000
0000
0000
0000
;

//---------------dance-single - Wrland---------------
#NOTES:
     dance-single:
     Wrland:
     Easy:
     7:
     0,0,0,0,0:
// measure 0
0000
0000
0000
0000
,  // measure 1
0000
0000
0000
0000
,  // measure 2
0000
0000
0000
0000
,  // measure 3
0000
0000
0000
0000
,  // measure 4
0000
0000
0000
0000
2002
0000
0000
3003
,  // measure 5
0100
0000
0010
0000
0100
0000
0010
0001
,  // measure 6
0100
0010
0100
1000
0100
0010
0001
0100
,  // measure 7
0010
0000
0100
0000
0010
0000
0001
0100
,  // measure 8
0001
0100
0010
0100
1000
0100
1000
0100
,  // measure 9
0010
0100
0010
0001
,  // measure 10
0100
0001
0100
0001
0100
0000
0010
0000
,  // measure 11
0100
0000
0000
1000
0010
0000
0100
0000
0001
0000
0010
0000
0100
0000
0001
0000
,  // measure 12
0020
0000
0000
0030
0200
0000
0000
0300
,  // measure 13
0100
0000
1000
0000
0100
0000
0010
0100
,  // measure 14
0001
0100
0010
0100
1000
0100
0010
0001
,  // measure 15
0100
0000
0010
0000
0001
0000
0100
0001
,  // measure 16
0100
0010
0100
1000
0100
0010
0001
0100
,  // measure 17
0010
1000
0100
0010
,  // measure 18
0001
0000
0100
0001
0100
0000
0010
0000
,  // measure 19
0100
0000
0000
0001
1000
0000
0100
0000
1000
0000
0100
0000
0010
0000
0001
0000
,  // measure 20
0100
0010
0100
1000
0100
0000
0110
0000
,  // measure 21
0001
1000
0001
1000
,  // measure 22
0001
1000
0002
0000
1003
0000
0100
0000
,  // measure 23
1000
0100
0010
0001
,  // measure 24
0100
0000
0010
0100
0010
0001
0100
0010
,  // measure 25
0100
1000
0100
0010
,  // measure 26
0001
0100
0002
0000
0103
1000
0100
0010
,  // measure 27
0001
0100
0100
1000
0100
0100
0010
0001
,  // measure 28
0200
0000
0310
0001
,  // measure 29
0200
0000
0010
0001
,  // measure 30
0320
0000
0100
1000
,  // measure 31
0230
0010
0001
2300
,  // measure 32
3001
0100
0001
0100
0001
0100
0002
0000
,  // measure 33
0003
1000
0000
0100
1000
0000
0100
0000
,  // measure 34
0010
0001
0100
0010
,  // measure 35
0000
0001
0000
0100
0001
0000
0100
0000
,  // measure 36
0010
0000
0100
0000
1000
0100
0010
0000
,  // measure 37
0000
0001
0000
0100
0010
0000
0001
0000
,  // measure 38
0100
0000
1000
0000
0100
0000
1000
0100
,  // measure 39
1000
0000
0000
0001
0000
0000
0010
0000
0100
0000
0000
0000
0010
0000
0000
0000
,  // measure 40
0002
0000
0000
0000
0000
0000
0000
0003
,  // measure 41
1000
0100
1000
0001
0100
0010
0101
0010
,  // measure 42
0100
0100
0110
0000
0001
0101
0000
0100
,  // measure 43
0000
0010
0001
0100
0010
1000
0100
0010
,  // measure 44
0001
0100
1100
0000
0100
0110
0000
0001
,  // measure 45
0100
0010
0001
0100
,  // measure 46
0010
0100
0010
0000
0001
0000
0100
0000
,  // measure 47
1000
0100
0010
0001
,  // measure 48
0100
0000
0010
0000
0001
0000
0100
0001
,  // measure 49
0100
0010
0100
1000
,  // measure 50
0100
1000
0100
0000
0010
0000
0001
0000
,  // measure 51
0100
0010
0001
0100
,  // measure 52
0002
0000
0000
0000
2003
0000
0000
3000
0000
2002
0000
0000
,  // measure 53
3003
0100
0000
0010
0001
0000
0100
0000
,  // measure 54
0010
0100
1000
0100
,  // measure 55
0000
0010
0000
0100
0010
0000
0001
0000
,  // measure 56
0100
0000
0001
0100
0001
0100
0001
0000
,  // measure 57
0000
0100
0000
0010
0001
0000
0100
0000
,  // measure 58
1000
0000
0100
0000
0010
0000
0001
0100
,  // measure 59
0001
0000
0000
0100
0000
0000
0010
0000
0001
0000
0000
0000
0100
0000
0000
0000
,  // measure 60
0020
0000
0000
0030
,  // measure 61
0000
0100
0000
0010
0001
0000
0100
0000
,  // measure 62
1000
0100
1000
0100
,  // measure 63
0000
1000
0000
0100
0010
0000
0001
0000
,  // measure 64
0100
0000
0010
0100
0010
0001
0100
0000
,  // measure 65
0000
0010
0000
0001
0100
0000
0010
0000
,  // measure 66
0100
0000
1000
0000
0100
0000
0010
0001
,  // measure 67
0100
0000
0000
0010
0000
0000
0100
0000
0010
0000
0000
0000
0001
0000
0000
0000
,  // measure 68
0100
0000
0000
0010
0000
0000
0100
0000
1000
0000
0000
0000
0100
0000
0000
0000
,  // measure 69
0010
0000
0000
0001
0000
0000
0100
0000
0010
0000
0000
0000
0100
0000
0000
0000
,  // measure 70
0002
0000
0000
0000
0000
0000
0000
0003
,  // measure 71
1000
0001
1001
0000
0100
0110
0000
0010
,  // measure 72
0100
0010
0001
0100
0010
0100
0010
0001
,  // measure 73
0100
0010
0011
0000
0100
0110
0000
1001
,  // measure 74
0000
0100
0000
0110
0000
0000
0000
0000
;

//---------------dance-single - Wrland---------------
#NOTES:
     dance-single:
     Wrland:
     Medium:
     11:
     0,0,0,0,0:
// measure 0
0000
0000
0000
0000
,  // measure 1
0000
0000
0000
0000
,  // measure 2
0000
0000
0000
0000
,  // measure 3
0000
0000
0000
0000
,  // measure 4
0000
0000
0002
0000
,  // measure 5
2003
3000
0200
0300
2000
3000
0100
1000
,  // measure 6
0100
0010
0001
0100
0010
0100
0010
0001
,  // measure 7
0200
0300
0020
0030
0200
0300
0001
0100
,  // measure 8
0010
0100
1000
0100
0010
0100
0010
0100
,  // measure 9
0100
1000
0100
0010
0001
0100
0010
0100
,  // measure 10
1000
0100
0010
0001
0200
0000
0310
0000
,  // measure 11
0100
0000
0000
0010
0100
0000
0010
0000
0001
0000
0100
0000
0010
0000
0100
0000
,  // measure 12
0010
0000
0100
0010
0100
0010
0100
0000
0010
0000
0100
0001
0100
0001
0100
0000
,  // measure 13
0002
0003
0200
0300
0020
0030
0100
1000
,  // measure 14
0100
0010
0100
0010
0001
0100
0010
0100
,  // measure 15
2000
3000
0200
0300
0020
0030
0001
0100
,  // measure 16
0001
0100
0010
0100
1000
0100
0010
0001
,  // measure 17
0100
0010
0100
1000
0100
0010
0001
0100
,  // measure 18
0010
0100
1000
0100
0020
0000
0031
0000
,  // measure 19
0200
0000
0300
0001
0010
0000
1000
0000
0001
0000
0100
0000
0010
0000
0100
0000
,  // measure 20
1000
0001
1000
0001
1000
0000
0100
0000
1000
0000
0000
0000
0200
0000
0300
0010
,  // measure 21
0100
0000
0000
0000
2000
0000
3000
0010
0100
0000
0000
0000
0020
0000
0030
0100
,  // measure 22
0001
0100
0002
0003
0010
1000
0100
0001
,  // measure 23
0010
0000
0100
0000
0001
0000
0010
0000
0200
0000
0300
0000
0010
0000
0001
0100
,  // measure 24
0020
0000
0030
0000
0100
0000
0010
0000
1000
0000
0001
0000
0200
0000
0300
1000
,  // measure 25
0010
0000
0000
0000
0002
0000
0003
0010
0100
0000
0000
0000
0020
0000
0030
0100
,  // measure 26
0001
0100
0020
0030
0100
0010
1000
0010
,  // measure 27
0200
0000
0300
0000
0010
0000
0100
0010
0001
0000
0010
0000
0100
0000
0001
0000
,  // measure 28
0010
0100
0010
1000
0001
0010
0100
0010
0001
0000
0010
0000
0100
0000
0001
0100
,  // measure 29
0020
0000
0000
0130
0010
0000
0100
0010
,  // measure 30
2000
0000
0000
0000
0000
0000
3100
0000
0010
0000
0000
0000
1000
0000
0001
0010
,  // measure 31
0100
0000
0001
0000
0010
0000
0100
1000
0001
0000
0010
0000
0100
0000
1000
0010
,  // measure 32
0001
0100
0010
0100
1000
0001
2000
0000
,  // measure 33
3000
0200
0300
1000
0200
0300
0020
0030
,  // measure 34
0002
0000
0003
0000
0200
0000
0300
0000
0020
0000
0030
0001
0100
0000
0010
0000
,  // measure 35
0000
0200
0300
0010
0002
0003
0200
0300
,  // measure 36
0010
0000
0000
0010
0100
0000
0010
0000
1000
0000
0100
0000
1000
0100
1000
0100
,  // measure 37
0000
0200
0300
0010
0002
0003
0200
0300
,  // measure 38
0020
0030
0200
0300
2000
3000
0100
1000
,  // measure 39
0200
0000
0300
0010
0000
0000
0001
0000
0200
0000
0300
0000
0020
0000
0030
0000
,  // measure 40
0100
0000
0001
0000
0010
0000
0001
0000
0100
0000
0010
0000
0100
0000
1000
0010
,  // measure 41
0100
0010
0001
0100
0010
1000
0100
1000
,  // measure 42
0100
1000
0101
0000
0010
1001
0000
0110
,  // measure 43
0010
0001
0100
0010
0100
1000
0100
0010
,  // measure 44
0001
0010
0100
0000
0011
0000
0000
0000
1000
0000
1100
0000
0000
0000
0110
0000
,  // measure 45
0002
0003
0200
0300
0020
0030
0002
0003
,  // measure 46
0100
0000
0001
0010
0200
0000
0300
0000
0010
0000
0001
0000
0100
0000
0010
0000
,  // measure 47
1000
0000
0010
0000
0100
0000
1000
0000
0100
0000
0010
0000
0100
0000
0001
1000
,  // measure 48
0010
0000
0100
0000
0001
0000
0100
0000
0001
0000
0010
0000
0100
0001
0010
0100
,  // measure 49
0020
0030
0200
0300
2000
3000
0200
0300
,  // measure 50
1000
0000
0010
0100
2000
0000
3000
0000
0100
0000
0001
0000
0100
0000
1000
0000
,  // measure 51
0010
0100
0001
0010
0100
0010
0001
0010
,  // measure 52
0100
0010
0100
0000
0010
0001
0100
0000
0000
2002
0000
0000
,  // measure 53
3003
0020
0030
0100
0020
0030
0002
0003
,  // measure 54
0200
0000
0300
0000
2000
0000
3000
0000
0200
0000
0300
0000
1000
0010
0100
0010
,  // measure 55
0000
0200
0300
1000
0200
0300
0020
0030
,  // measure 56
0002
0000
0003
0010
0100
0000
0001
0000
0100
0000
0001
0000
0100
0010
0001
0100
,  // measure 57
0000
0020
0030
0100
0020
0030
0002
0003
,  // measure 58
0200
0300
2000
3000
0200
0300
0010
0001
,  // measure 59
0200
0000
0300
0020
0000
0030
0100
0000
2000
0000
3000
0000
0200
0000
0300
0000
,  // measure 60
0020
0000
0030
0000
1000
0000
0100
0000
1000
0000
0100
0000
1000
0100
1000
0000
,  // measure 61
0000
2000
3000
0100
2000
3000
0200
0300
,  // measure 62
0020
0000
0030
0000
0002
0000
0003
0000
0200
0000
0300
0000
0010
0100
0010
0001
,  // measure 63
0000
0002
0003
0100
0002
0003
0200
0300
,  // measure 64
0020
0000
0030
0001
0100
0000
0010
0000
0001
0000
0100
0000
0010
0001
0100
0010
,  // measure 65
0000
0200
0300
0010
0002
0003
0200
0300
,  // measure 66
2000
3000
0200
0300
2000
3000
0100
1000
,  // measure 67
0200
0000
0300
0010
0000
0000
0001
0000
0200
0000
0000
0000
0310
0000
0000
0000
,  // measure 68
0002
0000
0003
0100
0000
0000
0010
0000
0200
0000
0000
0000
1300
0000
0000
0000
,  // measure 69
0200
0000
0300
0010
0000
0000
0001
0000
0200
0000
0000
0000
0310
0000
0000
0000
,  // measure 70
0100
0001
0010
0001
0100
0010
0100
1000
,  // measure 71
0100
0010
0011
0000
0100
0011
0000
0001
,  // measure 72
0100
0000
0010
0000
0100
0000
1000
0000
0100
0000
0010
0000
0001
0000
0100
0001
,  // measure 73
0010
0100
1010
0000
0100
0011
0000
0001
,  // measure 74
0100
0000
0020
0000
0000
0000
0130
0010
0100
0010
0000
0000
0000
0000
0000
0000
;

//---------------dance-single - Wrland---------------
#NOTES:
     dance-single:
     Wrland:
     Hard:
     13:
     0,0,0,0,0:
// measure 0
0000
0000
0000
0000
,  // measure 1
0000
0000
0000
0000
,  // measure 2
0000
0000
0000
0000
,  // measure 3
0000
0000
0000
0000
,  // measure 4
0000
0000
0000
0000
2002
0000
0000
3003
,  // measure 5
0100
0100
0100
0000
0010
0010
0010
0000
0100
0100
0100
0000
0010
0001
0100
0000
,  // measure 6
0010
0001
0100
0010
0100
1000
0100
1000
,  // measure 7
0100
0100
0100
0000
0010
0010
0010
0000
0100
0100
0100
0000
0010
0100
0001
0000
,  // measure 8
0100
0000
0001
0000
0100
0000
0010
0000
0100
0000
0010
0000
0100
0010
0100
1000
,  // measure 9
0001
0010
0100
1000
0100
0010
0001
0100
,  // measure 10
0010
0100
1000
0100
0020
0000
0130
0000
,  // measure 11
0010
0000
0001
0010
0100
0000
1000
0000
0010
0000
0100
0000
0010
0000
0001
0000
,  // measure 12
0100
0000
0010
0100
0010
0001
0100
0000
0010
0000
0100
0010
0100
0001
0010
0000
,  // measure 13
0001
0001
0001
0000
0100
0100
0100
0000
0010
0010
0010
0000
0100
0100
0100
0000
,  // measure 14
0100
1000
0100
0010
0001
0100
0010
0100
,  // measure 15
1000
1000
1000
0000
0100
0100
0100
0000
0010
0010
0010
0000
0001
0010
0100
0000
,  // measure 16
0010
0000
0100
0000
1000
0000
0100
0000
0010
0100
0001
0010
0100
0000
0010
0000
,  // measure 17
0100
1000
0100
0010
0001
0100
0010
0100
,  // measure 18
1000
0010
0100
0000
0010
0000
0001
0000
0200
0000
0000
0000
0310
0000
0000
0000
,  // measure 19
0100
0000
0001
0100
0010
0000
0001
0000
0100
0010
0001
0000
0100
0000
1000
0000
,  // measure 20
0100
0000
0010
0001
0010
1000
0100
0001
0020
0000
0000
0000
0130
0000
0000
1000
,  // measure 21
0200
0000
0300
0000
0001
0000
0000
0010
0200
0000
0300
0000
0010
0000
0001
0010
,  // measure 22
0100
0010
0200
0300
0010
0100
0010
0001
,  // measure 23
0100
0000
0001
0010
0100
0000
1000
0000
0100
0000
1000
0100
1000
0000
0100
0000
,  // measure 24
0020
0000
0030
0000
0100
0000
0010
0000
0100
0001
0100
0000
0010
0000
0100
0010
,  // measure 25
2000
0000
3000
0000
0100
0000
0001
0010
2000
0000
3000
0000
0010
0000
0001
0000
,  // measure 26
0100
0001
0010
0000
0200
0000
0300
0000
1000
0000
0010
0000
0001
0000
0100
0010
,  // measure 27
0010
0000
0100
0000
1000
0000
0100
0001
0010
0000
0001
0000
0100
0000
0010
0000
,  // measure 28
0100
0000
0100
0001
0010
0100
0101
0001
0010
0000
0100
0000
1000
0010
0100
0001
,  // measure 29
0020
0000
0000
0000
1030
0000
0100
0000
0010
0100
0010
0000
0100
0000
0010
0000
,  // measure 30
0002
0000
0000
0000
0103
0000
1000
0000
0100
1000
0100
0000
0020
0000
0030
0100
,  // measure 31
0010
0000
0100
0000
0002
0000
0003
0100
0001
0000
0010
0000
0200
0000
0300
1000
,  // measure 32
0100
0000
0010
0000
0002
0000
0003
1000
0100
0000
0010
0000
0100
0010
0001
0100
,  // measure 33
0000
0200
0300
0010
0200
0300
0020
0030
,  // measure 34
0002
0000
0003
0000
0200
0000
0300
0000
0010
0000
0000
0010
0100
0000
0010
0000
,  // measure 35
0000
0200
0300
0010
0002
0003
0200
0300
,  // measure 36
0010
0000
0000
0100
0010
0000
0001
0000
0100
0000
0010
0000
0100
0010
1000
0000
,  // measure 37
0000
0020
0030
0100
0020
0030
0200
0300
,  // measure 38
0020
0030
0002
0003
0200
0300
0010
0100
,  // measure 39
0020
0000
0030
0002
0000
0003
0100
0000
0020
0000
0030
0000
0200
0000
0300
0000
,  // measure 40
1000
0100
0010
0001
0100
0010
0100
1000
,  // measure 41
0100
0000
0010
0000
0001
0000
0100
0000
0010
0000
0100
0000
0010
0100
0010
0100
,  // measure 42
0010
0002
1003
0000
2000
3001
0000
1100
,  // measure 43
0010
0000
0100
0000
0010
0000
0001
0000
0100
0000
0010
0100
0010
0100
0010
0000
,  // measure 44
0100
0000
0020
0000
0031
0000
0000
0000
0200
0000
0310
0000
0000
0000
0100
0001
,  // measure 45
0020
0030
0200
0300
0002
0003
0200
0300
,  // measure 46
0010
0000
0000
0100
0020
0000
0030
0000
0001
0000
0100
0000
0010
0000
0100
0000
,  // measure 47
1000
0000
0100
0000
0010
0000
0001
0000
0100
0000
0010
0000
0100
0000
1000
0010
,  // measure 48
0100
0000
0010
0000
0001
0000
0100
0000
0010
0001
0100
0010
1000
0000
0100
0000
,  // measure 49
0020
0030
0002
0003
0200
0300
0020
0030
,  // measure 50
0100
0000
0001
0100
0020
0000
0030
0000
0100
0000
0001
0000
0100
0000
0010
0000
,  // measure 51
0100
1000
0100
0010
0001
0100
0010
0100
,  // measure 52
0010
0000
0100
0000
0010
0000
0000
0000
0010
0000
0001
0000
0100
0000
0000
0000
0000
0000
0220
0000
0000
0330
0000
0000
,  // measure 53
0000
0200
0300
0010
0200
0300
0020
0030
,  // measure 54
0002
0000
0003
0000
0200
0000
0300
0000
0010
0000
0000
0010
0100
0000
0010
0000
,  // measure 55
0000
0200
0300
0010
0002
0003
0200
0300
,  // measure 56
0010
0000
0000
0100
0010
0000
0001
0000
0100
0000
0010
0000
0100
0010
1000
0000
,  // measure 57
0000
0020
0030
0100
0020
0030
0200
0300
,  // measure 58
0020
0030
0002
0003
0200
0300
0010
0100
,  // measure 59
0020
0000
0030
0002
0000
0003
0100
0000
0020
0000
0030
0000
0200
0000
0300
0000
,  // measure 60
2000
0000
0100
0001
0100
0010
0001
3100
,  // measure 61
0000
0020
0030
0100
0020
0030
0002
0003
,  // measure 62
0200
0301
2000
3100
0002
0103
0110
0000
,  // measure 63
0000
0020
0030
0100
0020
0030
0002
0003
,  // measure 64
0100
0000
0000
0010
0100
0000
0010
0000
0001
0000
0100
0000
0010
0001
0100
0010
,  // measure 65
0000
0200
0300
1000
0200
0300
2000
3000
,  // measure 66
0200
0300
0020
0030
0002
0003
0100
0001
,  // measure 67
0200
0000
0300
0020
0000
0030
0100
0000
0020
0000
0030
0000
0002
0000
0003
0000
,  // measure 68
0200
0000
0300
0020
0000
0030
0100
0000
0020
0000
0030
0000
0200
0000
0300
0000
,  // measure 69
2000
0000
3000
0200
0000
0300
1000
0000
0200
0000
0300
0000
0020
0000
0030
0000
,  // measure 70
0001
1000
0100
1000
0100
0010
0001
0100
,  // measure 71
0010
0000
0100
0010
1000
0100
0010
0000
0001
0010
1000
0001
0100
0000
1000
0010
,  // measure 72
0100
0010
0100
0010
0001
0100
0010
0100
,  // measure 73
0010
0000
0001
0010
0100
1000
0100
0000
0010
0001
0100
0010
0100
0000
0010
0000
,  // measure 74
0100
0000
2000
0000
0000
0000
3001
0010
0100
0010
0000
0000
0000
0000
0000
0000
;
