#TITLE:Angelic Layer -The2nd Night-;
#SUBTITLE:;
#ARTIST:SHIKI;
#MUSIC:Angelic Layer -The2nd Night-.ogg;
#BANNER:Angelic Layer -The2nd Night-.png;
#BACKGROUND:Angelic Layer -The2nd Night--bg.png;
#LYRICSPATH:;
#CDTITLE:VOCALOID.png;
#SAMPLESTART:87.145;
#SAMPLELENGTH:15.000;
#OFFSET:-0.002;
#BPMS:0.000000=154.000000;
#STOPS:;
#TIMESIGNATURES:;
#BGCHANGES:;
#FGCHANGES:;
#ATTACKS:;
#SPEEDS:;
#SCROLLS:;
#DISPLAYBPM:154.000;
#TAGS:DMCA;

//---------------dance-single - Wrland---------------
#NOTES:
     dance-single:
     Wrland:
     Beginner:
     2:
     0,0,0,0,0:
// measure 0
0000
0000
0000
0000
,  // measure 1
0000
0000
0000
0000
,  // measure 2
0000
0000
0000
0000
,  // measure 3
0000
0000
0000
0000
,  // measure 4
0000
0000
0000
0000
,  // measure 5
0000
0000
0000
0000
,  // measure 6
0000
0000
0000
0000
,  // measure 7
0000
0000
0000
0000
,  // measure 8
1000
0000
0000
0000
,  // measure 9
0001
0000
0000
0000
,  // measure 10
1000
0000
0000
0000
,  // measure 11
0100
0000
0000
0000
,  // measure 12
0010
0000
0000
0000
,  // measure 13
0100
0000
0000
0000
,  // measure 14
0100
0000
0000
0000
,  // measure 15
0001
0000
0000
0000
,  // measure 16
0010
0000
0000
0000
,  // measure 17
0100
0000
0000
0000
,  // measure 18
1000
0000
0000
0000
,  // measure 19
0100
0000
0000
0000
,  // measure 20
0010
0000
0000
0000
,  // measure 21
0001
0000
0000
0000
,  // measure 22
1000
0000
0000
0000
,  // measure 23
0010
0000
0000
0000
,  // measure 24
1000
0000
0000
0000
,  // measure 25
1000
0000
0000
0000
,  // measure 26
0001
0000
0000
0000
,  // measure 27
1000
0000
0000
0000
,  // measure 28
0010
0000
0000
0000
,  // measure 29
0010
0000
0000
0000
,  // measure 30
0001
0000
0000
0000
,  // measure 31
0100
0000
0000
0000
,  // measure 32
1000
0000
0000
0000
,  // measure 33
0100
0000
0000
0000
,  // measure 34
0100
0000
0000
0000
,  // measure 35
0100
0000
0000
0000
,  // measure 36
1000
0000
0000
0000
,  // measure 37
0010
0000
0000
0000
,  // measure 38
0001
0000
0000
0000
,  // measure 39
0100
0000
0000
0000
,  // measure 40
1000
0000
0000
0000
,  // measure 41
0100
0000
0000
0000
,  // measure 42
0001
0000
0000
0000
,  // measure 43
0100
0000
0000
0000
,  // measure 44
1000
0000
0000
0000
,  // measure 45
0001
0000
0000
0000
,  // measure 46
0100
0000
0000
0000
,  // measure 47
0010
0000
0000
0000
,  // measure 48
0100
0000
0000
0000
,  // measure 49
0010
0000
0000
0000
,  // measure 50
0100
0000
0000
0000
,  // measure 51
0001
0000
0000
0000
,  // measure 52
0100
0000
0000
0000
,  // measure 53
0100
0000
0000
0000
,  // measure 54
0001
0000
0000
0000
,  // measure 55
0010
0000
0010
0000
,  // measure 56
0100
0000
0100
0000
,  // measure 57
0020
0000
0030
0000
,  // measure 58
0200
0000
0300
0000
,  // measure 59
0200
0000
0300
0000
,  // measure 60
0100
0000
0010
0000
,  // measure 61
0001
0000
0100
0000
,  // measure 62
0020
0000
0000
0030
,  // measure 63
0000
0000
0100
0000
,  // measure 64
1000
0000
0001
0000
,  // measure 65
0100
0000
0000
0000
,  // measure 66
0200
0000
0300
0000
,  // measure 67
0200
0000
0300
0000
,  // measure 68
0010
0000
0100
0000
,  // measure 69
0100
0000
0000
0000
,  // measure 70
0001
0000
0000
0000
,  // measure 71
0010
0000
0000
0000
,  // measure 72
1000
0000
0000
0000
,  // measure 73
1000
0000
0000
0000
,  // measure 74
0100
0000
0000
0000
,  // measure 75
0001
0000
0000
0000
,  // measure 76
1000
0000
0000
0000
,  // measure 77
0010
0000
0000
0000
,  // measure 78
0100
0000
0000
0000
,  // measure 79
0100
0000
0000
0000
,  // measure 80
0100
0000
0000
0000
,  // measure 81
0010
0000
0000
0000
,  // measure 82
1000
0000
0000
0000
,  // measure 83
1000
0000
0000
0000
,  // measure 84
0010
0000
0000
0000
,  // measure 85
0010
0000
0000
0000
,  // measure 86
0200
0000
0000
0000
,  // measure 87
0320
0000
0000
0000
,  // measure 88
0030
0000
0000
0000
;

//---------------dance-single - Wrland---------------
#NOTES:
     dance-single:
     Wrland:
     Easy:
     5:
     0,0,0,0,0:
// measure 0
0000
0000
0000
0000
,  // measure 1
0000
0000
0000
0000
,  // measure 2
0000
0000
0000
0000
,  // measure 3
0000
0000
0000
0000
,  // measure 4
0000
0000
0000
0000
,  // measure 5
0000
0000
0000
0000
,  // measure 6
0000
0000
0000
0000
,  // measure 7
0000
0000
0000
0000
,  // measure 8
1000
0000
0001
0000
,  // measure 9
1000
0000
0001
0000
,  // measure 10
1000
0000
0001
0000
,  // measure 11
0100
0000
0010
0000
,  // measure 12
0100
0000
1000
0000
,  // measure 13
0100
0000
1000
0000
,  // measure 14
0100
0000
0010
0000
,  // measure 15
0001
0000
0100
0000
,  // measure 16
0010
0000
0100
0000
,  // measure 17
0010
0000
0001
0000
,  // measure 18
0100
0000
0010
0000
,  // measure 19
0100
0000
1000
0000
,  // measure 20
0100
0000
0010
0000
,  // measure 21
0100
0000
0010
0000
,  // measure 22
0001
0000
0100
0000
,  // measure 23
1000
0000
0100
0000
,  // measure 24
1000
0000
1000
0001
,  // measure 25
1000
0000
0001
1000
,  // measure 26
0001
0000
1000
0100
,  // measure 27
1000
0000
0100
0000
,  // measure 28
0010
0001
0100
0000
,  // measure 29
0010
0100
0010
0000
,  // measure 30
0001
0100
0001
0000
,  // measure 31
0100
0010
0100
0000
,  // measure 32
1000
0100
1000
0000
,  // measure 33
0100
0010
0001
0000
,  // measure 34
0100
0010
0001
0000
,  // measure 35
0100
0010
0100
0000
,  // measure 36
1000
0100
1000
0000
,  // measure 37
0100
0010
0100
0000
,  // measure 38
0001
0100
0010
0000
,  // measure 39
0100
1000
0100
0000
,  // measure 40
1000
1000
0001
0000
,  // measure 41
0100
0100
0010
0000
,  // measure 42
0001
0001
0100
0000
,  // measure 43
0100
0010
0100
0000
,  // measure 44
1000
1000
1000
0000
,  // measure 45
0001
0001
0001
0000
,  // measure 46
0100
0100
0100
0000
,  // measure 47
0010
0010
0010
0000
,  // measure 48
0100
0100
1000
0100
,  // measure 49
0010
0001
0100
0000
,  // measure 50
0100
0010
0001
0100
,  // measure 51
0001
0100
0010
0000
,  // measure 52
0100
1000
0100
1000
,  // measure 53
0100
0000
0100
0010
,  // measure 54
0001
0000
0100
0000
,  // measure 55
0010
0100
0010
0000
,  // measure 56
0100
0100
0100
0000
,  // measure 57
0020
0000
0130
1000
,  // measure 58
0200
0000
0310
0001
,  // measure 59
0200
0000
0310
1000
,  // measure 60
0100
0000
0010
0000
,  // measure 61
0001
0000
0100
0000
,  // measure 62
0020
0000
0000
0030
,  // measure 63
0100
1000
0100
0000
,  // measure 64
1000
0001
1000
0000
,  // measure 65
0100
1000
0100
0000
,  // measure 66
0200
0000
0310
0001
,  // measure 67
0200
0000
1300
0100
,  // measure 68
0010
0100
0010
0001
,  // measure 69
0100
0000
0100
0000
,  // measure 70
0001
0000
0100
0000
,  // measure 71
0010
0000
0100
0000
,  // measure 72
1000
0000
0100
0000
,  // measure 73
1000
0000
0100
0000
,  // measure 74
0100
0000
0010
0000
,  // measure 75
0001
0000
0100
0000
,  // measure 76
1000
0000
0100
0000
,  // measure 77
0010
0000
0001
0000
,  // measure 78
0100
0000
0010
0000
,  // measure 79
0100
0000
1000
0000
,  // measure 80
0100
0000
0001
0000
,  // measure 81
0010
0000
0100
0000
,  // measure 82
1000
0000
0100
0000
,  // measure 83
1000
0000
0100
0000
,  // measure 84
0010
0000
0100
0000
,  // measure 85
0010
0000
0001
0000
,  // measure 86
0200
0000
0000
0000
,  // measure 87
0320
0000
0000
0000
,  // measure 88
0030
0000
0000
0000
;

//---------------dance-single - Wrland---------------
#NOTES:
     dance-single:
     Wrland:
     Medium:
     10:
     0,0,0,0,0:
// measure 0
0000
0000
0000
0000
,  // measure 1
0000
0000
0000
0000
,  // measure 2
0000
0000
0000
0000
,  // measure 3
0000
0000
0000
0000
,  // measure 4
0000
0000
0000
0000
,  // measure 5
0000
0000
0000
0000
,  // measure 6
0000
0000
0000
0000
,  // measure 7
0000
0000
0000
0000
,  // measure 8
1000
0001
1000
1000
,  // measure 9
0001
1000
0001
0000
0100
0000
0010
0000
,  // measure 10
0001
0100
0010
0001
,  // measure 11
0100
0001
0100
0000
0010
0000
0100
0000
,  // measure 12
1000
0100
1000
0100
,  // measure 13
0010
0001
0100
0000
0001
0000
0100
0000
,  // measure 14
0010
0100
1000
0100
,  // measure 15
1000
0100
1000
0000
0100
0000
0010
0000
,  // measure 16
0001
0100
1000
0100
,  // measure 17
0010
0100
0010
0000
0001
0000
0100
0000
,  // measure 18
0010
0100
1000
0100
,  // measure 19
0010
0100
0010
0000
0100
0000
0010
0000
,  // measure 20
0001
0100
0010
0100
,  // measure 21
1000
0100
1000
0000
0100
0000
0010
0000
,  // measure 22
0001
0100
0010
0001
,  // measure 23
0100
0001
0100
0000
0010
0000
0100
0000
,  // measure 24
0010
0000
0100
0000
0001
0100
0001
0200
,  // measure 25
0000
0000
0300
0000
0010
0100
0000
0010
,  // measure 26
0100
0001
0100
0010
,  // measure 27
0100
0000
0000
0100
0000
0000
0100
0000
1000
0000
0000
0000
0000
0000
0000
0000
,  // measure 28
0100
0000
0010
0000
0100
0010
0001
0020
,  // measure 29
0000
0000
0000
0030
1000
0100
0000
1000
,  // measure 30
0100
0010
0001
0100
,  // measure 31
0010
0000
0000
0001
0000
0000
0100
0000
0010
0000
0000
0000
0000
0000
0000
0000
,  // measure 32
0100
0000
0010
0000
0001
0100
0001
0200
,  // measure 33
0000
0000
0000
0300
0100
0010
0000
0001
,  // measure 34
0100
0010
0100
1000
,  // measure 35
0100
0000
0000
0100
0000
0000
1000
0000
0100
0000
0000
0000
0100
0000
0000
0000
,  // measure 36
0010
0000
0001
0000
0100
0001
0100
0002
,  // measure 37
0000
0000
0000
0003
0010
0000
0100
0001
,  // measure 38
0100
1000
0100
1000
,  // measure 39
0100
0000
0000
0010
0000
0000
0001
0000
0000
0000
0000
0000
0000
0000
0000
0000
,  // measure 40
0100
0000
0010
0002
0000
0003
0100
0000
,  // measure 41
0010
0000
0001
0020
0000
0030
0100
0000
,  // measure 42
0010
0000
0100
2000
0000
3000
0100
0000
,  // measure 43
1000
0000
0000
0100
0000
0000
1000
0000
0100
0000
0000
0000
0000
0000
0000
0000
,  // measure 44
0100
0000
1000
0200
0000
0300
0100
0000
,  // measure 45
0010
0000
0001
0200
0000
0300
0010
0000
,  // measure 46
0001
0000
0100
0002
0000
0003
0100
0000
,  // measure 47
0010
0000
0000
0100
0000
0000
0010
0000
0001
0000
0000
0000
0100
0000
0000
0000
,  // measure 48
0010
0000
0001
0200
0000
0300
0010
0000
,  // measure 49
0100
0000
1000
0200
0000
0300
0100
0000
,  // measure 50
0010
0000
0001
0200
0000
0300
0010
0100
,  // measure 51
0010
0000
0000
0001
0000
0000
0100
0000
0010
0000
0000
0000
0000
0000
0000
0000
,  // measure 52
0100
0000
0010
0200
0000
0300
0100
0000
,  // measure 53
1000
0000
0100
2000
0000
3000
0100
0010
,  // measure 54
0001
0000
0100
0010
0100
0000
0010
0000
,  // measure 55
0001
0000
0000
0001
0000
0000
1000
0000
1000
0000
0000
1000
0000
0000
1000
0000
,  // measure 56
0001
0000
0000
1000
0000
0000
0001
0000
2000
0000
3000
0000
0000
0000
0100
0000
,  // measure 57
2000
0000
0000
0000
3000
0000
0100
0000
0010
0000
0000
0001
0000
0000
0100
0000
,  // measure 58
0020
0000
0030
0000
0100
0000
0000
0000
0010
0000
0000
0001
0000
0000
0100
0000
,  // measure 59
0010
0000
0000
0100
0000
0000
1000
0000
0200
0000
0300
0000
1000
0000
0000
0000
,  // measure 60
0100
1000
0100
1000
0200
0300
2000
3000
,  // measure 61
0020
0030
0200
0300
0020
0030
0002
0003
,  // measure 62
0100
0000
0000
0100
0000
0000
0100
0000
0010
0000
0000
0000
0001
0000
0000
0000
,  // measure 63
0001
0000
0000
0001
0000
0000
0001
0000
0100
0000
0000
0000
0001
0000
0000
0000
,  // measure 64
0100
0000
0000
0001
0000
0000
0100
0000
0002
0000
0003
0000
0010
0000
0001
0000
,  // measure 65
0100
0000
0000
1000
0000
0000
0100
0000
1000
0000
0000
0100
0000
0000
0010
0000
,  // measure 66
0002
0003
0100
0000
0010
0000
0001
0000
,  // measure 67
0100
0000
0000
0010
0000
0000
0100
0000
0020
0000
0030
0000
0001
0000
0000
0000
,  // measure 68
0100
0010
0100
0010
0200
0300
2000
3000
,  // measure 69
0200
0300
2000
3000
0200
0300
0020
0030
,  // measure 70
0002
0003
1000
0000
0100
0000
1000
0000
,  // measure 71
0100
0010
0001
0000
0100
0000
0010
0000
,  // measure 72
0001
0100
0010
0100
,  // measure 73
1000
0100
1000
0000
0100
0000
0010
0000
,  // measure 74
0001
0100
0010
0001
,  // measure 75
0100
0001
0100
0000
0010
0000
0100
0000
,  // measure 76
1000
0100
1000
0100
,  // measure 77
0010
0100
0010
0000
0001
0000
0100
0000
,  // measure 78
0010
0100
1000
0100
,  // measure 79
0001
0100
0001
0000
0010
0000
0100
0000
,  // measure 80
1000
0100
1000
0100
,  // measure 81
0010
0100
0010
0000
0001
0000
0100
0000
,  // measure 82
0010
0100
1000
0100
,  // measure 83
1000
0100
1000
0000
0100
0000
0010
0000
,  // measure 84
0001
0100
0010
0100
,  // measure 85
0010
0100
0010
0000
0001
0000
0100
0000
,  // measure 86
0010
0000
0000
0000
0100
0000
0010
0000
0001
0000
0000
0100
0000
0000
0010
0000
,  // measure 87
0100
0000
0000
0000
1000
0000
0000
0000
0100
0000
0000
1000
0000
0000
0100
0000
,  // measure 88
1000
0000
0000
0000
;

//---------------dance-single - Wrland---------------
#NOTES:
     dance-single:
     Wrland:
     Hard:
     13:
     0,0,0,0,0:
// measure 0
0000
0000
0000
0000
,  // measure 1
0000
0000
0000
0000
,  // measure 2
0000
0000
0000
0000
,  // measure 3
0000
0000
0000
0000
,  // measure 4
0000
0000
0000
0000
,  // measure 5
0000
0000
0000
0000
,  // measure 6
0000
0000
0000
0000
,  // measure 7
0000
0000
0000
0000
,  // measure 8
1000
0000
0100
0000
1000
0000
0000
0000
0100
0000
0000
1000
0000
0000
0100
0000
,  // measure 9
1000
0000
0100
0000
0010
0000
0000
0000
0001
0000
0000
0100
0000
0000
0001
0000
,  // measure 10
0100
0000
0010
0000
0100
0000
0000
0000
0010
0000
0000
0100
0000
0000
0010
0000
,  // measure 11
0001
0000
0100
0000
0001
0000
0000
0000
0100
0000
0000
0001
0000
0000
0100
0000
,  // measure 12
0010
0000
0100
0000
0010
0000
0000
0000
0100
0000
0000
1000
0000
0000
0100
0000
,  // measure 13
1000
0000
0100
0000
0010
0000
0000
0000
0001
0000
0000
0100
0000
0000
0001
0000
,  // measure 14
0100
0000
0010
0000
0100
0000
0000
0000
0010
0000
0000
0100
0000
0000
0010
0000
,  // measure 15
0001
0000
0100
0000
0001
0000
0000
0000
0100
0000
0000
0001
0000
0000
0100
0000
,  // measure 16
0010
0000
0100
0000
1000
0000
0000
0000
0100
0000
0000
1000
0000
0000
0100
0000
,  // measure 17
1000
0000
0100
0000
1000
0000
0000
0000
0100
0000
0000
0010
0000
0000
0001
0000
,  // measure 18
0100
0000
0001
0000
0100
0000
0000
0000
0010
0000
0000
0100
0000
0000
0010
0000
,  // measure 19
0001
0000
0100
0000
0001
0000
0000
0000
0100
0000
0000
0010
0000
0000
0100
0000
,  // measure 20
0010
0000
0100
0000
0010
0000
0000
0000
0100
0000
0000
1000
0000
0000
0100
0000
,  // measure 21
1000
0000
0100
0000
0010
0000
0000
0000
0001
0000
0000
0100
0000
0000
0001
0000
,  // measure 22
0100
0000
0010
0000
0100
0000
0000
0000
0010
0000
0000
0100
0000
0000
1000
0000
,  // measure 23
0100
0000
1000
0100
0010
0000
0001
0000
,  // measure 24
0200
0000
0300
0000
0010
0100
0010
0001
,  // measure 25
0200
0300
0010
0000
0100
0010
0100
0001
,  // measure 26
0200
0000
0300
0000
0100
1000
0100
1000
,  // measure 27
0100
0000
0000
0010
0000
0000
0100
0000
0010
0000
0000
0000
0001
0000
0000
0000
,  // measure 28
0200
0000
0300
0000
0010
0100
0010
0001
,  // measure 29
0200
0300
0010
0000
0100
0010
0001
0100
,  // measure 30
0020
0000
0000
0030
0100
0000
0000
0000
0010
0000
0000
0000
0100
0000
0000
0000
,  // measure 31
0010
0000
0000
0100
0000
0000
0010
0000
0001
0000
0000
0000
0100
0000
0000
0000
,  // measure 32
0020
0000
0030
0000
0100
1000
0100
2000
,  // measure 33
0000
3000
0000
0000
0100
0000
0000
0000
0010
0000
0001
0000
0100
0000
0001
0000
,  // measure 34
0200
0000
0300
0000
0010
0100
0010
0000
,  // measure 35
0001
0000
0000
0100
0000
0000
0001
0000
0100
0000
0000
0000
0010
0000
0000
0000
,  // measure 36
0200
0000
0300
0000
0100
1000
0100
1000
,  // measure 37
0200
0300
0010
0000
0100
0020
0030
0001
,  // measure 38
0200
0300
0010
0001
0200
0300
0010
0000
,  // measure 39
0001
0000
0000
0100
0000
0000
0001
0000
0100
0000
0000
0000
0010
0000
0000
0000
,  // measure 40
0200
0300
1000
0200
0000
0300
0010
0000
,  // measure 41
0200
0300
0001
0200
0000
0300
0010
0000
,  // measure 42
0200
0300
0010
0200
0000
0300
0010
1000
,  // measure 43
0001
0000
0000
0100
0000
0000
1000
0000
0200
0000
0300
0000
0010
0000
0000
0000
,  // measure 44
0200
0000
0000
0000
0300
0000
0020
0000
0000
0030
0000
0000
0001
0000
0000
0000
,  // measure 45
0200
0000
0000
0300
0000
0000
0020
0000
0000
0000
0030
0000
0100
0000
0000
0000
,  // measure 46
0020
0000
0000
0000
0030
0000
0200
0000
0000
0300
0000
0000
0010
0000
1000
0000
,  // measure 47
0001
0000
0100
1000
0100
0000
1000
0000
,  // measure 48
0200
0000
0000
0300
0000
0000
0200
0000
0000
0000
0300
0000
0010
0000
0000
0000
,  // measure 49
0002
0000
0003
0000
0000
0000
0002
0000
0000
0003
0000
0000
0100
0000
0000
0000
,  // measure 50
0020
0000
0030
0200
0000
0300
0010
0001
,  // measure 51
0100
0000
0000
0010
0000
0000
0100
0000
0010
0000
0000
0000
0001
0000
0000
0000
,  // measure 52
0200
0000
0000
0300
0000
0000
0200
0000
0000
0000
0300
0000
1000
0000
0000
0000
,  // measure 53
0100
0000
0010
0200
0000
0300
0010
0001
,  // measure 54
0100
0000
0001
0010
0100
0000
0010
0000
,  // measure 55
0100
0000
0000
0010
0000
0000
0001
0000
0100
0000
0000
0000
0001
0000
0000
0000
,  // measure 56
0100
0000
0000
0001
0000
0000
0100
0000
0001
0000
0000
0000
0100
0000
0010
0100
,  // measure 57
0020
0000
0030
0000
0000
0000
0100
0000
1000
0000
0000
0100
0000
0000
1000
0000
,  // measure 58
0200
0000
0300
0000
0000
0000
0100
0000
0010
0000
0000
0001
0000
0000
0100
0000
,  // measure 59
0001
0000
0000
0010
0000
0000
0100
0000
0020
0000
0030
0000
0001
0000
0000
0000
,  // measure 60
0100
0000
0001
0000
0100
0000
0010
0000
0100
0000
0000
0010
0000
0000
0100
0000
,  // measure 61
2000
3000
0200
0300
2000
3000
0200
0300
,  // measure 62
0100
0000
0010
0001
0100
0010
0100
0010
,  // measure 63
0001
0000
0000
0100
0000
0000
0001
0000
0200
0000
0300
0000
0020
0000
0030
0000
,  // measure 64
0100
0000
0000
0010
0000
0000
0001
0000
0200
0000
0300
0000
0010
0000
0100
0010
,  // measure 65
0100
0000
0000
0010
0000
0000
0100
0000
0010
0000
0000
0001
0000
0000
0100
0000
,  // measure 66
0020
0000
0030
0000
0100
0000
1000
0000
0100
0000
0000
1000
0000
0000
0100
0000
,  // measure 67
0010
0000
0000
0001
0000
0000
0100
0000
0020
0000
0030
0000
0100
0000
0000
0000
,  // measure 68
0001
0000
0100
0000
0010
0000
0100
0000
0010
0000
0000
0100
0000
0000
1000
0000
,  // measure 69
0200
0300
2000
3000
0020
0030
0001
0000
,  // measure 70
0100
0000
0001
0000
0100
0000
0000
0000
0001
0000
0000
0100
0000
0000
0010
0000
,  // measure 71
0100
0000
0010
0000
0100
0000
0000
0000
1000
0000
0000
0100
0000
0000
1000
0000
,  // measure 72
0100
0000
0010
0000
0100
0000
0000
0000
0001
0000
0000
0100
0000
0000
0001
0000
,  // measure 73
0100
0000
0010
0000
0100
0000
0000
0000
1000
0000
0000
0100
0000
0000
1000
0000
,  // measure 74
0100
0000
0010
0000
0100
0000
0000
0000
0010
0000
0000
0100
0000
0000
0010
0000
,  // measure 75
0001
0000
0100
0000
0001
0000
0000
0000
0100
0000
0000
0010
0000
0000
0100
0000
,  // measure 76
0010
0000
0100
0000
0010
0000
0000
0000
0001
0000
0000
0100
0000
0000
0001
0000
,  // measure 77
0100
0000
0010
0000
0100
0000
0000
0000
1000
0000
0000
0100
0000
0000
1000
0000
,  // measure 78
0100
0000
0010
0000
0001
0000
0000
0000
0100
0000
0000
0100
0000
0000
0010
0000
,  // measure 79
0100
0000
0010
0000
0001
0000
0000
0000
0001
0000
0000
0001
0000
0000
0001
0000
,  // measure 80
0100
0000
0010
0000
0100
0000
0000
0000
1000
0000
0000
1000
0000
0000
1000
0000
,  // measure 81
0100
0000
1000
0000
0100
0000
0000
0000
0100
0000
0000
0100
0000
0000
0010
0000
,  // measure 82
0001
0000
0100
0000
0001
0000
0000
0000
0100
0000
0000
0010
0000
0000
0010
0000
,  // measure 83
0100
0000
0010
0000
0001
0000
0000
0000
0100
0000
0000
0100
0000
0000
0010
0000
,  // measure 84
0001
0000
0100
0000
0001
0000
0000
0000
0100
0000
0000
0100
0000
0000
0010
0000
,  // measure 85
0100
0000
0010
0000
0001
0000
0000
0000
0100
0000
0000
0010
0000
0000
0100
0000
,  // measure 86
0010
0000
0001
0000
0100
0000
0000
0000
0100
0000
0000
0100
0000
0000
0100
0000
,  // measure 87
0010
0000
0001
0000
0100
0000
0000
0000
0010
0000
0000
0010
0000
0000
0010
0000
,  // measure 88
0001
1000
0100
1000
0100
0000
0000
0000
0000
0000
0000
0000
0000
0000
0000
0000
;
