#VERSION:0.83;
#TITLE:Aleph-0;
#SUBTITLE:;
#ARTIST:LeaF;
#TITLETRANSLIT:;
#SUBTITLETRANSLIT:;
#ARTISTTRANSLIT:;
#GENRE:BPM-Core;
#CREDIT:LeaF;
#MUSIC:Aleph-0.ogg;
#BANNER:Aleph-0.png;
#BACKGROUND:BG.png;
#JACKET:Aleph-0-jacket.png;
#DISCIMAGE:;
#CDIMAGE:;
#SELECTABLE:YES;
#LYRICSPATH:;
#CDTITLE:BMS OF FIGHTERS.png;
#SAMPLESTART:59.888;
#SAMPLELENGTH:15.000;
#BPMS:0.000000=10.310000,
1.000000=125.000000,
6.000000=250.000000,
77.000000=140.000000,
110.000000=125.000000,
118.000000=250.000000,
119.000000=251.000000,
120.000000=252.000000,
121.000000=253.000000,
122.000000=254.000000,
123.000000=255.000000,
124.000000=256.000000,
125.000000=257.000000,
126.000000=258.000000,
127.000000=259.000000,
128.000000=260.000000,
129.000000=261.000000,
130.000000=262.000000,
131.000000=263.000000,
132.000000=264.000000,
133.000000=265.000000,
134.000000=266.000000,
135.000000=267.000000,
136.000000=268.000000,
137.000000=269.000000,
138.000000=270.000000,
139.000000=271.000000,
140.000000=272.000000,
141.000000=273.000000,
142.000000=274.000000,
143.000000=275.000000,
144.000000=276.000000,
145.000000=277.000000,
146.000000=278.000000,
147.000000=279.000000,
148.000000=280.000000,
149.000000=281.000000,
150.000000=282.000000,
151.000000=283.000000,
152.000000=284.000000,
153.000000=285.000000,
154.000000=286.000000,
155.000000=287.000000,
156.000000=288.000000,
157.000000=289.000000,
158.000000=290.000000,
159.000000=291.000000,
160.000000=292.000000,
161.000000=293.000000,
162.000000=294.000000,
163.000000=295.000000,
164.000000=296.000000,
165.000000=297.000000,
166.000000=298.000000,
167.000000=299.000000,
168.000000=300.000000,
169.000000=301.000000,
170.000000=302.000000,
171.000000=303.000000,
172.000000=304.000000,
173.000000=305.000000,
174.000000=306.000000,
175.000000=307.000000,
176.000000=308.000000,
177.000000=309.000000,
178.000000=310.000000,
179.000000=311.000000,
180.000000=312.000000,
181.000000=313.000000,
182.000000=314.000000,
183.000000=315.000000,
184.000000=316.000000,
185.000000=317.000000,
186.000000=318.000000,
187.000000=319.000000,
188.000000=320.000000,
189.000000=321.000000,
190.000000=322.000000,
191.000000=323.000000,
192.000000=324.000000,
193.000000=325.000000,
194.000000=326.000000,
195.000000=327.000000,
196.000000=328.000000,
197.000000=329.000000,
198.000000=330.000000,
199.000000=331.000000,
200.000000=332.000000,
201.000000=333.000000,
202.000000=334.000000,
203.000000=335.000000,
204.000000=336.000000,
205.000000=337.000000,
206.000000=338.000000,
207.000000=339.000000,
208.000000=340.000000,
209.000000=341.000000,
210.000000=342.000000,
211.000000=343.000000,
212.000000=344.000000,
213.000000=345.000000,
214.000000=346.000000,
215.000000=347.000000,
216.000000=348.000000,
217.000000=349.000000,
218.000000=350.000000,
219.000000=351.000000,
220.000000=352.000000,
221.000000=353.000000,
222.000000=354.000000,
223.000000=355.000000,
224.000000=356.000000,
225.000000=357.000000,
226.000000=358.000000,
227.000000=359.000000,
228.000000=360.000000,
229.000000=361.000000,
230.000000=362.000000,
231.000000=363.000000,
232.000000=364.000000,
233.000000=365.000000,
234.000000=366.000000,
235.000000=367.000000,
236.000000=368.000000,
237.000000=369.000000,
238.000000=370.000000,
239.000000=371.000000,
240.000000=372.000000,
241.000000=373.000000,
242.000000=374.000000,
243.000000=375.000000,
244.000000=376.000000,
245.000000=377.000000,
246.000000=378.000000,
247.000000=379.000000,
248.000000=380.000000,
249.000000=381.000000,
250.000000=382.000000,
251.000000=383.000000,
252.000000=384.000000,
253.000000=385.000000,
254.000000=386.000000,
255.000000=387.000000,
256.000000=388.000000,
257.000000=389.000000,
258.000000=390.000000,
259.000000=391.000000,
260.000000=392.000000,
261.000000=393.000000,
262.000000=394.000000,
263.000000=395.000000,
264.000000=396.000000,
265.000000=397.000000,
266.000000=398.000000,
267.000000=399.000000,
268.000000=50.000000,
270.000000=800.000000,
286.000000=62.500000,
288.000000=250.000000,
312.000000=125.000000,
352.000000=250.000000,
360.000000=125.000000,
362.000000=250.000000,
378.000000=125.000000,
380.000000=250.000000,
388.000000=125.000000,
390.000000=250.000000,
406.000000=125.000000
;
#STOPS:44.000000=0.720000,
109.000000=0.429000,
110.000000=1.800000,
270.000000=0.037000,
270.500000=0.038000,
271.000000=0.038000,
271.500000=0.038000,
272.000000=0.038000,
272.500000=0.038000,
273.000000=0.038000,
273.500000=0.038000,
274.000000=0.038000,
274.500000=0.038000,
275.000000=0.038000,
275.500000=0.038000,
276.000000=0.038000,
276.500000=0.038000,
277.000000=0.038000,
277.500000=0.038000,
278.000000=0.038000,
278.500000=0.038000,
279.000000=0.038000,
279.500000=0.038000,
280.000000=0.038000,
280.500000=0.038000,
281.000000=0.038000,
281.500000=0.038000,
282.000000=0.038000,
282.500000=0.038000,
283.000000=0.038000,
283.500000=0.038000,
284.000000=0.038000,
284.500000=0.038000,
285.000000=0.038000,
285.500000=0.038000,
291.000000=0.720000,
296.000000=0.240000,
303.000000=0.720000,
308.000000=0.240000
;
#WARPS:;
#DELAYS:;
#SPEEDS:;
#SCROLLS:;
#TICKCOUNTS:;
#TIMESIGNATURES:;
#LABELS:;
#COMBOS:;
#FAKES:;
#BGCHANGES:0.000=Aleph-0.avi=0.000=0=0=0=StretchNoLoop====,
99999=-nosongbg-=1.000=0=0=0 // don't automatically add -songbackground-
;
#FGCHANGES:;
#ATTACKS:;
#DISPLAYBPM:140.000:399.000;
#TAGS:DMCA;

//---------------dance-single - Wrland---------------
#NOTEDATA:;
#CHARTNAME:;
#CHARTSTYLE:Pad;
#CREDIT:Wrland;
#STEPSTYPE:dance-single;
#DESCRIPTION:Wrland;
#DIFFICULTY:Beginner;
#METER:5;
#METERF:5;
#RADARVALUES:0,0,0,0,0;
#NOTES:
// measure 0
0000
0000
0000
0000
,  // measure 1
0000
0000
0000
0000
,  // measure 2
0000
0000
0000
0000
,  // measure 3
0000
0000
0000
0000
,  // measure 4
0100
0000
0000
0000
,  // measure 5
0010
0000
0000
0000
,  // measure 6
0100
0000
0000
0000
,  // measure 7
1000
0000
0000
0000
,  // measure 8
1000
0000
0000
0000
,  // measure 9
0001
0000
0000
0000
,  // measure 10
0010
0000
0000
0000
,  // measure 11
0010
0100
0000
0000
,  // measure 12
0000
0100
0000
0000
,  // measure 13
0000
0100
0000
0000
,  // measure 14
0000
0001
0000
0000
,  // measure 15
0000
0100
0000
0000
,  // measure 16
0000
1000
0000
0000
,  // measure 17
0000
0001
0000
0000
,  // measure 18
0000
0010
0000
0000
,  // measure 19
0000
0000
0000
0000
,  // measure 20
0000
0000
0000
0000
,  // measure 21
0000
0000
0000
0000
,  // measure 22
0000
0000
0000
0000
,  // measure 23
0000
2000
0000
0000
,  // measure 24
0000
0000
0000
0000
,  // measure 25
3000
0002
0000
0000
,  // measure 26
0000
0000
0000
0000
,  // measure 27
0003
0000
0000
0000
,  // measure 28
0000
0000
0000
0000
,  // measure 29
0000
0000
0100
0000
,  // measure 30
0000
0000
0100
0000
,  // measure 31
0000
0000
0100
0000
,  // measure 32
0000
0000
0200
0000
,  // measure 33
0300
0000
0010
0000
,  // measure 34
0000
0000
0001
0000
,  // measure 35
0000
0000
0100
0000
,  // measure 36
0000
0000
0200
0000
,  // measure 37
0300
0000
0001
0000
,  // measure 38
0000
0000
1000
0000
,  // measure 39
0000
0000
0100
0000
,  // measure 40
0000
0000
0002
0000
,  // measure 41
0003
0000
0100
0000
,  // measure 42
0000
0000
0001
0000
,  // measure 43
0000
0000
0010
0000
,  // measure 44
0000
0000
2000
0000
,  // measure 45
3000
0000
0100
0000
,  // measure 46
0000
0000
0100
0000
,  // measure 47
0000
0000
0001
0000
,  // measure 48
0000
0000
0200
0000
,  // measure 49
0300
0000
0010
0000
,  // measure 50
0000
0000
0100
0000
,  // measure 51
0000
0000
0100
0000
,  // measure 52
0000
0000
0002
0000
,  // measure 53
0003
0000
1000
0000
,  // measure 54
0000
0000
1000
0000
,  // measure 55
0000
0000
0010
0000
,  // measure 56
0000
0000
0200
0000
,  // measure 57
0300
0000
0010
0000
,  // measure 58
0000
0000
0010
0000
,  // measure 59
0000
0000
0001
0000
,  // measure 60
0000
0000
0200
0000
,  // measure 61
0000
0300
0010
0000
,  // measure 62
0000
0010
0000
0000
,  // measure 63
0010
0000
0000
0010
,  // measure 64
0000
0000
0100
0000
,  // measure 65
0000
0100
0000
0000
,  // measure 66
0100
0000
0000
0000
,  // measure 67
0220
0000
0000
0000
0000
0000
0000
0000
0000
0000
0000
0000
0000
0000
0000
0000
0000
0330
0000
0000
0000
0000
0000
0000
2002
0000
0000
0000
0000
0000
0000
0000
0000
0000
0000
0000
0000
0000
0000
0000
0000
0000
0000
0000
0000
0000
0000
0000
,  // measure 68
0000
0000
0000
0000
,  // measure 69
0000
0000
0000
0000
,  // measure 70
0000
0000
0000
0000
,  // measure 71
0000
0000
0000
3003
,  // measure 72
0100
0000
0000
0001
0000
0000
0100
0000
,  // measure 73
0000
0000
0010
0000
0000
1000
0000
0000
,  // measure 74
1000
0000
0000
0000
,  // measure 75
0100
0000
0000
0001
0000
0000
0100
0000
,  // measure 76
0000
0000
0001
0000
0000
1000
0000
0000
,  // measure 77
0001
0000
0000
0000
,  // measure 78
0000
0000
0000
0000
,  // measure 79
0200
0000
0000
0000
,  // measure 80
0310
0000
0001
0000
,  // measure 81
1000
0000
0100
0000
,  // measure 82
1000
0000
0100
0000
,  // measure 83
0010
0000
0001
0000
,  // measure 84
0100
0000
1000
0000
,  // measure 85
0100
0000
0010
0000
,  // measure 86
0001
0000
0100
0000
,  // measure 87
1000
0000
0100
0000
,  // measure 88
0010
0000
0000
0000
,  // measure 89
0010
0000
0000
0000
,  // measure 90
0200
0000
0000
0300
0010
0000
0000
0000
,  // measure 91
1000
0000
0100
0000
,  // measure 92
0001
0000
0100
0000
,  // measure 93
1000
0000
0010
0000
,  // measure 94
0100
0000
0000
0000
0002
0000
0000
0003
,  // measure 95
1000
0000
0000
0000
,  // measure 96
1000
0000
0000
0000
,  // measure 97
0002
0000
0000
0003
0100
0000
0000
0000
,  // measure 98
1000
0000
0010
0000
,  // measure 99
1000
0000
0010
0000
,  // measure 100
0100
0000
0100
0000
,  // measure 101
0100
0000
0002
0000
,  // measure 102
2003
0000
0000
0000
,  // measure 103
0000
0000
0000
0000
,  // measure 104
0000
0000
0000
0000
,  // measure 105
0000
0000
0000
0000
,  // measure 106
3001
0000
0000
0000
;

//---------------dance-single - Wrland---------------
#NOTEDATA:;
#CHARTNAME:;
#CHARTSTYLE:Pad;
#CREDIT:Wrland;
#STEPSTYPE:dance-single;
#DESCRIPTION:Wrland;
#DIFFICULTY:Easy;
#METER:7;
#METERF:7;
#RADARVALUES:0,0,0,0,0;
#NOTES:
// measure 0
0000
0000
0000
0000
,  // measure 1
0000
0000
0000
0000
,  // measure 2
0000
0000
0000
0000
,  // measure 3
0000
0000
0000
0000
,  // measure 4
0100
0000
0100
0000
,  // measure 5
0010
0000
0001
0000
,  // measure 6
0100
0000
0100
0000
,  // measure 7
1000
0000
0100
0000
,  // measure 8
1000
0000
0100
0000
,  // measure 9
0001
0000
0100
0000
,  // measure 10
0010
0000
0100
0000
,  // measure 11
0010
0100
0000
1000
,  // measure 12
0000
0100
0000
1000
,  // measure 13
0000
0100
0000
1000
,  // measure 14
0000
0100
0000
0001
,  // measure 15
0000
0100
0000
0010
,  // measure 16
0000
0001
0000
0100
,  // measure 17
0000
0001
0000
0100
,  // measure 18
0000
0010
0000
0000
,  // measure 19
0000
0000
0000
0000
,  // measure 20
0000
0000
0000
0000
,  // measure 21
0000
0000
0000
0000
,  // measure 22
0000
0000
0000
0000
,  // measure 23
0000
2000
0000
0000
,  // measure 24
0000
0000
0000
0000
,  // measure 25
3000
0002
0000
0000
,  // measure 26
0000
0000
0000
0000
,  // measure 27
0003
0000
0000
0000
,  // measure 28
0000
0000
0000
0000
,  // measure 29
0000
0000
0100
0000
,  // measure 30
0100
0000
0100
0000
,  // measure 31
1000
0000
0100
0000
,  // measure 32
1000
0000
0200
0000
,  // measure 33
0300
0000
0010
0000
,  // measure 34
0010
0000
0001
0000
,  // measure 35
0010
0000
0100
0000
,  // measure 36
1000
0000
0200
0000
,  // measure 37
0300
0000
0001
0000
,  // measure 38
1000
0000
0001
0000
,  // measure 39
1000
0000
0100
0000
,  // measure 40
1000
0000
0002
0000
,  // measure 41
0003
0000
0100
0000
,  // measure 42
0010
0000
0001
0000
,  // measure 43
0100
0000
0010
0000
,  // measure 44
0100
0000
2000
0000
,  // measure 45
3000
0000
0100
0000
,  // measure 46
1000
0000
0100
0000
,  // measure 47
1000
0000
0100
0000
,  // measure 48
0001
0000
0200
0000
,  // measure 49
0300
0000
0010
0000
,  // measure 50
0001
0000
0100
0000
,  // measure 51
0010
0000
0100
0000
,  // measure 52
1000
0000
0002
0000
,  // measure 53
0003
0000
1000
0000
,  // measure 54
0100
0000
1000
0000
,  // measure 55
0100
0000
0010
0000
,  // measure 56
0001
0000
0200
0000
,  // measure 57
0300
0000
0010
0000
,  // measure 58
0100
0000
0010
0000
,  // measure 59
0001
0000
0100
0000
,  // measure 60
0010
0000
0200
0000
,  // measure 61
0000
0300
0010
0000
,  // measure 62
0000
0010
0000
0000
,  // measure 63
0010
0000
0000
0010
,  // measure 64
0000
0000
0100
0000
,  // measure 65
0000
0100
0000
0000
,  // measure 66
0100
0000
0000
0000
,  // measure 67
0220
0000
0000
0000
0000
0000
0000
0000
0000
0000
0000
0000
0000
0000
0000
0000
0000
0330
0000
0000
0000
0000
0000
0000
2002
0000
0000
0000
0000
0000
0000
0000
0000
0000
0000
0000
0000
0000
0000
0000
0000
0000
0000
0000
0000
0000
0000
0000
,  // measure 68
0000
0000
0000
0000
,  // measure 69
0000
0000
0000
0000
,  // measure 70
0000
0000
0000
0000
,  // measure 71
0000
0000
0000
3003
,  // measure 72
0100
0000
0000
0001
0000
0000
0100
0000
,  // measure 73
0000
0000
0010
0000
0000
1000
0000
0000
,  // measure 74
1000
0000
0000
0000
,  // measure 75
0100
0000
0000
0001
0000
0000
0100
0000
,  // measure 76
0000
0000
0001
0000
0000
1000
0000
0000
,  // measure 77
0001
0000
0000
0000
,  // measure 78
0000
0000
0000
0000
,  // measure 79
0200
0000
0000
0000
,  // measure 80
0310
0000
0001
0000
,  // measure 81
1000
0000
0100
0000
,  // measure 82
1000
0000
0100
0000
,  // measure 83
0010
0000
0001
0000
,  // measure 84
0100
0000
1000
0000
,  // measure 85
0100
0000
0010
0000
,  // measure 86
0001
0000
0100
0000
,  // measure 87
1000
0000
0100
0000
,  // measure 88
0010
0000
0100
0000
,  // measure 89
0010
0000
0001
0000
,  // measure 90
0200
0000
0000
0300
0010
0000
0100
0000
,  // measure 91
0010
0001
0100
0010
,  // measure 92
0100
1000
0100
0010
,  // measure 93
0001
0100
0010
0100
,  // measure 94
1000
0000
0100
0000
0002
0000
0000
0003
,  // measure 95
1000
0000
0100
0000
,  // measure 96
1000
0000
0100
0000
,  // measure 97
0002
0000
0000
0003
0100
0000
0010
0000
,  // measure 98
0001
0100
0010
0100
,  // measure 99
1000
0100
0010
0001
,  // measure 100
0100
0010
0100
1000
,  // measure 101
0100
0010
0002
0000
,  // measure 102
2003
0000
0000
0000
,  // measure 103
0000
0000
0000
0000
,  // measure 104
0000
0000
0000
0000
,  // measure 105
0000
0000
0000
0000
,  // measure 106
3001
0000
0000
0000
;

//---------------dance-single - Wrland---------------
#NOTEDATA:;
#CHARTNAME:;
#CHARTSTYLE:Pad;
#CREDIT:Wrland;
#STEPSTYPE:dance-single;
#DESCRIPTION:Wrland;
#DIFFICULTY:Medium;
#METER:10;
#METERF:10;
#RADARVALUES:0,0,0,0,0;
#NOTES:
// measure 0
0000
0000
0000
0000
,  // measure 1
0000
0000
1000
0001
,  // measure 2
1000
0000
0100
0000
1000
0100
1000
0100
,  // measure 3
1000
0100
0010
0001
0100
0001
0100
0010
,  // measure 4
0100
0010
0100
1000
,  // measure 5
0100
0000
0000
1000
0000
0000
0100
0000
,  // measure 6
1000
0100
0010
0001
,  // measure 7
0100
0000
0101
0000
,  // measure 8
0001
0100
0010
0100
,  // measure 9
1000
0000
0000
0100
0000
0000
1000
0000
,  // measure 10
0100
0010
0001
0100
,  // measure 11
1001
0100
0010
0001
,  // measure 12
0100
0000
0010
0000
0000
0100
0000
0000
,  // measure 13
1000
0100
1000
0100
,  // measure 14
0010
0001
0000
0100
,  // measure 15
0000
0100
1000
0100
,  // measure 16
0010
0000
0001
0000
0000
0100
0000
0000
,  // measure 17
1000
0100
0010
0001
,  // measure 18
0100
0010
0000
0100
,  // measure 19
0000
0020
0000
0000
,  // measure 20
0230
2300
0000
0000
,  // measure 21
3200
2300
0000
0000
,  // measure 22
3200
0302
0000
0000
,  // measure 23
0203
0320
0000
0032
,  // measure 24
0000
0203
0000
2300
,  // measure 25
0000
3200
0000
2300
,  // measure 26
3200
2300
0000
0000
,  // measure 27
0000
3001
0000
0000
,  // measure 28
0000
0000
0000
0000
,  // measure 29
0000
0000
0100
0010
,  // measure 30
0100
0010
0001
0100
,  // measure 31
0010
0000
0100
1000
,  // measure 32
0100
1000
1100
1100
,  // measure 33
1100
1100
0100
0010
,  // measure 34
0001
0100
0001
0100
,  // measure 35
0001
0000
0100
0010
,  // measure 36
0001
0100
0101
0101
,  // measure 37
0101
0101
0010
0100
,  // measure 38
0010
0001
0100
0010
,  // measure 39
0100
0000
0100
0010
,  // measure 40
0001
0100
0110
0110
,  // measure 41
0110
0110
1000
0100
,  // measure 42
1000
0100
1000
0100
,  // measure 43
1000
0000
0100
0010
,  // measure 44
0001
0100
0101
0101
,  // measure 45
0101
0101
0010
0100
,  // measure 46
1000
0100
0010
0001
,  // measure 47
0100
0010
0100
1000
,  // measure 48
0010
0100
0011
0110
,  // measure 49
1100
0110
0011
0100
,  // measure 50
1000
0100
0010
0001
,  // measure 51
0100
0100
0010
0100
,  // measure 52
0010
0001
0101
1010
,  // measure 53
0110
1001
1100
0100
,  // measure 54
0010
0001
0100
0010
,  // measure 55
0100
0100
0010
0100
,  // measure 56
0010
0001
0110
1100
,  // measure 57
0110
0011
1100
0100
,  // measure 58
0010
0001
0100
0010
,  // measure 59
0100
1000
0100
0010
,  // measure 60
0001
0100
0010
0100
,  // measure 61
1000
0100
0010
0002
,  // measure 62
0000
2003
0000
0000
,  // measure 63
3002
0000
0000
2003
,  // measure 64
0000
0000
3002
0000
,  // measure 65
0000
2003
0000
0000
,  // measure 66
3002
0000
0000
2003
,  // measure 67
0000
0000
0002
0000
,  // measure 68
0000
0000
0000
0000
,  // measure 69
0000
0000
0000
0000
,  // measure 70
0000
0000
0000
0000
,  // measure 71
0000
0000
0000
3003
,  // measure 72
0100
0010
0100
0110
,  // measure 73
0001
1000
0001
1000
,  // measure 74
1001
0000
0100
1000
,  // measure 75
0100
1000
0100
0110
,  // measure 76
0001
0100
0001
0100
,  // measure 77
0101
0100
0010
0001
,  // measure 78
0200
0000
0000
0000
,  // measure 79
0020
0000
0000
0330
,  // measure 80
0001
0000
0000
0000
1000
0000
0100
0000
1000
0100
1000
0000
0100
0000
0000
0000
,  // measure 81
0001
0000
0000
0000
0100
0000
0001
0000
0100
0001
0100
0000
0010
0000
0000
0000
,  // measure 82
0100
0000
0000
0000
1000
0000
0100
0000
1000
0100
1000
0000
0100
0000
0000
0000
,  // measure 83
0010
0000
0000
0000
0001
0000
0100
0000
0001
0100
0001
0000
0100
0000
0000
0000
,  // measure 84
0010
0100
0010
0001
0100
0000
0010
0000
,  // measure 85
0100
1000
0100
1000
0100
0000
1000
0000
,  // measure 86
0100
0010
0001
0100
0010
0000
0100
0000
,  // measure 87
0001
0000
0100
0000
0001
0000
0100
0000
0001
0100
0001
0100
0001
0100
0001
0100
,  // measure 88
0001
0100
0010
0001
0100
0000
1000
0000
,  // measure 89
0100
0010
0001
0100
,  // measure 90
0020
0000
0130
0000
1000
0010
0100
1000
,  // measure 91
0010
0001
0100
0010
,  // measure 92
0100
0000
0010
0000
0001
0010
0100
1000
,  // measure 93
0010
0100
1000
0100
,  // measure 94
1000
0100
0020
0130
,  // measure 95
1000
0010
0100
0001
0010
0000
0001
0000
,  // measure 96
0100
0001
0100
0001
,  // measure 97
0200
0000
0310
0000
0001
1000
0001
1000
,  // measure 98
0001
1000
0100
1000
,  // measure 99
0100
0000
0010
0000
0001
0010
0100
1000
,  // measure 100
0010
0100
1000
0100
,  // measure 101
0010
0001
2000
3002
,  // measure 102
2003
0000
0000
0000
,  // measure 103
0000
0000
0000
0000
,  // measure 104
3002
0000
0000
0000
,  // measure 105
0000
0000
0000
0000
,  // measure 106
1003
0000
0000
0000
;

//---------------dance-single - Wrland---------------
#NOTEDATA:;
#CHARTNAME:;
#CHARTSTYLE:Pad;
#CREDIT:Wrland;
#STEPSTYPE:dance-single;
#DESCRIPTION:Wrland;
#DIFFICULTY:Hard;
#METER:14;
#METERF:14;
#RADARVALUES:0,0,0,0,0;
#NOTES:
// measure 0
0000
2002
0000
0000
,  // measure 1
3003
0000
0100
0010
,  // measure 2
0001
0000
0100
0010
0100
0000
0010
0000
,  // measure 3
0100
0000
0010
0000
0001
0010
0100
0010
,  // measure 4
1000
0001
1000
0001
1000
0000
0001
1000
,  // measure 5
0001
0000
0010
0100
0001
0000
1000
0000
,  // measure 6
0100
1000
0100
1000
0100
1000
0100
1000
,  // measure 7
0200
0000
0300
1000
0001
0000
0100
0000
,  // measure 8
0010
0100
0001
0010
0100
1000
0001
0010
,  // measure 9
0100
0000
0100
0001
0100
0000
0100
0010
,  // measure 10
0001
0100
0001
0100
0001
0010
0200
0000
,  // measure 11
0310
0000
0100
0010
0001
0100
0010
0100
,  // measure 12
1000
0100
0010
0000
0010
0100
0001
0000
,  // measure 13
0010
1000
0001
0100
0001
0100
0001
0100
,  // measure 14
0001
0100
0020
0000
0030
1000
0100
0000
,  // measure 15
0010
0000
0100
0010
0100
1000
0100
0010
,  // measure 16
0001
0100
0010
0000
0001
0100
0001
0000
,  // measure 17
1000
0010
0100
1000
0100
1000
0100
0010
,  // measure 18
0001
0100
0020
0000
1030
0001
0100
0000
,  // measure 19
0010
0100
0002
0000
0000
0000
0000
0000
,  // measure 20
1003
0001
2000
0000
0001
0000
0100
0010
,  // measure 21
3200
0000
0010
0000
0001
0010
0302
0000
,  // measure 22
0100
1000
0100
0000
2003
0000
0010
0001
,  // measure 23
0100
0001
3020
0000
0000
0000
0100
0000
,  // measure 24
1000
0100
1000
0000
0130
0000
2000
0001
,  // measure 25
0010
0010
3002
0000
0100
1000
0100
0000
,  // measure 26
1000
0000
0013
0100
0010
0001
0100
0010
,  // measure 27
0100
2000
0000
0000
0002
0000
0000
0000
,  // measure 28
0000
0000
0000
0000
0000
0000
0000
3003
,  // measure 29
0000
0000
0000
0000
0100
0010
0100
0010
,  // measure 30
0100
0000
0001
0000
1000
0100
1000
0100
,  // measure 31
1000
0000
0100
0000
1000
0100
1000
0100
,  // measure 32
1000
0100
0011
1001
,  // measure 33
0110
0000
1001
0000
0100
0001
0100
0001
,  // measure 34
0100
0000
0010
0000
0100
0010
0100
0010
,  // measure 35
0100
0000
0001
0000
1000
0100
1000
0100
,  // measure 36
1000
0100
1010
0101
,  // measure 37
0110
0000
0101
0000
0100
0001
0100
0001
,  // measure 38
0100
0000
0010
0000
0100
0010
0100
0010
,  // measure 39
0100
0000
0001
0000
1000
0001
1000
0001
,  // measure 40
1000
0100
1001
1100
,  // measure 41
0110
0000
1001
0000
0100
0010
0100
0010
,  // measure 42
0100
0000
1000
0000
0100
1000
0100
1000
,  // measure 43
0100
0000
0010
0000
0100
0010
0100
0010
,  // measure 44
0100
0010
0101
1001
,  // measure 45
0110
0000
1001
0000
0100
0010
0100
0010
,  // measure 46
0001
0100
0010
1000
0100
0000
0010
0000
,  // measure 47
0001
0000
0000
0000
0100
0010
0100
0010
,  // measure 48
0100
1000
0100
0000
1001
0000
0101
0000
,  // measure 49
1001
0000
0101
0000
0010
0100
0010
0100
,  // measure 50
0010
1000
0100
0010
0001
0000
1000
0000
,  // measure 51
0001
0000
0000
0000
0100
0010
0001
0100
,  // measure 52
0010
0100
1000
0100
1001
0000
1001
0000
,  // measure 53
1001
0000
1001
0000
1001
0100
0010
0001
,  // measure 54
0100
1000
0010
0001
0100
0000
0010
0000
,  // measure 55
0001
0000
0000
0000
0100
0010
0001
0100
,  // measure 56
0010
0001
1000
0010
0101
0000
1010
0000
,  // measure 57
1100
0000
0101
0000
1010
0100
0010
0001
,  // measure 58
0100
0010
0001
0100
1100
0000
0110
0000
,  // measure 59
0011
0000
0110
0000
0010
0001
0100
0010
,  // measure 60
0001
0100
0010
0100
1001
0000
0110
0000
,  // measure 61
1001
0000
1100
0000
0010
0001
0100
0010
,  // measure 62
0000
0000
0100
1000
0100
0001
0000
0000
,  // measure 63
0100
0010
0001
0100
0000
0000
1000
0100
,  // measure 64
0010
0001
0000
0000
0100
0010
0001
0100
,  // measure 65
0000
0000
0010
0100
0010
0100
0000
0000
,  // measure 66
0001
0010
0100
1000
0100
1000
0100
0010
0001
0100
0010
0001
0100
0010
0001
0100
,  // measure 67
0020
0000
0000
0000
0000
0000
0000
0030
1000
0000
0001
0000
1000
0000
0001
0000
,  // measure 68
1000
0001
1000
0001
1000
0001
1000
0001
,  // measure 69
1000
0001
1000
0001
1001
1001
1001
1001
,  // measure 70
1001
1001
1001
1001
1001
1001
1001
1001
,  // measure 71
1001
1001
1001
1001
0000
0000
0000
0000
,  // measure 72
0100
0010
0100
0010
0100
0000
0200
0000
,  // measure 73
0300
0000
0001
1000
0001
1000
0001
0000
,  // measure 74
2000
0000
3000
0000
0100
0010
0000
0000
,  // measure 75
1000
0001
1000
0001
1000
0000
0002
0000
,  // measure 76
0003
0000
0100
1000
0100
1000
0100
0000
,  // measure 77
0020
0000
0030
0000
0100
2000
0000
0000
,  // measure 78
0000
0000
0000
0000
,  // measure 79
0002
0000
0000
0000
0000
0000
0000
3003
,  // measure 80
0100
0000
0010
0000
0001
0000
0100
0001
,  // measure 81
0100
0000
0010
0000
0100
0000
1000
0100
,  // measure 82
1000
0000
0100
0000
1000
0000
0100
1000
,  // measure 83
0100
0000
0100
0000
0010
0000
0001
0100
,  // measure 84
0001
0000
0100
0000
0010
0000
0001
0100
,  // measure 85
0001
0000
0100
0000
0010
0000
0100
0010
,  // measure 86
0001
0000
0100
0000
1000
0000
0100
0010
,  // measure 87
0001
0100
0001
0100
,  // measure 88
0010
0100
0010
0100
0020
0000
1030
0000
,  // measure 89
0001
0100
0001
0100
0002
0000
1003
0000
,  // measure 90
0002
0000
2003
0000
3001
1000
0100
1000
,  // measure 91
0200
0000
0301
0000
1000
0100
1000
0100
,  // measure 92
2000
0000
3001
0000
1000
0100
0010
0100
,  // measure 93
0020
0000
0031
0000
0100
0001
0100
0001
,  // measure 94
0200
1300
0200
0320
,  // measure 95
1030
0100
1000
0100
2000
0000
3001
0000
,  // measure 96
0100
1000
0100
1000
0200
0000
0310
0000
,  // measure 97
0200
0000
0320
0000
1030
0001
0010
0001
,  // measure 98
0020
0000
0031
0000
1000
0010
1000
0010
,  // measure 99
2000
0000
3001
0000
1000
0100
0010
0000
,  // measure 100
0001
0100
0010
0000
0010
0100
0001
0100
,  // measure 101
0002
0103
0002
2003
,  // measure 102
3002
0000
0000
0000
,  // measure 103
0000
0000
0000
0000
,  // measure 104
2003
0000
0000
0000
,  // measure 105
0000
0000
0000
0000
,  // measure 106
3001
0000
0000
0000
;

//---------------dance-single - Wrland---------------
#NOTEDATA:;
#CHARTNAME:;
#CHARTSTYLE:Pad;
#CREDIT:Wrland;
#STEPSTYPE:dance-single;
#DESCRIPTION:Wrland;
#DIFFICULTY:Challenge;
#METER:18;
#METERF:18;
#RADARVALUES:0,0,0,0,0;
#NOTES:
// measure 0
0000
2012
0000
0000
,  // measure 1
0000
0000
3003
0000
0100
0010
0001
0100
,  // measure 2
0010
1000
0010
0001
0100
0001
0010
0000
0010
0000
1000
0000
0010
0000
0100
0000
,  // measure 3
0010
0100
0001
0010
1000
0001
0100
0010
0010
0001
0100
0010
0010
0001
0010
1000
,  // measure 4
0100
0010
0100
0000
0010
0000
0100
0000
0001
0000
0010
0000
0200
0000
1300
0000
,  // measure 5
0020
0031
0020
0130
0020
0130
2000
3001
,  // measure 6
0100
0010
0001
0000
0010
0100
0010
0000
0001
0010
1000
0000
0100
0001
0100
0000
,  // measure 7
0010
0011
0010
1010
1101
0100
1100
0100
,  // measure 8
0001
0010
0100
0000
0100
0010
0001
0000
0010
0000
0001
0000
0100
0000
1000
0000
,  // measure 9
2000
3100
0020
0130
0002
0103
2000
3100
,  // measure 10
0100
0010
0001
0000
0010
0100
0010
0000
0001
0100
0010
0000
0100
0001
0100
1000
,  // measure 11
0020
0030
0000
0000
0100
0001
1000
0000
0010
0100
0001
0000
0001
0000
0010
0000
,  // measure 12
0100
0001
0020
0130
0002
0103
0020
0130
,  // measure 13
2000
0000
3100
0000
0100
0010
0001
0000
0010
0100
0010
0000
0001
0010
0100
1000
,  // measure 14
0100
0000
0100
0000
0010
0000
0001
0000
0100
0000
0010
0000
0100
0001
0100
1000
,  // measure 15
0010
0000
0000
0000
0001
0010
0100
0000
0100
0001
0100
0000
0010
0000
0001
0000
,  // measure 16
0100
0010
2000
3100
0020
0130
0002
0103
,  // measure 17
2000
0000
3100
0000
0100
0010
0001
0100
0010
0000
0100
0000
0001
0000
0010
0000
,  // measure 18
0100
0000
1000
0000
0010
0001
0100
0010
0001
0010
0001
0010
0200
0000
0010
0000
,  // measure 19
0010
0010
0310
0000
1000
0001
1000
0200
,  // measure 20
0000
0300
0010
0000
0100
0010
0002
0000
,  // measure 21
2003
3000
0010
0000
0100
1000
0100
2000
,  // measure 22
0000
0000
3000
0000
0100
0000
0000
0000
0001
0000
0100
0000
0001
1000
0010
0000
,  // measure 23
0200
0300
0010
0000
0100
0010
0001
0010
,  // measure 24
0200
0000
0000
0000
0310
0000
0000
0000
0100
0000
1000
0000
0100
0010
0100
0000
,  // measure 25
2000
0000
0000
0000
3100
0000
0010
0000
0001
0000
0100
0000
0001
0010
0100
0010
,  // measure 26
0100
0000
0001
0000
0010
0000
1000
0000
0100
0000
0010
0000
0001
0010
0100
1000
,  // measure 27
0001
0010
0100
1000
1101
0000
0000
0000
2012
0000
0000
0000
0000
0000
0000
0000
,  // measure 28
0000
0000
0000
0000
,  // measure 29
3003
0000
0000
0000
0011
0000
1010
0000
0100
0010
1000
0000
0200
0000
1300
0000
,  // measure 30
0200
0000
0310
0000
0200
0000
1300
0000
0010
0100
0001
0000
0200
0000
0301
0000
,  // measure 31
0200
0000
1300
0000
0200
0000
0301
0000
0100
0010
0100
0000
0200
0000
0310
0000
,  // measure 32
0200
1300
0020
0031
1001
0100
1100
0010
,  // measure 33
0110
0000
0001
0000
1010
0000
0100
0000
0100
0010
1000
0000
0200
0000
0310
0000
,  // measure 34
0200
0000
1300
0000
0002
0000
0013
0000
0100
0010
0001
0000
0200
0000
0301
0000
,  // measure 35
0200
0000
1300
0000
0200
0000
0310
0000
0010
1000
0100
0000
0020
0000
0130
0000
,  // measure 36
2000
3100
0200
0310
1100
0100
1010
0010
,  // measure 37
1001
0000
0100
0000
0110
0000
0001
0000
0100
0001
0010
0000
0100
0000
0010
0000
,  // measure 38
0100
0000
0001
0000
0010
0000
1000
0000
0100
0010
1000
0000
0100
0000
1000
0000
,  // measure 39
0100
0000
0010
0000
0100
0000
1000
0000
0010
0001
0100
0000
0010
0000
0100
0000
,  // measure 40
0010
1000
0001
0100
0101
0010
1010
0001
,  // measure 41
0110
0000
1000
0000
1010
0000
0001
0000
0100
0010
1000
0000
0100
0000
0010
0000
,  // measure 42
0100
0000
0010
0000
0001
0000
1000
0000
0100
0001
0100
0000
0001
0000
0100
0000
,  // measure 43
0001
0000
1000
0000
0100
0000
0010
0000
1000
0010
0100
0000
1000
0000
0100
0000
,  // measure 44
1000
0010
0100
0001
0110
0010
1100
1000
,  // measure 45
0110
0000
0100
0000
1001
0000
0010
0000
0100
0010
0001
1000
0010
0000
0100
0000
,  // measure 46
0001
0010
0100
0010
0100
0010
0100
0010
,  // measure 47
0002
0000
0000
0000
0103
0000
0000
0000
0010
0001
0100
0001
0010
0000
0100
0000
,  // measure 48
1000
0100
0001
0010
1100
0010
0110
0100
,  // measure 49
1001
0000
0001
0000
0110
0000
1000
0000
0010
0100
0001
0001
0010
0000
0100
0000
,  // measure 50
0010
1000
0100
0001
0010
0100
0010
1000
,  // measure 51
0002
0000
0000
0000
0103
0000
0000
0000
0010
0100
0001
0010
0100
0000
0010
0000
,  // measure 52
0100
1000
0100
0010
1001
0100
0110
0010
,  // measure 53
1001
0000
0100
0000
1100
0000
0000
0000
0100
0001
0010
1000
0100
0000
0001
0000
,  // measure 54
0010
0100
0010
0001
0100
0010
0100
1000
,  // measure 55
0200
0000
0000
0000
0301
0000
0000
0000
1000
0010
0100
1000
0010
0000
0001
0000
,  // measure 56
0100
0010
0001
0100
1001
0010
1100
0100
,  // measure 57
1100
0000
0001
0000
0110
0000
0100
0000
1001
0010
0100
1000
0010
0000
0100
0000
,  // measure 58
0010
0001
0100
0001
0010
0100
0010
0100
,  // measure 59
0002
0000
0000
0000
1003
0000
0000
0000
0010
0001
0100
1000
0010
0000
0001
0000
,  // measure 60
0100
0001
0010
0100
1001
0100
0110
0001
,  // measure 61
1001
0000
0100
0000
1001
0000
0100
0000
0110
0000
0110
0000
0111
0000
1001
0100
,  // measure 62
0010
0001
0100
0010
1100
0000
1100
0000
1100
0000
1001
0100
0010
0001
1000
0100
,  // measure 63
0110
0000
0110
0000
0110
0000
1001
0100
0001
0100
0010
1000
0011
0000
0011
0000
,  // measure 64
0011
0000
1001
0100
0010
0001
0100
0010
0100
0000
0010
0000
0100
0000
0010
0000
,  // measure 65
0100
0010
0001
0100
0010
0100
1000
0100
,  // measure 66
0010
0100
0001
0010
0100
0001
0010
0100
0001
0010
0100
1000
0010
0100
0100
0001
,  // measure 67
2012
0000
0000
0000
0000
0000
0000
3003
0200
0300
0020
0030
0002
0003
0200
0300
,  // measure 68
2000
3000
0200
0300
0020
0030
0002
0003
0200
0300
2000
3000
0200
0300
2000
3000
,  // measure 69
0200
0300
0020
0030
0002
0003
0200
0300
0020
0030
0200
0300
2000
3000
0200
0300
,  // measure 70
2000
3000
0200
0300
0020
0030
0002
0003
0200
0300
0020
0030
0200
0300
2000
3000
,  // measure 71
0200
0300
0002
0003
0200
0300
0020
0000
0000
0000
0000
0000
0000
0000
0000
0130
,  // measure 72
1000
0100
1000
0100
0010
0000
0200
0310
,  // measure 73
0001
0000
0100
0010
0001
0100
0010
0000
,  // measure 74
0200
1300
1000
0100
0010
0001
0100
0010
,  // measure 75
0100
0010
0001
0100
0010
0000
2000
3001
,  // measure 76
0010
0000
0100
0010
0001
0100
0010
0000
,  // measure 77
0200
0310
0001
0010
0100
1000
0100
0020
,  // measure 78
0000
0000
0100
1000
0100
1000
0100
1000
,  // measure 79
0230
0000
0000
0000
0010
0001
0010
0001
,  // measure 80
0320
0000
0000
0030
0200
0300
1000
0100
,  // measure 81
2000
3000
0200
0300
0002
0003
0100
0001
,  // measure 82
0200
0300
0020
0030
0200
0300
0001
0100
,  // measure 83
0020
0000
0030
0000
0100
0000
1000
0000
0200
0000
0300
0000
1000
0000
0100
0010
,  // measure 84
0200
0000
0300
0000
0001
0000
0100
0000
0020
0000
0030
0000
0001
0000
0100
0001
,  // measure 85
0200
0000
0300
0000
0010
0000
0100
0000
2000
0000
3000
0000
0100
0000
1000
0100
,  // measure 86
2000
0000
3000
0000
0100
0000
0010
0000
0002
0000
0003
0000
0100
0000
0010
0100
,  // measure 87
0020
0000
0030
0000
0001
0000
0100
0000
0010
0000
0100
0000
1000
0001
0100
1000
,  // measure 88
0010
0100
0001
0100
0010
0100
1000
0100
,  // measure 89
0010
0100
0001
0010
0100
0000
0010
0000
1000
0000
0100
0000
0010
0000
0001
0000
,  // measure 90
0200
0000
M31M
0000
0010
0100
1000
0100
,  // measure 91
0010
0000
0001
0000
0100
0000
0010
0000
0100
0001
0010
1000
0100
0000
0010
0000
,  // measure 92
0100
0010
0001
0100
0010
0100
1000
0100
,  // measure 93
0010
0000
0001
0000
0100
0000
0010
0000
0100
0010
0010
0100
1000
0000
0101
0000
,  // measure 94
0010
0100
0010
0100
0020
0000
M13M
0000
,  // measure 95
0100
0010
0100
0010
0001
0100
0010
1000
,  // measure 96
0100
0010
1000
0000
0100
0000
0001
0000
1000
0000
0010
0000
0100
0000
1000
0000
,  // measure 97
0200
0000
0000
0000
M31M
0000
0000
0000
0100
0001
0010
0001
0100
0001
0010
0100
,  // measure 98
1000
0000
0100
0000
0010
0000
0001
0000
0100
0001
0010
1000
0100
0010
1000
0001
,  // measure 99
0100
0000
0010
0000
0001
0000
0100
0000
0010
0001
0100
0010
1000
0100
0100
0001
,  // measure 100
0010
0000
0001
0000
0100
0000
0010
0000
1000
0010
0100
1000
0010
0100
0001
0010
,  // measure 101
0100
0001
0010
0100
1000
0010
0100
0001
0020
0000
0000
0000
M13M
0000
0000
0000
,  // measure 102
0200
0000
0000
0000
,  // measure 103
0320
0000
0000
0000
,  // measure 104
0230
0000
0000
0000
,  // measure 105
2300
0000
0000
0000
,  // measure 106
3101
0000
0000
0000
;
