#TITLE:사랑인가 봐;
#SUBTITLE:;
#ARTIST:멜로망스;
#TITLETRANSLIT:love, maybe;
#SUBTITLETRANSLIT:;
#ARTISTTRANSLIT:melomance;
#GENRE:A Business Proposal;
#CREDIT:SBS;
#MUSIC:love maybe.ogg;
#BANNER:love maybe.png;
#BACKGROUND:BG.png;
#CDTITLE:A Business Proposal.png;
#SAMPLESTART:85.113;
#SAMPLELENGTH:15.000;
#SELECTABLE:YES;
#OFFSET:0.003;
#BPMS:0.000=86.000
,60.000=172.000
,64.000=86.000
,66.000=172.000
,122.000=86.000
,150.000=172.000
;
#STOPS:;
#DISPLAYBPM:86.000:172.000;
#JACKET:love maybe-jacket.png;
#DISCIMAGE:;
#CDIMAGE:;
#TAGS:DMCA;
#BGCHANGES:0.000=love maybe.avi=0.000=0=0=0=StretchNoLoop====,
99999=-nosongbg-=1.000=0=0=0 // don't automatically add -songbackground-
;
#FGCHANGES:;

//--------------- dance-single - Wrland ----------------
#NOTES:
     dance-single:
     Wrland:
     Beginner:
     4:
     0,0,0,0,0:
0000
0000
0000
0000
,
0000
0000
0000
0000
,
0000
0000
0000
0000
,
0000
0000
0000
0000
,
1000
0000
0001
0000
,
0100
0000
1000
0000
,
0001
0000
0100
0000
,
0002
0000
0000
0003
,
0100
0000
0001
0000
,
0010
0000
0100
0000
,
0001
0000
1000
0000
,
0200
0010
0001
0310
,
0010
0000
0010
0000
,
1000
0000
0010
0000
,
1000
0000
0001
0000
,
0010
0000
0000
0100
0000
0000
0010
0000
0001
0000
0000
0101
,
0000
0000
0010
0000
,
0001
0000
0000
1000
0000
0000
0000
0000
,
0000
0000
1000
0000
,
0100
0000
0000
0010
0000
0000
0000
0000
,
0000
0000
0001
0000
,
0010
0000
0000
0100
0000
0000
0000
0000
,
0000
0000
1000
0000
,
1000
0000
0000
1000
0000
0000
0000
0000
,
0000
0000
0100
0000
,
0010
0000
0000
0001
0000
0000
0000
0000
,
0000
0000
0010
0000
,
0100
0000
0000
0020
0000
0000
0000
0000
,
0030
0000
0000
0000
0000
0000
0001
0000
0000
0000
0000
1000
,
0000
0000
0100
0000
0000
1000
0000
0000
0000
0000
0000
0000
,
0100
0001
2000
0000
,
3000
0000
0000
0000
,
0000
0000
0000
0000
,
0000
0000
0000
0000
,
0000
0000
0001
0000
,
0100
0000
1000
0000
,
0010
0000
0001
0000
,
0100
0000
1000
0100
,
0001
0000
0100
0000
0000
0110
0000
0000
0000
0000
0000
0000
,
0000
0000
0100
0000
,
1000
0000
0000
0100
0000
0000
0000
0000
,
0000
0000
0010
0000
,
0001
0000
0000
1000
0000
0000
0000
0000
,
0000
0000
0001
0000
,
0010
0000
0000
0100
0000
0000
0000
0000
,
0000
0000
1000
0000
,
0100
0000
0000
0001
0000
0000
0000
0000
,
0000
0000
0100
0000
,
1000
0000
0000
0100
0000
0000
0000
0000
,
0000
0000
0010
0000
,
0001
0000
0000
1000
0000
0000
0000
0000
,
0000
0000
0100
1000
,
0100
0000
0010
0001
,
1000
0000
0010
0100
,
0001
0000
1000
0000
0000
0100
0000
0000
0000
0000
0000
0000
,
0000
0000
0001
0010
,
0100
0000
0000
0000
0000
0000
0010
0000
0000
0100
0000
0010
,
0000
0000
0001
0000
0000
0000
2000
0000
0000
0000
0000
0000
,
0000
0000
3000
0000
;

//--------------- dance-single - Wrland ----------------
#NOTES:
     dance-single:
     Wrland:
     Easy:
     6:
     0,0,0,0,0:
0000
0000
0000
0000
,
0000
0000
0000
0000
,
0000
0000
0000
0000
,
0000
0000
0000
0000
,
1000
0010
0001
1000
,
0100
0010
1000
0100
,
0001
1000
0100
0010
,
0002
0000
0000
0003
,
0100
1000
0001
0100
,
0010
0001
0100
0000
,
0001
0100
1000
0001
,
0200
0000
0000
0000
0000
0000
0010
0000
0001
0000
0000
0010
0000
0000
0000
0001
0000
0000
0310
0000
0000
0000
0000
0000
,
0010
0100
0010
1000
,
0001
0100
1000
0000
,
1000
0100
0001
0100
,
0010
0000
0000
0100
0000
0000
0010
0000
0001
0000
0000
0101
,
0000
0000
0010
0000
,
0001
0000
0000
1000
0000
0000
0100
0000
,
0001
0000
1000
0000
,
0100
0000
0000
0010
0000
0000
1000
0000
,
0100
0000
0001
0000
,
0010
0000
0000
0100
0000
0000
0010
0000
,
0001
0000
1000
0000
,
1000
0000
0000
1000
0000
0000
0001
0000
,
1000
0000
0100
0000
,
0010
0000
0000
0001
0000
0000
0100
0000
,
0010
0000
0010
0000
,
0100
0000
0000
0020
0000
0000
0000
0000
,
0030
0000
0000
0000
0000
0000
0001
0000
0000
0000
0000
1000
,
0000
0000
0100
0000
0000
1000
0000
0000
0000
0000
0000
0000
,
0100
0001
2000
0000
,
3000
0000
0000
0000
,
0000
0000
0000
0000
,
0000
0000
0000
0000
,
0000
0000
0001
1000
,
0100
0010
0001
0100
,
0010
0001
1000
0100
,
0001
0100
1000
0100
,
0001
0000
0100
0000
0000
0110
0000
0000
0000
0000
0000
0000
,
0000
0000
0100
0000
,
1000
0000
0000
0100
0000
0000
0001
0000
,
1000
0000
0010
0000
,
0001
0000
0000
1000
0000
0000
0100
0000
,
0010
0000
0001
0000
,
0010
0000
0000
0100
0000
0000
0001
0000
,
0100
0000
1000
0000
,
0100
0000
0000
0001
0000
0000
1000
0000
,
0100
0000
0100
0000
,
1000
0000
0000
0100
0000
0000
0001
0000
,
1000
0000
0010
0000
,
0001
0000
0000
1000
0000
0000
0010
0000
,
0100
0000
0100
1000
,
0100
0000
0010
0001
,
1000
0000
0010
0100
,
0001
0000
1000
0000
0000
0100
0000
0000
0000
1000
0000
0000
,
0100
0000
0001
0010
,
0100
0000
0000
0000
0000
0000
0010
0000
0000
0100
0000
0010
,
0000
0000
0001
0000
0000
0000
2000
0000
0000
0000
0000
0000
,
0000
0000
3000
0000
;

//--------------- dance-single - Wrland ----------------
#NOTES:
     dance-single:
     Wrland:
     Medium:
     8:
     0,0,0,0,0:
0000
0000
0000
0000
,
0000
0000
0000
0000
,
0000
0000
0000
0000
,
0000
0000
0000
0000
,
0100
0010
0100
0010
,
0001
0000
0000
0000
0000
0000
0100
0000
0000
0000
0000
0000
1000
0000
0000
0001
0000
0010
0100
0000
0010
0000
0000
0000
,
1000
0000
0000
0100
0000
0000
1000
0000
0100
0000
0000
2000
0000
0000
0000
3000
0000
0000
0010
0000
0000
0001
0000
0000
,
0200
0000
0300
0000
0100
0001
0010
0001
,
0100
0000
0000
0000
0000
0000
0010
0000
0000
0000
0000
0000
0100
0000
0000
0001
0000
0100
0000
0000
0010
0000
0000
0000
,
1000
0000
0000
0100
0000
0010
0000
0000
0100
0000
0000
1000
0000
0000
0000
0000
0000
0000
0001
0000
0000
1000
0000
0000
,
0100
0100
0010
0001
,
0100
0010
0001
0000
0010
1000
0100
0000
,
0010
0000
0000
0001
0000
0100
0000
0000
0010
0000
0000
2000
0000
0000
3000
0001
0000
0100
0000
0000
0010
0000
0000
0000
,
0100
0000
0000
0010
0000
0100
0000
0000
0010
0000
0000
0200
0000
0000
0000
0000
0300
0000
1000
0000
0000
0001
0000
0000
,
0100
0001
0010
1000
0100
0010
0100
0010
,
2000
0000
0000
0000
0000
0000
0000
0000
0000
0000
0000
3001
,
0000
0000
2000
0000
,
3001
0000
0000
1000
0000
0000
0001
0000
,
1000
0010
0200
0000
,
0320
0000
0000
0130
0000
0000
0000
0000
,
0000
0000
0020
0000
,
0130
0000
0000
0010
0000
0000
0001
0000
,
1000
0001
0200
0000
,
0320
0000
0000
0031
0000
0000
0000
0000
,
0000
0000
0200
0000
,
2300
0000
0000
3100
0000
0000
0010
0000
,
0001
1000
0200
0000
,
0320
0000
0000
0031
0000
0000
0000
0000
,
0000
0000
0010
0001
,
0100
0000
1000
0010
,
0100
1000
0200
0000
,
0000
0300
0020
0000
,
0000
0030
0002
0000
,
0000
0003
2000
0000
,
0000
3000
0100
1000
,
0100
0001
0020
0030
0100
0010
0001
0010
,
0200
0000
0000
0300
0000
0000
0100
0000
0000
1000
0000
0000
0100
0000
0000
0010
0000
1000
0000
0000
0100
0000
0000
0010
,
0000
0000
0001
0000
0000
0100
0000
0000
0010
0000
0000
0200
0000
0000
0000
0000
0000
0000
0300
0000
0000
0000
0000
0000
,
0010
0000
0100
0000
0000
0020
0000
0000
0000
0000
0000
0000
,
0000
0030
2000
0000
,
3001
0000
0000
1000
0000
0000
0001
0000
,
1000
0010
0200
0000
,
2300
0000
0000
0000
0000
0000
0000
0000
0000
3100
0000
0000
0000
0000
0000
0000
0000
0000
0010
0000
0000
0000
0001
0000
,
0100
0000
0020
0000
,
0031
0000
0000
1000
0000
0000
0100
0000
,
1000
0001
0200
0000
,
0320
0000
0000
0130
0000
0000
0010
1000
,
0100
0010
0100
0010
0002
0000
0000
0000
,
0103
0000
0000
0010
0000
0000
0100
0000
,
1000
0001
0200
0000
,
2300
0000
0000
0000
0000
0000
0000
0000
0000
3100
0000
0000
0000
0000
0000
0000
0000
0000
0010
0000
0000
0000
0100
0000
,
1000
0000
0000
0100
0000
0000
0001
0000
0000
0100
0000
0001
,
0000
0000
0100
0000
0000
0020
0000
0030
0000
1000
0000
0100
,
0000
0000
0010
0000
0000
0000
0100
0000
0000
0010
0000
0000
,
0100
0000
0010
0000
0000
0002
0000
0003
0000
0100
0000
0000
,
0020
0000
0000
0030
0000
0000
1000
0000
0000
0100
0000
1000
,
0000
0000
0100
0000
0000
0020
0000
0030
0000
0001
0000
0100
,
0000
0000
0010
0000
0000
0200
0000
0000
0000
0000
0000
0000
,
0000
0000
0000
0000
,
0300
0000
0000
0000
;

//--------------- dance-single - Wrland ----------------
#NOTES:
     dance-single:
     Wrland:
     Hard:
     12:
     0,0,0,0,0:
0000
0000
0000
0000
,
0000
0000
0000
0000
,
0100
0000
0000
0000
0010
0000
0000
0001
0000
0000
0100
0000
0010
0000
0000
0000
,
0100
0000
0000
0000
1000
0000
0000
0200
0000
0000
0000
0000
0000
0300
0000
0000
,
2000
0000
3000
0010
0000
0100
0000
0000
0010
0000
0000
2000
0000
3000
0000
0001
0000
0100
0000
0000
0010
0000
0000
0000
,
0200
0000
0300
1000
0000
0010
0000
0000
0100
0000
0000
0002
0000
0003
0000
0100
0000
0010
0000
0000
0100
0000
0000
0000
,
0100
0000
0000
0010
0000
0000
1000
0000
0200
0000
0300
0020
0000
0030
0000
0001
0000
1000
0000
0000
0100
0000
0000
0020
,
0000
0000
0000
0000
0130
0000
0010
0100
,
0002
0000
0003
0100
0000
0001
0000
0000
0010
0000
0000
2000
0000
3000
0000
0001
0000
0010
0000
0000
0100
0000
0000
0000
,
0100
0000
0000
0010
0000
0100
0000
0000
0010
0000
0000
2000
0000
0000
0000
0000
3000
0000
0100
0000
0000
0001
0000
0000
,
1000
0000
0000
0010
0000
0100
0000
0000
0010
0000
0000
0200
0000
0300
0000
0010
0000
0001
0000
0000
0010
0000
0000
0200
,
0000
0000
0000
0000
0310
0000
0010
0100
,
0020
0000
0030
0000
0000
0010
0100
0000
0000
1000
0000
0000
0200
0000
0000
0300
0000
0001
0100
0000
0000
0001
0000
0000
,
0010
0000
0000
0100
0000
0001
0000
0000
0010
0000
0000
1000
0200
0000
0000
0000
0300
0000
0010
0000
0000
0100
0000
0000
,
0010
0001
0200
0300
1000
0010
0200
0300
,
0020
0000
0000
1000
0000
0000
0100
0000
1000
0000
0000
1030
,
0000
0000
0200
0300
,
2000
0000
3000
0200
0000
0300
1000
0000
,
0100
0000
0000
0010
0000
0001
0200
0000
0000
0300
0000
0000
,
0020
0000
0030
0002
0000
0003
0100
0000
,
0001
0000
0000
0000
0200
0000
0000
0300
,
0020
0000
0030
2000
0000
3000
0100
0000
,
0001
0000
0000
0000
0000
0000
0010
0000
0000
0000
1000
0000
0200
0000
0000
0000
0000
0000
0000
0000
0000
0300
0000
0000
,
0020
0000
0030
0200
0000
0300
0010
0001
,
0100
1000
0100
0001
0020
0000
0000
0030
,
0002
0000
0003
2000
0000
3000
0100
0000
,
1000
0000
0000
0000
0000
0000
0010
0000
0000
0000
1000
0000
0200
0000
0000
0000
0000
0000
0000
0000
0000
0300
0000
0000
,
0020
0000
0000
0000
0000
0000
0030
0000
0000
0200
0000
0000
0000
0000
0000
0300
0000
0000
0010
0000
0000
0000
0001
0000
,
0100
0000
0000
0010
0000
0000
0010
0000
0000
0001
0000
0100
,
0000
0000
0010
0000
0000
2000
0000
3000
0000
0100
0000
0010
,
0000
0000
1000
0000
0000
0200
0000
0000
0000
0000
0000
0000
,
0000
0300
0002
0000
,
0000
0003
2000
0000
,
0000
3000
0002
0000
,
0003
0000
0000
0000
0000
0000
0000
0000
0000
0000
0000
0000
0100
0000
0000
0010
0000
1000
0000
0000
0010
0000
0000
0200
,
0000
0300
0000
0001
0000
0010
0000
0000
0200
0000
0300
0000
0010
0000
0000
1000
0000
0001
0000
0000
0010
0000
0000
0200
,
0000
0000
0000
0300
0000
0000
0100
0000
0000
0001
0000
0000
0100
0000
0000
0010
0000
0100
0000
0000
0100
0000
0000
0010
,
0000
0000
0100
0000
0000
0010
0000
0000
0100
0000
0000
0002
0000
0000
0000
0000
0003
0000
0100
0000
0000
0000
0000
0000
,
0010
0000
0001
0000
0000
0100
1000
0000
0001
0010
0000
0100
,
0010
0000
0100
0000
2000
0000
0000
3000
,
0200
0000
0300
2000
0000
3000
0100
0000
,
1000
0000
0100
0000
0200
0000
0000
0300
,
0002
0000
0000
0000
0000
0000
0003
0000
0000
0200
0000
0000
0000
0000
0000
0300
0000
0000
0001
0000
0000
0000
0010
0000
,
0100
0000
0001
0000
0020
0000
0000
0030
,
0200
0000
0300
2000
0000
3000
0100
0000
,
1000
0000
0010
0000
0200
0000
0000
0300
,
0020
0000
0000
0000
0000
0000
0030
0000
0000
0200
0000
0000
0000
0000
0000
0300
0000
0000
1000
0000
0000
0000
0100
0000
,
0010
0000
0001
0000
0200
0000
0000
0300
,
2000
0000
3000
0200
0000
0300
1000
0000
,
0100
0000
0000
0010
0000
0100
0001
0000
0000
0010
0000
0000
,
0200
0000
0000
0000
0000
0000
0300
0000
0000
0020
0000
0000
0000
0000
0000
0030
0000
0000
0100
0000
0000
0000
0001
0000
,
0010
0000
0000
0100
0000
0000
0001
0000
0000
0100
0000
0010
,
0000
0000
0100
0000
0000
0020
0000
0030
0000
0100
0000
0010
,
0000
0000
0100
0000
0000
2000
0000
3000
0000
0010
0000
0000
,
0100
0000
0010
0000
0000
0200
0000
0300
0000
0010
0000
1000
,
0100
0000
0000
0010
0000
0000
0001
0000
0000
0100
0000
0001
,
0000
0000
0010
0000
0000
0200
0000
0300
0000
0010
0000
0100
,
0000
0000
0010
0000
0000
0200
0000
0000
0000
0000
0000
0000
,
0000
0000
0000
0000
,
0000
0000
0000
0000
0000
0300
0000
0000
0000
0000
0000
0000
;

//--------------- dance-single - Wrland ----------------
#NOTES:
     dance-single:
     Wrland:
     Challenge:
     14:
     0,0,0,0,0:
0000
0000
0000
0000
,
0000
0000
0000
0000
,
1000
0000
0000
0100
0000
0000
1000
0000
0000
0010
0000
0100
0000
0000
0000
0100
0000
0000
0010
0000
0000
0001
0000
1000
,
0100
0000
0000
0001
0000
0000
0100
0000
0000
0010
0000
0200
0000
0000
0000
0000
0000
0000
0000
0000
0000
0000
0300
0000
,
0010
0000
0000
0100
0000
0010
0000
0000
0001
0000
0000
0200
0000
0000
0300
1000
0000
0100
0000
0000
1000
0000
0000
0000
,
0100
0000
0000
1000
0000
0100
0000
0000
0010
0000
0000
0001
0000
0000
0000
0100
0000
0001
0000
0000
0200
0000
0000
0000
,
0300
0000
0000
0001
0000
0000
0100
0000
0001
0000
0000
0200
0000
0300
0000
0010
0000
0100
0000
0000
1000
0000
0000
0100
,
0020
0000
0000
0100
0000
0000
1000
0000
0001
0100
0000
0000
0230
0000
0000
0001
0000
0000
1300
0000
0000
0100
0000
0000
,
0001
0000
0000
0100
0000
0001
0000
0000
0100
0000
0000
0020
0000
0030
0000
0100
0000
1000
0000
0000
0100
0000
0000
0000
,
1000
0000
0000
0100
0000
0010
0000
0000
0001
0000
0000
0200
0000
0000
0000
0300
0000
0000
0001
0000
1000
0100
0000
0000
,
0001
0000
0000
0100
0000
0010
0000
0000
0001
0000
0000
0200
0000
0300
0000
1000
0000
0100
0000
0000
1000
0000
0000
0100
,
0010
0000
0000
0001
0000
0000
0100
0000
0001
0100
0000
0000
0010
0000
0000
0100
0000
0000
1000
0000
0100
1000
0000
0000
,
0100
0000
0000
0010
0000
0001
0000
0000
0100
0000
0000
0020
0000
0030
0000
0001
0000
0100
0000
0000
0001
0000
0000
0000
,
0100
0000
0000
0010
0000
0100
0000
0000
1000
0000
0000
0100
1000
0000
0000
0100
0000
0000
0001
0000
0000
0100
0000
0000
,
0001
0000
0000
1000
0000
0100
0000
0000
0010
0000
0000
0100
0000
0000
0001
0000
0000
0200
0000
0300
0000
0010
0000
1000
,
0001
0000
0001
0010
0000
0000
0100
0000
0001
0000
0000
1001
,
0000
0000
0100
0010
0002
0000
0003
0000
,
0020
0000
0030
2000
0000
3000
0010
0000
,
0100
0000
0010
0000
0002
0000
0000
0003
,
0200
0000
0000
0000
0000
0000
0300
0000
0000
0020
0000
0000
0000
0000
0000
0030
0000
0000
0100
0000
0000
0000
0010
0000
,
0100
0000
0001
0000
0200
0000
0000
0300
,
0020
0000
0030
2000
0000
3000
0100
0000
,
1000
0000
0100
0000
0002
0000
0000
0003
,
0200
0000
0000
0000
0000
0000
0300
0000
0000
2000
0000
0000
0000
0000
0000
3000
0000
0000
0010
0000
0000
0000
0100
0000
,
0010
0000
0001
0000
0200
0000
0000
0300
,
2000
0000
3000
0200
0000
0300
0010
0000
,
0001
0000
0100
0000
0020
0000
0000
0030
,
0200
0000
0300
0020
0000
0000
0000
0000
,
0030
0000
0000
0000
0000
0000
0001
0000
0000
1000
0000
0100
,
0000
0000
1000
0000
0000
0200
0000
0300
0000
0010
0000
0001
,
0100
0000
0000
0000
0000
0000
0010
0000
0000
0000
0100
0000
0020
0000
0000
0000
0000
0000
1000
0000
0000
0100
0000
0100
,
1000
0000
0000
1000
0000
0000
0100
0000
0000
0000
0000
0000
0230
0000
0000
0000
0000
0000
0010
0000
0000
0001
0000
0010
,
0001
0000
0000
0010
0000
0000
0001
0000
0000
0000
0000
0000
0320
0000
0000
0000
0000
0000
1000
0000
0000
0100
0000
0100
,
1000
0000
0000
1000
0000
0000
0100
0000
0000
0000
0000
0000
2030
0000
0000
0000
0000
0000
0010
0000
0000
0100
0000
0001
,
0010
0000
0000
0100
0000
0000
3001
0000
0000
0010
0000
0000
0100
0000
0000
0010
0000
0100
0000
0000
0010
0000
0000
0002
,
0000
0003
0000
0100
0000
0010
0000
0000
0200
0000
0300
0000
1000
0000
0000
0100
0000
1000
0000
0000
0100
0000
0000
0020
,
0000
0030
0000
0001
0000
0100
0001
0000
0000
0100
0000
0000
0010
0000
0000
0100
0000
1000
0000
0000
0100
0000
0000
0002
,
0000
0003
0100
0000
0000
0010
0000
0000
0001
0000
0000
0100
0001
0000
0000
0000
0000
0000
0100
0000
0000
0000
0000
0000
,
0010
0000
0100
0000
0000
1000
0001
0000
0100
0010
0000
0000
,
0001
0000
0010
0100
0000
0000
0020
0000
0000
0000
0030
0000
,
0200
0000
0300
2000
0000
3000
0100
0000
,
1000
0000
0100
0000
0020
0000
0000
0030
,
0002
0000
0000
0000
0000
0000
0003
0000
0000
0200
0000
0000
0000
0000
0000
0300
0000
0000
0010
0000
0000
0000
0001
0000
,
0100
0000
0000
0010
0000
0000
0020
0000
0000
0000
0030
0000
,
0002
0000
0000
0000
0003
0000
0000
0000
0000
0200
0000
0000
0000
0000
0000
0300
0000
0000
0010
0000
0000
0000
0000
0000
,
0001
0000
1000
0000
0200
0000
0000
0300
,
2000
0000
0000
0000
0000
0000
3000
0000
0000
0200
0000
0000
0000
0000
0000
0300
0000
0000
0010
0000
0000
0000
0100
0000
,
0010
0000
0000
0000
0000
0000
0001
0000
0000
0000
1000
0000
0200
0000
0000
0000
0000
0000
0000
0000
0000
0300
0000
0000
,
0020
0000
0030
0002
0000
0003
0100
0000
,
0010
0000
0100
0000
0002
0000
0000
0003
,
0200
0000
0000
0000
0000
0000
0300
0000
0000
0020
0000
0000
0000
0000
0000
0030
0000
0000
0100
0000
0000
0000
0001
0000
,
0100
0000
0000
0010
0000
0000
0100
0000
0000
0010
0000
0001
,
0000
0000
0100
0000
0000
0020
0000
0030
0000
0100
0000
1000
,
0000
0000
0100
0000
0000
2000
0000
3000
0000
0100
0000
1000
,
0100
0000
0000
0100
0000
0002
0000
0003
0000
0100
0000
0010
,
0100
0000
0000
0010
0000
0000
0001
0000
0000
0100
0000
0001
,
0000
0000
0100
0000
0000
0020
0000
0030
0000
0001
0000
0100
,
0001
0000
0000
0100
0000
0000
0020
0000
0030
0001
0000
0100
,
0000
0000
0010
0000
0000
0200
0000
0300
0000
1000
0000
0100
,
0000
0000
1000
0000
0000
0200
0000
0300
0000
0010
0000
0001
,
0000
0000
0100
0000
0000
0020
0000
0030
0000
0001
0000
0100
,
0001
0000
0010
0100
0000
0000
0200
0000
0300
1000
0000
0000
,
0100
0000
0000
0001
0000
0200
0000
0300
0000
0001
0000
0000
,
0100
0000
0001
0010
0000
0000
0200
0000
0300
1000
0000
0000
,
0100
0000
1000
0000
0000
0200
0000
0300
0000
0100
0000
0010
,
0001
0100
0000
0000
;

//--------------- dance-double - Wrland ----------------
#NOTES:
     dance-double:
     Wrland:
     Easy:
     6:
     0,0,0,0,0:
00000000
00000000
00000000
00000000
,
00000000
00000000
00000000
00000000
,
00000000
00000000
00000000
00000000
,
00000000
00000000
00000000
00000000
,
10000000
01000000
00100000
00010000
,
00001000
00000100
00000010
00000001
,
00000100
00000000
00000000
00000000
00000000
00000000
00000010
00000000
00000001
00000000
00000000
00000100
00000000
00000000
00000000
00000000
00000000
00000000
00000010
00000000
00000000
00000000
00000000
00000000
,
00000200
00000000
00000000
00000300
00001000
00000000
00010000
00000000
,
00100000
01000000
10000000
01000000
,
10000000
00000000
00000000
01000000
00000000
00100000
00000000
00000000
00010000
00000000
00000000
01000000
00000000
00000000
00000000
00000000
00000000
00000000
01000000
00000000
00000000
00000000
00000000
00000000
,
00100000
01000000
00100000
00010000
,
00001000
00010000
00001000
00000000
00000100
00000010
00000001
00000000
,
00000010
00000100
00000010
00000001
,
00000010
00000100
00001000
00010000
,
00100000
01000000
10000000
01000000
,
00100000
00000000
00000000
01000000
00000000
00000000
00100000
00000000
00010000
00000000
00000000
00011000
,
00000000
00000000
00000000
00000000
00020000
00000000
00000000
00030000
,
00001000
00000000
00000000
00010000
00000000
00000000
00001000
00000000
,
00000100
00000000
00000020
00000030
,
00000001
00000000
00000000
00000100
00000000
00000000
00000010
00000000
,
00000001
00000000
00002000
00003000
,
00000100
00000000
00000000
00000010
00000000
00000000
00000100
00000000
,
00000010
00000000
00002000
00003000
,
00010000
00000000
00000000
00100000
00000000
00000000
00100000
00000000
,
01000000
00000000
20000000
30000000
,
01000000
00000000
00000000
00100000
00000000
00000000
00010000
00000000
,
10000000
01000000
20000000
30000000
,
01000000
00000000
00000000
00100000
00000000
00000000
00010000
00000000
,
00001000
00000000
00000000
00000000
00000000
00000000
00000100
00000000
00000000
00001000
00000000
00000100
,
00000000
00000000
00000010
00000000
00000000
00000001
00000000
00000000
00000000
00000000
00000000
00000000
,
00000100
00000001
00000200
00000000
,
00000000
00000300
00000000
00000000
,
00000000
00000000
00000000
00000000
,
00000000
00000000
00000000
00000000
,
00000000
00000000
00100000
01000000
,
10000000
01000000
10000000
01000000
,
00100000
00010000
01000000
00010000
,
00001000
00000100
00000001
00000100
,
00000001
00000000
00000100
00000000
00000000
00000101
00000000
00000000
00000000
00000000
00000000
00000000
,
00000000
00000000
00000200
00000300
,
00000010
00000000
00000000
00000001
00000000
00000000
00000100
00000000
,
00001000
00000000
00020000
00030000
,
00100000
00000000
00000000
01000000
00000000
00000000
10000000
00000000
,
00100000
00000000
02000000
03000000
,
00100000
00000000
00000000
00010000
00000000
00000000
00001000
00000000
,
00000100
00000000
00000020
00000030
,
00000001
00000000
00000000
00000100
00000000
00000000
00000010
00000000
,
00000100
00000000
00000002
00000003
,
00000100
00000000
00000000
00000010
00000000
00000000
00000100
00000000
,
00001000
00000000
00000200
00000300
,
00001000
00000000
00000000
00010000
00000000
00000000
00100000
00000000
,
01000000
00000000
00000000
00000000
00000000
00000000
10000000
00000000
00000000
01000000
00000000
10000000
,
00000000
00000000
01000000
00000000
00000000
20000000
00000000
00000000
30000000
00000000
00000000
00000000
,
01000000
00100000
00010000
00000000
,
01000000
00000000
00010000
00000000
00000000
01000000
00000000
00000000
00000000
00000000
00000000
00000000
,
01000000
00000000
00000000
00000000
00000000
00000000
00100000
00000000
00000000
00010000
00000000
00001000
,
00000000
00000000
00000100
00000000
00000000
00000002
00000000
00000003
00000000
00000100
00000000
00000010
,
00000000
00000000
00000001
00000000
00000000
00000200
00000000
00000000
00000000
00000000
00000000
00000000
,
00000000
00000000
00000300
00000000
;

//--------------- dance-double - Wrland ----------------
#NOTES:
     dance-double:
     Wrland:
     Medium:
     9:
     0,0,0,0,0:
00000000
00000000
00000000
00000000
,
00000000
00000000
00000000
00000000
,
00000000
00000000
00000000
00000000
,
00000000
00000000
00000000
00000000
,
01000000
00100000
01000000
00010000
,
01000000
00010000
00100000
00000000
00010000
00001000
00000100
00000000
,
00001000
00000000
00000000
00000100
00000000
00000000
00001000
00000000
00000100
00000000
00000000
00000020
00000000
00000000
00000030
00000001
00000000
00000010
00000000
00000000
00000100
00000000
00000000
00000020
,
00000000
00000000
00000000
00000100
00000000
00001000
00000100
00000000
00000000
00000000
00000000
00000000
00001030
00000000
00000000
00000000
00000000
00000000
00010000
00000000
00000000
00100000
00000000
00000000
,
01000000
00000000
00000000
10000000
00000000
01000000
00000000
00000000
10000000
00000000
00000000
02000000
00000000
03000000
00000000
00010000
00000000
00100000
00000000
00000000
10000000
00000000
00000000
00000000
,
00100000
00000000
00000000
01000000
00000000
00100000
00000000
00000000
00010000
00000000
00000000
02000000
00000000
00000000
03000000
00000000
00000000
00000000
01000000
00000000
00000000
10000000
00000000
00000000
,
01000000
00000000
00000000
00100000
00000000
00000000
00010000
00000000
00000000
00001000
00000000
00000000
00000100
00000000
00000000
00000100
00000000
00000010
00000000
00000000
00000002
00000000
00000003
00000000
,
00000100
00000001
00000100
00000000
00000010
00000001
00000100
00000010
,
00001000
00000000
00000000
00000100
00000000
00001000
00000000
00000000
00000100
00000000
00000000
00000020
00000000
00000030
00000000
00000100
00000000
00000010
00000000
00000000
00000001
00000000
00000000
00000000
,
00000100
00000000
00000000
00001000
00000000
00010000
00000000
00000000
00100000
00000000
00000000
01000000
10000000
00000000
00000000
01000000
00000000
00000000
00100000
00000000
00000000
01000000
00000000
00000000
,
00010000
00000000
00000000
01000000
00000000
00010000
00000000
00000000
01000000
00000000
00000000
00100000
00000000
00000000
01000000
00000000
00000000
00200000
00000000
00300000
00000000
00010000
00000000
00000000
,
00001000
00000000
00000000
00000100
00000000
00000000
00000010
00000000
00000100
00000000
00000000
00000110
,
00000000
00000000
00000020
00000000
,
00000130
00000000
00000000
00000010
00000000
00000000
00000001
00000000
,
00000100
00001000
00020000
00000000
,
00230000
00000000
00000000
01300000
00000000
00000000
10000000
00000000
,
01000000
00000000
02000000
00000000
,
03100000
00000000
00000000
00010000
00000000
00000000
00001000
00000000
,
00000100
00000010
00000002
00000000
,
00000203
00000000
00000000
00000301
00000000
00000000
00000100
00000000
,
00000010
00000100
00002000
00000000
,
00013000
00000000
00000000
00100000
00000000
00000000
01000000
00000000
,
10000000
01000000
00200000
00000000
,
00320000
00000000
00000000
01030000
00000000
00000000
00010000
00000000
,
01000000
00000000
00000000
00000000
00000000
00000000
00100000
00000000
00000000
00010000
00000000
00100000
,
00000000
00000000
00010000
00000000
00000000
00001000
00000000
00000000
00000000
00000100
00000000
00000010
,
00000000
00000000
00000001
00000000
00000000
00000200
00000000
00000000
00000000
00000000
00000000
00000000
,
00000000
00000000
00000300
00000000
,
00000000
00000000
00000000
00000000
,
00000000
00000000
00000000
00000000
,
00000000
00010000
00100000
01000000
,
00100000
00000000
00000000
00010000
00000000
00100000
00000000
00000000
02000000
00000000
03000000
00000000
00100000
00000000
00000000
00010000
00000000
00000000
00100000
00000000
00000000
00010000
00000000
00000000
,
00002000
00000000
00000000
00000000
00000000
00000000
00000000
00000000
00000000
00003000
00000000
00000000
00000010
00000000
00000000
00000000
00000000
00000000
00000000
00000000
00000000
00000000
00000000
00000000
00000001
00000000
00000000
00000000
00000000
00000000
00001000
00000000
00000000
00000000
00000100
00000000
00000000
00000000
00000000
00000000
00000010
00000000
00000000
00000000
00000000
00000000
00001000
00000000
,
00000000
00000000
00000100
00000000
00000000
00000010
00000000
00000000
00000001
00000000
00000000
00000200
00000000
00000000
00000000
00000000
00000000
00000000
00000000
00000000
00000000
00000300
00000000
00000000
,
00000001
00000000
00000010
00000000
00000000
00001000
00000000
00000000
00000000
00000000
00000000
00000000
,
00010000
00100000
00020000
00000000
,
00130000
00000000
00000000
01000000
00000000
00000000
00100000
00000000
,
01000000
00100000
00020000
00000000
,
00032000
00000000
00000000
00013000
00000000
00000000
00001000
00000000
,
00000100
00000000
00000002
00000000
,
00000103
00000000
00000000
00000010
00000000
00000000
00000001
00000000
,
00000010
00000100
00000020
00000000
,
00002030
00000000
00000000
00003100
00000000
00000000
00001000
00000000
,
00010000
01000000
00200000
00000000
,
01300000
00000000
00000000
10000000
00000000
00000000
01000000
00000000
,
10000000
01000000
00200000
00000000
,
00320000
00000000
00000000
00031000
00000000
00000000
00000100
00000000
,
00000010
00000000
00000000
00000000
00000000
00000000
00000001
00000000
00000000
00000100
00000000
00000010
,
00000000
00000000
00001000
00000000
00000000
00000200
00000000
00000000
00000300
00000010
00000000
00001000
,
00000000
00000000
00000010
00000000
00000000
00002000
00000000
00003000
00000000
00000100
00000000
00000000
,
00000001
00000000
00000100
00000000
00000000
00000010
00000000
00000000
00000000
00000100
00000000
00000000
,
00001000
00000000
00000000
00000000
00000000
00000000
00010000
00000000
00000000
00100000
00000000
01000000
,
00000000
00000000
10000000
00000000
00000000
02000000
00000000
03000000
00000000
10000000
00000000
01000000
,
00000000
00000000
00100000
00000000
00000000
00020000
00000000
00000000
00000000
00000000
00000000
00000000
,
00000000
00000000
00000000
00000000
00000000
00030000
00000000
00000000
00000000
00000000
00000000
00000000
;

//--------------- dance-double - Wrland ----------------
#NOTES:
     dance-double:
     Wrland:
     Hard:
     12:
     0,0,0,0,0:
00000000
00000000
00000000
00000000
,
00000000
00000000
00000000
00000000
,
00000000
00000000
00000000
00000000
,
00000000
00000000
00000000
00000000
,
20000000
00000000
30000000
01000000
00000000
00100000
00000000
00000000
00020000
00000000
00030000
02000000
00000000
03000000
00000000
00100000
00000000
01000000
00000000
00000000
00200000
00000000
00300000
00000000
,
02000000
00000000
03000000
10000000
00000000
01000000
00000000
00000000
20000000
00000000
30000000
02000000
00000000
03000000
00000000
00100000
00000000
01000000
00000000
00000000
00200000
00000000
00000000
00300000
,
00000000
00000000
00000000
00020000
00000000
00030000
00001000
00000000
00000100
00000000
00000000
00000020
00000000
00000030
00000000
00000001
00000000
00000100
00000000
00000000
00000010
00000000
00000000
00000001
,
00000200
00000001
00001000
00000000
00000320
00000100
00001030
00000100
,
00000020
00000000
00000030
00000100
00000000
00001000
00000000
00000000
00002000
00000000
00003000
00020000
00000000
00030000
00000000
00100000
00000000
00100000
00000000
00000000
02000000
00000000
03000000
00000000
,
20000000
00000000
30000000
01000000
00000000
10000000
00000000
00000000
01000000
00000000
00000000
00200000
00000000
00000000
00000000
00000000
00300000
00000000
02000000
00000000
03000000
20000000
00000000
30000000
,
01000000
00000000
00000000
00100000
00000000
02000000
00000000
03000000
00200000
00000000
00300000
00020000
00000000
00030000
00000000
00001000
00000000
00000100
00000000
00000000
00000010
00000000
00000000
00000002
,
00000000
00000003
00000000
00000100
00000000
00000000
00000010
00000000
00000100
00000000
00000000
00002000
00000000
00003000
00000000
00000001
00000000
00000010
00000200
00000000
00000300
00002000
00000000
00003000
,
00020000
00000000
00030000
00100000
00000000
02000000
00000000
03000000
10000000
00000000
00000000
02000000
00000000
03000000
00000000
10000000
00000000
02000000
00000000
03000000
20000000
00000000
30000000
00000000
,
02000000
00000000
03000000
00100000
00000000
02000000
00000000
03000000
00100000
00000000
00000000
00020000
00000000
00000000
00000000
00000000
00030000
00000000
00001000
00000000
00000000
00000100
00000000
00000000
,
00000020
00000000
00000030
00000001
00000000
00000200
00000000
00000300
00000001
00000000
00000000
00000200
00000000
00000300
00000010
00000000
00000000
00000200
00000000
00000300
00000000
00001000
00000000
00000100
,
00000010
00000000
00000000
00000100
00000000
00000000
00000010
00000000
00000001
00000000
00000000
00001001
,
00000000
00000000
00000100
00001000
00020000
00000000
00030000
00000000
,
00200000
00000000
00000000
00000000
00300000
00000000
00000000
00000000
00000000
02000000
00000000
00000000
00000000
00000000
03000000
00000000
00000000
00000000
10000000
00000000
00000000
00000000
01000000
00000000
,
10000000
00000000
10000000
00000000
02000000
00000000
00000000
03000000
,
20000000
00000000
00000000
00000000
00000000
00000000
30000000
00000000
00000000
02000000
00000000
00000000
00000000
00000000
00000000
03000000
00000000
00000000
00100000
00000000
00000000
00000000
01000000
00000000
,
00010000
00100000
00020000
00030000
,
00002000
00000000
00000000
00000000
00000000
00000000
00003000
00000000
00000000
00000200
00000000
00000000
00000000
00000000
00000000
00000300
00000000
00000000
00000001
00000000
00000000
00000000
00000010
00000000
,
00000100
00000000
00001000
00000000
00000200
00000000
00000000
00000300
,
00002000
00000000
00000000
00000000
00000000
00000000
00003000
00000000
00000000
00000200
00000000
00000000
00000000
00000000
00000000
00000300
00000000
00000000
00001000
00000000
00000000
00000000
00010000
00000000
,
00100000
00000000
00200000
00300000
02000000
00000000
00000000
03000000
,
20000000
00000000
00000000
00000000
00000000
00000000
30000000
00000000
00000000
02000000
00000000
00000000
00000000
00000000
00000000
03000000
00000000
00000000
10000000
00000000
00000000
00000000
00100000
00000000
,
01000000
00000000
00000000
00100000
00000000
00010000
00200000
00000000
00000000
00000000
00300000
00000000
,
00020000
00000000
00000000
00000000
00000000
00000000
00030000
00000000
00000000
00002000
00000000
00000000
00000000
00000000
00003000
00000000
00000000
00000000
00000100
00000000
00000000
00000000
00000010
00000000
,
00000001
00000000
00000000
00000100
00000000
00000000
00000100
00000000
00000000
00000010
00000000
00000100
,
00000000
00000000
00000010
00000000
00000000
00000002
00000000
00000003
00000000
00000100
00000000
00001000
,
00000000
00000000
00000100
00000000
00000000
00000020
00000000
00000000
00000000
00000000
00000000
00000000
,
00000000
00000000
00000030
00000000
,
00000000
00000000
00000000
00000000
,
00000000
00000000
00000000
00000000
,
00000000
00000000
00000000
00000000
00000000
00000000
00000000
00000000
00000000
00000000
00000000
00000000
01000000
00000000
00000000
00100000
00000000
01000000
00000000
00000000
10000000
00000000
00000000
01000000
,
00000000
00000000
00000000
10000000
00000000
01000000
00000000
00000000
10000000
00000000
00000000
00000000
01000000
00000000
00000000
00100000
00000000
00010000
00000000
00000000
00001000
00000000
00000000
00000100
,
00000000
00000000
00000000
00000010
00000000
00000001
00000100
00000000
00000000
00000010
00000000
00000000
00000001
00000000
00000000
00000100
00000000
00000010
00000000
00000000
00000001
00000000
00000000
00000100
,
00000000
00000000
00001000
00000000
00000000
00001000
00000000
00000000
00010000
00000000
00000000
00010000
00000000
00000000
00000000
00000000
00000000
00000000
00100000
00000000
00000000
00000000
00000000
00000000
,
01000000
00000000
00100000
00000000
00000000
00010000
00000000
00000000
00000000
01000000
00000000
00000000
,
00100000
00000000
00010000
00000000
02000000
00000000
00000000
03000000
,
20000000
00000000
00000000
00000000
00000000
00000000
30000000
00000000
00000000
02000000
00000000
00000000
00000000
00000000
00000000
03000000
00000000
00000000
00100000
00000000
00000000
00000000
01000000
00000000
,
00010000
01000000
00010000
00100000
,
01000000
00000000
00100000
00000000
00000000
02000000
00000000
03000000
00000000
00010000
00000000
00010000
,
00001000
00000000
00000100
00000000
00000200
00000000
00000000
00000300
,
00000020
00000000
00000030
00000002
00000000
00000003
00000010
00000000
,
00000001
00000000
00000100
00000000
00000020
00000000
00000000
00000030
,
00000200
00000000
00000000
00000000
00000000
00000000
00000300
00000000
00000000
00002000
00000000
00000000
00000000
00000000
00000000
00003000
00000000
00000000
00000100
00000000
00000000
00000000
00001000
00000000
,
00010000
00000000
00000000
01000000
00000000
00000000
00020000
00000000
00000000
00000000
00000000
00030000
,
00200000
00000000
00300000
02000000
00000000
03000000
10000000
00000000
,
01000000
00000000
10000000
00000000
02000000
00000000
00000000
03000000
,
20000000
00000000
00000000
00000000
00000000
00000000
30000000
00000000
00000000
02000000
00000000
00000000
00000000
00000000
00000000
03000000
00000000
00000000
10000000
00000000
00000000
00000000
00100000
00000000
,
01000000
00000000
00000000
10000000
00000000
00000000
00100000
00000000
00000000
01000000
00000000
00100000
,
00000000
00000000
01000000
00000000
00000000
00200000
00000000
00300000
00000000
00010000
00000000
00100000
,
00000000
00000000
00020000
00000000
00030000
00000000
00001000
00000000
00000000
00000100
00000000
00000000
,
00000010
00000000
00000001
00000000
00000000
00000200
00000000
00000300
00000000
00000001
00000000
00000000
,
00000200
00000000
00000000
00000000
00000300
00000000
00000010
00000000
00000000
00000100
00000000
00000010
,
00000000
00000000
00000001
00000000
00000000
00000200
00000000
00000300
00000000
00001000
00000000
00000100
,
00000000
00000000
00001000
00000000
00000000
00000200
00000000
00000000
00000000
00000000
00000000
00000000
,
00000000
00000000
00000000
00000300
;
