#VERSION:0.83;
#TITLE:YOUR IDOL;
#SUBTITLE:;
#ARTIST:SAJA BOYS;
#TITLETRANSLIT:;
#SUBTITLETRANSLIT:;
#ARTISTTRANSLIT:;
#GENRE:K-POP DEMON HUNTERS;
#CREDIT:Sony & Netflix & Republic;
#MUSIC:YOUR IDOL.ogg;
#BANNER:YOUR IDOL.png;
#BACKGROUND:BG.png;
#JACKET:YOUR IDOL-jacket.png;
#DISCIMAGE:;
#CDIMAGE:;
#SELECTABLE:YES;
#LYRICSPATH:YOUR IDOL.lrc;
#CDTITLE:K-POP DEMON HUNTERS.png;
#SAMPLESTART:55.775;
#SAMPLELENGTH:15;
#BPMS:0.000000=135.700000,
1.000000=90.000000,
37.000000=180.000000
;
#STOPS:;
#WARPS:;
#DELAYS:;
#SPEEDS:;
#SCROLLS:;
#TICKCOUNTS:;
#TIMESIGNATURES:;
#LABELS:;
#COMBOS:;
#FAKES:;
#BGCHANGES:0.000=YOUR IDOL.avi=0.000=0=0=0=StretchNoLoop====,
99999=-nosongbg-=1.000=0=0=0 // don't automatically add -songbackground-
;
#FGCHANGES:;
#ATTACKS:;
#DISPLAYBPM:180.000;
#TAGS:DMCA;

//---------------dance-single - Wrland---------------
#NOTEDATA:;
#CHARTNAME:;
#CHARTSTYLE:Pad;
#CREDIT:Wrland;
#STEPSTYPE:dance-single;
#DESCRIPTION:Wrland;
#DIFFICULTY:Beginner;
#METER:4;
#METERF:4;
#RADARVALUES:0,0,0,0,0;
#NOTES:
// measure 0
0000
0000
0000
0000
,  // measure 1
0000
0000
0000
0000
,  // measure 2
0000
0000
0000
0000
,  // measure 3
0000
0000
0000
0000
,  // measure 4
0000
0000
0000
0000
,  // measure 5
0000
0000
0000
0000
,  // measure 6
0000
0000
0000
0000
,  // measure 7
0000
0000
0000
0000
,  // measure 8
0000
0000
0000
0000
,  // measure 9
0000
0100
0000
0100
,  // measure 10
0000
0100
0000
0001
,  // measure 11
0000
0001
0000
0100
,  // measure 12
0000
1000
0000
0100
,  // measure 13
0000
0001
0000
0100
,  // measure 14
0000
0100
0000
0010
,  // measure 15
0000
0010
0000
0001
,  // measure 16
0000
0000
0010
0000
0100
0000
0010
0001
,  // measure 17
0100
0010
0100
0000
0000
0000
0001
0000
,  // measure 18
0000
0100
0000
1000
,  // measure 19
0000
0100
0000
0001
,  // measure 20
0000
0100
0000
0010
,  // measure 21
0000
0001
0101
0000
,  // measure 22
1000
1100
0000
0000
,  // measure 23
0010
0100
0010
0000
0001
0100
0001
0000
,  // measure 24
0100
0200
0000
0300
,  // measure 25
0000
0200
0000
0300
,  // measure 26
0020
0000
0030
0200
,  // measure 27
0300
2000
0000
3000
0020
0000
0000
0000
,  // measure 28
0000
0000
0030
0200
,  // measure 29
0000
0300
0020
0000
0000
0000
0000
0030
,  // measure 30
0002
0000
0003
0200
0000
0300
2000
0000
,  // measure 31
3000
0200
0000
0000
0300
0020
0000
0000
,  // measure 32
0000
0000
0000
0030
,  // measure 33
0000
0000
0100
0000
0000
0000
0100
1000
,  // measure 34
0010
0100
0001
0000
0100
0000
0000
0000
,  // measure 35
0000
0001
0000
0010
,  // measure 36
0010
0100
0100
0000
0100
0000
0000
0000
,  // measure 37
0000
0000
0001
0000
0100
0000
0010
0100
,  // measure 38
0010
0100
0010
0000
0001
0000
0000
0000
,  // measure 39
0000
0100
1000
0100
,  // measure 40
0010
0100
0010
0000
0001
0000
0000
0000
,  // measure 41
0000
0000
0100
0000
0010
0100
0010
0000
,  // measure 42
0000
0000
0000
0000
0100
0001
0100
0000
,  // measure 43
0000
0000
0010
0000
1000
0100
0100
0000
,  // measure 44
0001
0010
0010
0000
0000
0000
0200
0000
,  // measure 45
0300
1000
0100
0000
0000
0000
0100
0000
,  // measure 46
0000
0001
0000
0010
,  // measure 47
0100
0010
0100
0000
0001
0100
0001
0000
,  // measure 48
1000
0100
1000
0000
1000
0000
0100
0000
,  // measure 49
0010
0100
0010
0000
0000
0000
0010
0000
,  // measure 50
0000
0001
0000
0001
,  // measure 51
0000
0100
0000
0100
,  // measure 52
0000
1000
0000
0001
,  // measure 53
0000
0100
0000
0010
,  // measure 54
0000
1000
0000
1000
,  // measure 55
0000
0100
0000
0001
,  // measure 56
0000
0000
0000
0000
,  // measure 57
0000
1001
0000
1001
,  // measure 58
0000
1001
0000
1001
,  // measure 59
0000
0110
0000
0110
,  // measure 60
0000
0110
0000
0110
,  // measure 61
0000
0100
0000
0010
,  // measure 62
0000
0100
0000
0010
,  // measure 63
0000
0010
0100
1000
,  // measure 64
0100
1000
0000
0000
,  // measure 65
0000
0000
0000
0000
,  // measure 66
0000
2002
3003
0000
,  // measure 67
0000
0000
0000
0011
,  // measure 68
1100
0110
1001
0110
,  // measure 69
0000
0100
0000
0001
,  // measure 70
0100
0110
0000
1000
,  // measure 71
0100
0000
0100
0000
0010
0100
0010
0000
,  // measure 72
0001
0100
0000
0100
,  // measure 73
1000
0100
1000
0000
0000
0000
0100
0000
,  // measure 74
0001
0100
0001
0000
0000
0000
0010
0000
,  // measure 75
0001
0100
0010
0000
1000
0000
1000
0000
,  // measure 76
0000
0100
0000
0001
,  // measure 77
0000
0000
0100
0000
0010
0001
0100
0000
,  // measure 78
0010
0100
0000
1000
,  // measure 79
0000
0000
0100
0000
0010
0100
0010
0000
,  // measure 80
0001
0000
0100
0000
0000
0010
0000
0000
;

//---------------dance-single - Wrland---------------
#NOTEDATA:;
#CHARTNAME:;
#CHARTSTYLE:Pad;
#CREDIT:Wrland;
#STEPSTYPE:dance-single;
#DESCRIPTION:Wrland;
#DIFFICULTY:Easy;
#METER:6;
#METERF:6;
#RADARVALUES:0,0,0,0,0;
#NOTES:
// measure 0
0000
0000
0000
0000
,  // measure 1
0000
0000
0000
0000
,  // measure 2
0000
0000
0000
0000
,  // measure 3
0000
0000
0000
0000
,  // measure 4
0000
0000
0000
0000
,  // measure 5
0000
0000
0000
0000
,  // measure 6
0000
0000
0000
0000
,  // measure 7
0000
0000
0000
0000
,  // measure 8
0000
0000
0000
0000
,  // measure 9
0000
0100
0000
0100
,  // measure 10
0010
0100
0000
0001
,  // measure 11
0100
0001
0000
0100
,  // measure 12
1000
0100
1000
0100
,  // measure 13
0010
0001
0000
0100
,  // measure 14
0001
0100
0000
0010
,  // measure 15
0100
0010
0000
0001
,  // measure 16
0100
0000
0010
0000
0100
0000
0010
0001
,  // measure 17
0100
0010
0100
0000
0010
0000
0001
0000
,  // measure 18
0000
0000
0100
0000
1000
0100
1000
0000
,  // measure 19
0000
0100
0010
0001
,  // measure 20
0000
0000
0100
0000
0010
0100
0010
0000
,  // measure 21
0000
0001
0101
0000
,  // measure 22
1000
0000
1100
0000
0100
0010
0100
0000
,  // measure 23
0010
0100
0010
0000
0001
0100
0001
0000
,  // measure 24
0100
0010
0200
0000
0000
0000
0300
0000
,  // measure 25
0010
0200
0000
0300
,  // measure 26
0020
0000
0030
0200
,  // measure 27
0300
2000
0000
3000
0020
0000
0000
0000
,  // measure 28
0000
0000
0030
0200
,  // measure 29
0000
0300
0020
0000
0000
0000
0000
0030
,  // measure 30
0002
0000
0003
0200
0000
0300
2000
0000
,  // measure 31
3000
0200
0000
0000
0300
0020
0000
0000
,  // measure 32
0000
0000
0000
0030
,  // measure 33
0000
0000
0100
0000
0001
0000
0100
1000
,  // measure 34
0010
0100
0001
0000
0100
0000
0110
0000
,  // measure 35
0000
0001
0100
0010
,  // measure 36
0100
1000
0100
0000
0100
0000
0010
0000
,  // measure 37
0000
0000
0001
0000
0100
0000
0010
0100
,  // measure 38
0010
0100
0010
0000
0001
0000
0100
0000
,  // measure 39
0000
0100
1000
0100
,  // measure 40
0010
0100
0010
0000
0001
0000
0100
0000
,  // measure 41
0000
0000
0100
0000
0010
0100
0010
0000
,  // measure 42
0000
0000
0001
0000
0100
0001
0100
0000
,  // measure 43
0000
0000
0010
0000
0100
1000
0100
0000
,  // measure 44
0010
0100
0010
0000
0000
0000
0200
0000
,  // measure 45
0300
1000
0100
0000
0000
0000
0100
0000
,  // measure 46
0010
0001
0100
0010
,  // measure 47
0100
0010
0100
0000
0001
0100
0001
0000
,  // measure 48
1000
0100
1000
0000
1000
0000
0100
0000
,  // measure 49
0010
0100
0010
0000
0100
0000
0010
0000
,  // measure 50
0000
0001
0100
0001
,  // measure 51
0000
0100
1000
0100
,  // measure 52
0000
0100
0010
0001
,  // measure 53
0000
0100
0010
0100
,  // measure 54
0000
1000
0100
1000
,  // measure 55
0000
0100
0010
0001
,  // measure 56
0000
0000
0000
0000
,  // measure 57
0000
1001
0000
1001
,  // measure 58
0000
1001
0000
1001
,  // measure 59
0000
0110
0000
0110
,  // measure 60
0000
0110
0000
0110
,  // measure 61
0000
0100
0010
0100
,  // measure 62
0010
0100
0000
0010
,  // measure 63
0001
0010
0100
1000
,  // measure 64
0100
0000
1000
0000
0000
0000
0001
1000
,  // measure 65
0001
1000
0000
0000
0000
0000
0000
0000
,  // measure 66
0000
0000
2002
0000
3003
0000
0100
0001
,  // measure 67
0010
0100
0001
0010
0100
0001
0011
0000
,  // measure 68
1100
0110
1001
0110
,  // measure 69
0000
0100
0010
0001
,  // measure 70
0100
0110
0000
1000
,  // measure 71
0100
1000
0100
0000
0010
0100
0010
0000
,  // measure 72
0001
0100
0010
0100
,  // measure 73
1000
0100
1000
0000
0100
0010
0100
0000
,  // measure 74
0001
0100
0001
0000
0000
0000
0010
0000
,  // measure 75
0100
0010
0100
0000
1000
0100
1000
0000
,  // measure 76
0000
0100
0010
0001
,  // measure 77
0000
0000
0100
0000
0010
0001
0100
0000
,  // measure 78
0010
0100
0000
1000
,  // measure 79
0100
1000
0100
0000
0010
0100
0010
0000
,  // measure 80
0001
0000
0100
0000
0000
0010
0000
0000
;

//---------------dance-single - Wrland---------------
#NOTEDATA:;
#CHARTNAME:;
#CHARTSTYLE:Pad;
#CREDIT:Wrland;
#STEPSTYPE:dance-single;
#DESCRIPTION:Wrland;
#DIFFICULTY:Medium;
#METER:10;
#METERF:10;
#RADARVALUES:0,0,0,0,0;
#NOTES:
// measure 0
0000
0000
0000
0000
,  // measure 1
0000
2000
3002
2003
,  // measure 2
3002
2003
0000
3002
,  // measure 3
0003
0200
0320
0230
,  // measure 4
0020
0300
0000
0000
0032
0000
0000
0000
0000
0000
0000
0000
0003
0000
0000
0000
,  // measure 5
0000
0200
0320
0230
,  // measure 6
2300
3200
0000
2300
,  // measure 7
3000
0000
0200
0000
0320
0230
0320
0032
,  // measure 8
0203
0000
0000
0000
,  // measure 9
0000
0300
0010
0000
0100
0000
0010
0100
,  // measure 10
0010
0100
0010
0000
0001
0000
0100
0001
,  // measure 11
0100
0001
0100
0000
0010
0000
0100
0010
,  // measure 12
1000
0010
0200
0300
1000
0100
2000
3000
,  // measure 13
0100
0010
0100
0000
0000
0000
0010
0100
,  // measure 14
0010
0100
0010
0000
0001
0000
0010
0100
,  // measure 15
0010
0100
1000
0000
0100
0000
1000
0100
,  // measure 16
1000
0100
1100
0000
0110
0000
0011
0000
,  // measure 17
0101
0000
0100
0000
0001
0000
0001
0010
,  // measure 18
0100
1000
0020
0030
0200
0300
0010
0000
,  // measure 19
0000
0000
1000
0000
1000
0100
2000
3000
,  // measure 20
0100
0010
0200
0300
0002
0003
0100
0000
,  // measure 21
0010
0100
0020
0030
0100
0000
0110
0000
,  // measure 22
0001
0100
0002
0003
0100
0000
0101
0000
,  // measure 23
0100
0010
2000
3000
0100
1000
0200
0300
,  // measure 24
0010
0100
0020
0030
0001
0100
0002
0003
,  // measure 25
0100
0010
0200
0000
0000
0010
0000
0000
,  // measure 26
0010
0000
0300
0002
0000
0000
1000
0000
,  // measure 27
0000
1000
0000
0003
0200
0000
0000
0000
,  // measure 28
0000
0000
0300
0200
,  // measure 29
0010
0000
0001
0000
0300
0002
0000
0000
,  // measure 30
1000
0000
0000
0100
0000
0003
0200
0000
,  // measure 31
0300
0010
0200
0000
0000
0010
0000
0000
,  // measure 32
0001
0000
0010
0000
0000
0300
1000
0001
,  // measure 33
1000
0001
1000
0000
0100
0000
1000
0100
,  // measure 34
1000
0100
1000
0000
0100
0000
0110
0000
,  // measure 35
0000
0000
0001
0100
0001
0100
0001
0000
,  // measure 36
0100
0010
0100
0000
1000
0000
1100
0000
,  // measure 37
0000
0000
0100
0000
0110
0000
0010
0001
,  // measure 38
0100
0010
0100
0000
0010
0000
1100
0000
,  // measure 39
0000
0000
0100
0010
0001
0100
0010
0000
,  // measure 40
0100
1000
0100
0000
1000
0000
0110
0000
,  // measure 41
0010
0001
0200
0300
0010
0100
0020
0030
,  // measure 42
0100
1000
0200
0300
0010
0100
0020
0030
,  // measure 43
0001
0000
0200
0300
0001
0100
0002
0003
,  // measure 44
0100
0010
0200
0300
0000
0000
2000
0000
,  // measure 45
3000
0001
1000
0000
0100
0000
0010
0100
,  // measure 46
0010
0100
0010
0000
0001
0000
0100
0000
,  // measure 47
0010
0000
0100
0000
0010
0000
0000
0001
0000
0000
1000
0000
0100
0000
0000
0000
,  // measure 48
1000
0100
2000
3000
0200
0300
0020
0000
,  // measure 49
0030
0100
0010
0000
0100
0001
0010
0000
,  // measure 50
0100
0000
0110
0000
1000
0100
1000
0000
,  // measure 51
0000
0000
0100
0000
0010
0001
0100
0000
,  // measure 52
0010
0000
0110
0000
0001
0100
0001
0000
,  // measure 53
0000
0000
0110
0000
1000
0100
1000
0000
,  // measure 54
0100
0000
0110
0000
0001
0100
0001
0000
,  // measure 55
0000
0000
0110
0000
0001
0100
0001
0000
,  // measure 56
0100
0001
0200
0300
0002
0003
0200
0300
,  // measure 57
0001
0100
0011
0000
0100
0010
1100
0000
,  // measure 58
0001
0100
0011
0000
0020
0000
0030
0000
,  // measure 59
0100
0000
1100
0000
0100
1000
0011
0000
,  // measure 60
0100
0010
1100
0000
0002
0000
0000
0003
,  // measure 61
0100
0000
0020
0030
0200
0300
0020
0030
,  // measure 62
0001
0100
0002
0000
0003
0000
0200
0300
,  // measure 63
2000
3000
1100
0000
0110
0000
0011
0000
,  // measure 64
0110
0000
2002
0000
3003
0000
1000
0001
,  // measure 65
1000
0001
0100
0010
0100
0010
0200
0300
,  // measure 66
0010
0000
0220
0000
0330
0000
0001
0100
,  // measure 67
0001
0100
0001
0100
0010
0100
0011
0000
,  // measure 68
1100
0110
1001
1100
,  // measure 69
0000
0000
0100
0010
0001
0100
0020
0030
,  // measure 70
0100
0000
0110
0000
0000
0000
0001
0010
,  // measure 71
0100
0010
0002
0003
0100
0010
0200
0300
,  // measure 72
2000
3000
0100
0000
1000
0100
2000
3000
,  // measure 73
0100
0010
0002
0003
0100
0001
0200
0300
,  // measure 74
0010
0100
2000
3000
0000
0000
0200
0300
,  // measure 75
1000
0100
2000
3000
0100
0010
0002
0003
,  // measure 76
0000
0000
0200
0300
0020
0030
0002
0003
,  // measure 77
0100
0000
0010
0100
0010
0100
0010
0000
,  // measure 78
0001
0000
0000
0000
1001
0000
0000
0000
1000
0000
0001
0000
1000
0000
0000
0001
,  // measure 79
0000
1000
0100
0000
0010
0100
0020
0030
,  // measure 80
0002
0003
0200
0000
0300
0010
0000
0000
;

//---------------dance-single - Wrland---------------
#NOTEDATA:;
#CHARTNAME:;
#CHARTSTYLE:Pad;
#CREDIT:Wrland;
#STEPSTYPE:dance-single;
#DESCRIPTION:Wrland;
#DIFFICULTY:Hard;
#METER:13;
#METERF:13;
#RADARVALUES:0,0,0,0,0;
#NOTES:
// measure 0
0000
0000
0000
0000
,  // measure 1
0000
0000
0M00
0000
00M0
0M00
00M0
0000
,  // measure 2
000M
0M00
00M0
0000
0M00
00M0
000M
0M00
,  // measure 3
0000
0000
00M0
0000
0M00
M000
0M00
0000
,  // measure 4
M000
0M00
00M0
000M
0M00
0000
00M0
0000
,  // measure 5
000M
0000
0M00
0000
00M0
0M00
00M0
0000
,  // measure 6
000M
0000
M000
0000
000M
M000
000M
0M00
,  // measure 7
0000
0000
00M0
0000
0M00
00M0
000M
0M00
,  // measure 8
00M0
0000
0M00
0000
00M0
0002
2003
3002
,  // measure 9
2003
3200
0320
0000
0130
0000
0010
0100
,  // measure 10
0010
0100
0010
0000
0001
0000
0100
0001
,  // measure 11
0100
0001
0100
0000
0100
0000
1000
0100
,  // measure 12
1000
0100
2000
3000
0100
0010
0002
0003
,  // measure 13
0100
0010
0100
0000
0010
0000
0001
0100
,  // measure 14
0001
0100
0001
0000
0010
0000
0100
1000
,  // measure 15
0100
1000
0100
0000
0010
0000
0100
0010
,  // measure 16
0001
0100
0011
0000
0110
0000
1100
0000
,  // measure 17
0110
0000
0010
0000
0200
0300
0010
0100
,  // measure 18
0010
0001
0200
0300
0020
0030
0100
0000
,  // measure 19
0000
0000
2000
3000
0100
1000
0200
0300
,  // measure 20
0100
0010
0200
0300
0020
0030
0002
0003
,  // measure 21
0100
0001
0200
0000
0301
0000
0000
0000
,  // measure 22
0100
0010
0200
0300
0010
0000
0001
0000
,  // measure 23
0100
0001
0200
0300
0010
0100
0020
0030
,  // measure 24
0100
1000
0200
0300
0010
0100
0020
0030
,  // measure 25
0001
0100
0020
0000
0030
0200
0000
0300
,  // measure 26
2000
0000
3000
0200
0000
0300
2000
0000
,  // measure 27
3000
0200
0000
0300
0020
0100
1000
0000
,  // measure 28
0100
0000
1000
0100
1030
0000
0001
0100
,  // measure 29
0001
0100
0002
0000
0003
0200
0000
0300
,  // measure 30
0020
0000
0030
0200
0000
0300
2000
0000
,  // measure 31
3000
0100
0020
0000
0030
0010
0200
0000
,  // measure 32
0010
0000
0001
0000
0310
0000
0100
0010
,  // measure 33
0100
0010
0200
0000
0310
0000
0001
0100
,  // measure 34
0001
0100
0002
0000
0103
0000
0220
0000
,  // measure 35
0330
0000
0100
0010
0001
0100
0010
0100
,  // measure 36
1000
0100
2000
0000
3100
0000
0220
0330
,  // measure 37
0100
0010
0002
0000
0103
0000
0010
0100
,  // measure 38
0010
0100
0020
0000
0031
0000
0220
0000
,  // measure 39
0330
0000
0010
0001
0100
0001
0200
0300
,  // measure 40
0010
0100
0020
0000
0031
1000
0200
0300
,  // measure 41
1000
0100
2000
3000
0100
0010
0200
0300
,  // measure 42
0010
0001
0200
0300
0010
0100
0020
0000
,  // measure 43
0130
0000
0020
0030
0001
0100
0002
0003
,  // measure 44
0100
0000
0010
0000
0200
0000
0300
0000
0010
0000
0001
0000
2000
0000
0000
3000
,  // measure 45
0100
0010
2000
0000
3100
0000
0010
0100
,  // measure 46
0010
0001
0200
0300
0020
0030
0100
0100
,  // measure 47
0010
0000
0100
0000
0020
0000
0030
0002
0000
0003
0100
0000
0020
0000
0030
0000
,  // measure 48
0100
0010
0200
0300
0020
0030
0002
0003
,  // measure 49
0010
0100
0020
0030
0100
0010
0200
0300
,  // measure 50
1000
0000
1100
0000
0100
0010
0002
0003
,  // measure 51
0100
0001
0020
0030
0001
0100
0020
0030
,  // measure 52
0100
0010
0110
0000
0001
0100
0002
0003
,  // measure 53
0100
0010
0200
0300
1000
0100
2000
3000
,  // measure 54
0100
0000
0110
0000
0001
0100
0002
0003
,  // measure 55
0100
1000
0020
0030
0100
0010
0002
0003
,  // measure 56
0100
0010
0200
0000
0320
0000
0230
0000
,  // measure 57
0000
0310
0110
0000
0010
0100
1001
0000
,  // measure 58
0010
0100
1100
0000
1000
0100
0110
0000
,  // measure 59
0001
0100
0011
0000
0010
0001
1100
0000
,  // measure 60
0100
0010
0110
0000
0100
1000
0011
0000
,  // measure 61
0001
0100
1100
0001
0010
0100
0100
1000
,  // measure 62
0010
0001
0210
0000
0300
0000
0002
0013
,  // measure 63
0200
0000
0301
0000
0100
1000
0100
0000
0010
0001
0010
0000
0100
0010
0100
0000
,  // measure 64
1000
0100
0010
0000
0200
0000
0001
0000
0010
0000
0300
0000
1000
0000
0100
0000
,  // measure 65
1000
0100
0010
0100
0010
0001
0200
0000
,  // measure 66
0310
0000
2002
0000
3003
0000
0100
0010
,  // measure 67
0001
0100
0010
0100
0010
0100
1010
0000
,  // measure 68
0101
1010
0011
0201
,  // measure 69
0300
0000
0001
0100
0001
0100
0002
0000
,  // measure 70
0103
0000
0220
0000
0330
0000
0100
0010
,  // measure 71
0001
0000
0010
0000
0200
0000
0300
0000
0020
0000
0030
0000
0010
0001
0100
0000
,  // measure 72
0001
0010
0001
0000
0100
0000
0010
0000
1000
0000
0100
0000
2000
0000
3000
0000
,  // measure 73
0100
0010
0200
0300
0001
0100
0002
0003
,  // measure 74
0010
0100
0020
0000
0130
0000
2000
3000
,  // measure 75
0100
1000
0200
0300
0010
0100
0020
0000
,  // measure 76
0031
0000
0002
0013
0200
1300
0020
0000
,  // measure 77
0130
0000
0000
0000
1000
0000
0100
0000
1000
0000
0100
0000
1000
0100
0010
0000
,  // measure 78
0200
0000
0000
0000
0310
0000
0000
0000
0001
0000
0100
0000
0002
0000
0003
0200
,  // measure 79
0000
0300
0010
0000
0200
0000
0300
0000
1000
0000
0100
0000
2000
0000
3000
0000
,  // measure 80
0200
0000
0000
0300
0020
0000
0000
0000
0000
0030
0100
0000
0000
0000
0000
0000
;

//---------------dance-single - i'll be YOUR IDOL---------------
#NOTEDATA:;
#CHARTNAME:;
#CHARTSTYLE:Pad;
#CREDIT:Wrland;
#STEPSTYPE:dance-single;
#DESCRIPTION:i'll be YOUR IDOL;
#DIFFICULTY:Challenge;
#METER:15;
#METERF:15;
#RADARVALUES:0,0,0,0,0;
#NOTES:
// measure 0
0000
0000
0000
0000
,  // measure 1
0000
0000
0M00
0000
00M0
0M00
00M0
0000
,  // measure 2
000M
0M00
00M0
0000
0M00
00M0
000M
0M00
,  // measure 3
0000
0000
00M0
0000
0M00
M000
0M00
0000
,  // measure 4
M000
0M00
00M0
000M
0M00
0000
00M0
0000
,  // measure 5
000M
0000
0M00
0000
00M0
0M00
00M0
0000
,  // measure 6
000M
0000
M000
0000
000M
M000
000M
0M00
,  // measure 7
0000
0000
00M0
0000
0M00
00M0
000M
0M00
,  // measure 8
00M0
0000
0M00
0000
00M0
0002
2003
3002
,  // measure 9
2003
3200
0320
0000
0130
0000
0010
0001
,  // measure 10
1000
0000
0001
0000
1000
0100
0010
0000
0200
0000
0000
0000
1300
0000
0100
0000
,  // measure 11
1000
0000
0100
0000
0010
0001
0100
0000
0200
0000
0000
0000
0310
0000
0001
0000
,  // measure 12
0100
0010
0002
0003
0100
0010
0200
0300
,  // measure 13
0010
1000
0001
0010
0200
0000
0301
0100
,  // measure 14
0001
0000
0100
0000
0010
0001
0100
0000
0002
0000
0000
0000
1003
0000
0010
0000
,  // measure 15
1000
0010
2000
0000
3100
0000
1000
0100
,  // measure 16
1000
0000
0100
0000
0010
0100
0001
0000
0100
0001
0010
0000
0100
0001
0010
0000
,  // measure 17
1000
0010
0100
0000
0001
0000
0010
0000
0100
0000
0001
0000
0010
0000
0100
0000
,  // measure 18
0001
0100
0002
0000
0203
0000
0310
0000
,  // measure 19
0100
1000
0100
0010
0001
0100
0020
0030
,  // measure 20
1000
0100
2000
0000
3200
0000
0310
0000
,  // measure 21
0100
0001
0020
0000
0130
0000
0100
0000
,  // measure 22
1000
0100
0002
0000
0103
0001
0100
0000
,  // measure 23
0001
0100
0002
0000
0013
1000
0020
0000
,  // measure 24
0130
0010
0002
0000
0103
0010
2000
0000
,  // measure 25
3001
1000
0200
0000
0301
0020
0000
1030
,  // measure 26
0002
0000
0013
0200
0000
0300
0010
0001
,  // measure 27
0100
0000
0010
0000
0200
0000
0000
0300
0001
0010
0001
0000
1000
0000
0100
0000
,  // measure 28
2000
0000
3000
0000
0100
0001
0010
0000
0001
0000
0100
0000
0010
0000
0100
0000
,  // measure 29
0010
0001
0200
0000
0310
0002
0000
0013
,  // measure 30
0200
0000
1300
0200
0000
0300
0010
0100
,  // measure 31
0010
0000
0001
0000
0100
0010
0100
0000
0010
0001
0100
0000
0001
0000
0100
0000
,  // measure 32
0020
0000
0030
0000
0100
0010
0100
0000
0001
0010
0001
0000
1000
0000
0010
0000
,  // measure 33
0100
0010
0002
0000
1003
0000
0100
1000
,  // measure 34
0100
1000
0200
0300
0020
0030
0220
0000
,  // measure 35
0330
0000
0100
0010
0001
0100
0010
0100
,  // measure 36
0010
0000
0001
0000
0100
0001
0100
0000
0010
0001
1000
0000
0220
0000
0330
0000
,  // measure 37
1000
0100
2000
0000
3010
0000
0010
0100
,  // measure 38
0010
0000
0001
0000
0100
0001
1000
0000
0020
0000
0030
0000
0220
0000
0000
0000
,  // measure 39
0330
0000
0100
1000
0100
1000
0200
0300
,  // measure 40
0010
0000
0100
0000
0010
0001
0100
0000
0001
0010
0001
0000
0100
1000
0100
0000
,  // measure 41
0010
0001
0100
0000
2000
0000
0000
0000
3100
0000
1000
0000
0200
0000
0000
0000
,  // measure 42
0310
0100
0020
0000
0031
0010
0200
0000
,  // measure 43
0310
0000
0000
0000
0200
0000
0000
0300
1000
0000
0100
0000
2000
0000
0000
3000
,  // measure 44
0100
0010
0200
0000
0300
0000
0002
0000
,  // measure 45
0000
0003
0010
0000
0200
0000
0000
0000
0310
0000
0000
0000
1000
0000
0100
0000
,  // measure 46
1000
0000
0100
0000
0010
0001
1000
0000
0200
0000
0300
0000
0202
0000
0303
0000
,  // measure 47
0010
0000
0100
0000
2000
0000
3000
0100
0000
0000
1000
0000
0200
0000
0300
0000
,  // measure 48
0010
0000
0001
0000
0100
0010
1000
0000
0010
0100
0001
0000
0200
0000
0300
0000
,  // measure 49
0010
0100
0110
0000
0100
0010
0200
0300
,  // measure 50
1000
0100
1100
0000
0100
0010
0002
0003
,  // measure 51
0010
0100
0110
0000
0001
0100
0002
0003
,  // measure 52
0100
0010
0110
0000
0100
0010
0200
0300
,  // measure 53
0010
0001
0110
0000
1000
0100
2000
3000
,  // measure 54
0100
0010
0110
0000
0001
0001
0020
0030
,  // measure 55
0100
0000
0010
0000
0100
0010
0001
0000
1000
0100
1000
0000
1000
0100
0010
0000
,  // measure 56
0100
0001
0010
0000
0002
0000
0000
0000
0203
0000
0000
0000
0302
0000
0000
0000
,  // measure 57
0103
0010
1100
0000
0100
0100
0110
0000
,  // measure 58
0010
0010
0011
0000
0010
0010
0110
0000
,  // measure 59
0100
0100
1001
0000
0010
0100
1100
0000
,  // measure 60
1000
0100
0110
0000
0010
0001
0011
0000
,  // measure 61
0001
0010
0110
0010
1000
0010
0100
0010
,  // measure 62
1000
0000
0100
0000
0100
0001
0100
0000
0010
0000
0100
0000
1000
0000
0100
0000
,  // measure 63
0001
0000
0010
0000
0100
1000
0100
0000
0010
0001
0010
0000
0001
0010
0001
0000
,  // measure 64
0100
0000
0010
0000
0010
0001
0100
0010
1000
0001
0010
1000
0100
0000
0010
0000
,  // measure 65
0100
0020
0130
0010
0100
0010
0002
0000
,  // measure 66
1003
0000
2002
0000
3003
0000
1000
0001
,  // measure 67
1000
0000
0001
0000
1000
0000
0100
0000
1000
0000
0100
0000
1000
0100
0010
0000
,  // measure 68
0100
0001
1000
0000
0010
0100
0010
0000
0001
0010
1000
0000
0220
0000
0330
0000
,  // measure 69
0010
0001
0010
0100
0010
0001
0200
0000
,  // measure 70
0310
0000
0220
0000
0330
0000
0100
0010
,  // measure 71
0100
0010
0001
0100
0010
0100
1010
0000
,  // measure 72
0101
0000
1010
0000
0100
0010
0002
0003
,  // measure 73
0100
0010
0200
0300
0100
1000
0200
0300
,  // measure 74
1000
0000
0100
0000
0020
0000
0030
0000
0010
0001
0100
0001
0200
0000
0300
0000
,  // measure 75
0010
0100
0020
0030
0001
0100
0002
0003
,  // measure 76
0010
0000
0100
0000
0100
0001
0010
0000
0010
1000
0100
0000
0002
0000
0003
0000
,  // measure 77
0010
0100
0010
0000
0100
0000
0010
0000
0100
0000
0010
0000
0100
0001
0100
0000
,  // measure 78
0010
0001
0100
0000
0220
0000
0330
0000
1000
0000
0100
0000
2000
0000
3000
0200
,  // measure 79
0000
0300
0010
0000
0002
0000
0003
0000
0100
0000
0010
0000
0200
0000
0000
0000
,  // measure 80
0320
0000
0000
0000
0230
0000
0000
0000
0000
0300
0010
0000
0000
0000
0000
0000
;

//---------------dance-double - Wrland---------------
#NOTEDATA:;
#CHARTNAME:;
#CHARTSTYLE:Pad;
#CREDIT:Wrland;
#STEPSTYPE:dance-double;
#DESCRIPTION:Wrland;
#DIFFICULTY:Easy;
#METER:7;
#METERF:7;
#RADARVALUES:0,0,0,0,0;
#NOTES:
// measure 0
00000000
00000000
00000000
00000000
,  // measure 1
00000000
00000000
00000000
00000000
,  // measure 2
00000000
00000000
00000000
00000000
,  // measure 3
00000000
00000000
00000000
00000000
,  // measure 4
00000000
00000000
00000000
00000000
,  // measure 5
00000000
00000000
00000000
00000000
,  // measure 6
00000000
00000000
00000000
00000000
,  // measure 7
00000000
00000000
00000000
00000000
,  // measure 8
00000000
00000000
00000000
00000000
,  // measure 9
00000000
01000000
00100000
01000000
,  // measure 10
00100000
00010000
00001000
00000000
00000100
00000000
00000010
00000100
,  // measure 11
00000010
00000100
00000010
00000000
00000100
00000000
00001000
00010000
,  // measure 12
00100000
00010000
00200000
00300000
10000000
01000000
20000000
30000000
,  // measure 13
01000000
00100000
01000000
00000000
00100000
00000000
00010000
00001000
,  // measure 14
00000100
00000010
00000001
00000000
00000001
00000000
00000100
00000001
,  // measure 15
00000100
00000001
00000100
00000000
00001000
00000000
00010000
00100000
,  // measure 16
01000000
00100000
10010000
00000000
01100000
00000000
10010000
00000000
,  // measure 17
01100000
00000000
00010000
00000000
00001000
00000000
00000100
00000010
,  // measure 18
00000001
00000000
00000010
00000000
00000001
00000010
00000001
00000000
,  // measure 19
00000010
00000000
00000100
00000000
00001000
00010000
00100000
00000000
,  // measure 20
10000000
01000000
10000000
00000000
01000000
00000000
00100000
00000000
,  // measure 21
01000000
00100000
00020000
00000000
00031000
00000000
00000100
00000000
,  // measure 22
00000010
00000100
00000010
00000000
00000001
00000000
00000100
00000000
,  // measure 23
00001000
00010000
00100000
00000000
10000000
01000000
10000000
00000000
,  // measure 24
01000000
00100000
01000000
00000000
00100000
01000000
00100000
00000000
,  // measure 25
00010000
01000000
00020000
00000000
00030000
00002000
00000000
00003000
,  // measure 26
00000200
00000000
00000300
00000020
00000000
00000030
00000001
00000000
,  // measure 27
00000010
00000000
00000200
00000000
00000300
00002000
00000000
00003000
,  // measure 28
00010000
00000000
00200000
00000000
00300000
00000000
02000000
03000000
,  // measure 29
20000000
30000000
02000000
00000000
03000000
20000000
00000000
30000000
,  // measure 30
02000000
00000000
03000000
00200000
00000000
00300000
00020000
00030000
,  // measure 31
00001000
00000000
00000200
00000000
00000300
00000020
00000000
00000030
,  // measure 32
00000001
00000200
00000000
00000300
,  // measure 33
00000000
00000000
00001000
00000000
00010000
00000000
01000000
00100000
,  // measure 34
01000000
00100000
01000000
02200000
,  // measure 35
03300000
10000000
01000000
00100000
,  // measure 36
00000000
00010000
00001000
00000220
,  // measure 37
00000330
00000100
00000010
00000001
,  // measure 38
00000100
00000001
00000100
00000000
00000010
00000000
00000220
00000000
,  // measure 39
00000330
00001000
00010000
00100000
,  // measure 40
10000000
00100000
01000000
00000000
10000000
00000000
01000000
00000000
,  // measure 41
00100000
10000000
01000000
00000000
00100000
01000000
00100000
00000000
,  // measure 42
01000000
00100000
00010000
00000000
00100000
00010000
00100000
00000000
,  // measure 43
00000000
00000000
00010000
00000000
00001000
00010000
00001000
00000000
,  // measure 44
00010000
00001000
00000200
00000000
00000300
00000000
00000020
00000000
,  // measure 45
00000030
00000001
00000010
00000000
00000100
00000000
00001000
00000000
,  // measure 46
00010000
01000000
00100000
00000000
01000000
00000000
02200000
03300000
,  // measure 47
00100000
00000000
00000000
00000000
00010000
00000000
00000000
00001000
00000000
00000000
00000100
00000000
00000010
00000000
00000000
00000000
,  // measure 48
00000100
00000010
00001100
00000000
00011000
00000000
00020000
00000000
,  // measure 49
00000000
10030000
01000000
00000000
00100000
00000000
00010000
00000000
,  // measure 50
00100000
00010000
00110000
00000000
00010000
00000000
00001000
00000000
,  // measure 51
00001000
00000100
00000010
00000000
00000100
00000010
00000100
00000000
,  // measure 52
00000010
00000000
00000110
00000000
00000001
00000100
00000001
00000000
,  // measure 53
00000100
00000000
00001000
00000000
00010000
00100000
01000000
00000000
,  // measure 54
00100000
00000000
01100000
00000000
10000000
01000000
10000000
00000000
,  // measure 55
01000000
00000000
00100000
00000000
01000000
00100000
01000000
00000000
,  // measure 56
00100000
00010000
00100000
00000000
00000000
00000000
00000000
00000000
,  // measure 57
00000000
00001001
00000000
00000110
,  // measure 58
00000000
00001100
00000000
00000110
,  // measure 59
00000000
00001100
00000000
00011000
,  // measure 60
00000000
00110000
00000000
01100000
,  // measure 61
00000000
10000000
01000000
10000000
,  // measure 62
01000000
20000000
30000000
01000000
,  // measure 63
00100000
00110000
00110000
00011000
,  // measure 64
00011000
00000000
00002200
00000000
00003300
00000000
00000100
00000010
,  // measure 65
00000100
00000010
00000000
00000000
00000000
00000000
00000000
00000000
,  // measure 66
00000000
00000000
00002002
00000000
00003003
00000000
00001000
00010000
,  // measure 67
00100000
01000000
10000000
01000000
00100000
01000000
01100000
00000000
,  // measure 68
10100000
01100000
00110000
00022000
,  // measure 69
00033000
00000000
00001000
00000000
00000100
00001000
00000100
00000000
,  // measure 70
00000010
00000202
00000303
00000100
,  // measure 71
00000010
00000100
00001000
00000000
00010000
00000000
00100000
00000000
,  // measure 72
01000000
00000000
10000000
01000000
10000000
00000000
01000000
00000000
,  // measure 73
00100000
01000000
00100000
00000000
00010000
00100000
00010000
00000000
,  // measure 74
00001000
00010000
00001000
00000000
00000100
00000000
00000010
00000000
,  // measure 75
00000100
00000010
00000100
00000000
00000001
00000100
00000002
00000000
,  // measure 76
00000000
00000103
00000010
00000200
,  // measure 77
00000300
00000000
00001000
00000000
00010000
00100000
01000000
00000000
,  // measure 78
10000000
00000000
00000000
00000000
02200000
00000000
03300000
00000000
01000000
00000000
00100000
00000000
01000000
00000000
00000000
00010000
,  // measure 79
00000000
00100000
00010000
00000000
00001000
00000100
00000110
00000000
,  // measure 80
00001100
00000000
00000200
00000000
00000000
00000301
00000000
00000000
;

//---------------dance-double - Wrland---------------
#NOTEDATA:;
#CHARTNAME:;
#CHARTSTYLE:Pad;
#CREDIT:Wrland;
#STEPSTYPE:dance-double;
#DESCRIPTION:Wrland;
#DIFFICULTY:Medium;
#METER:10;
#METERF:10;
#RADARVALUES:0,0,0,0,0;
#NOTES:
// measure 0
00000000
00000000
00000000
00000000
,  // measure 1
00000000
00000000
20000000
00000000
32000000
00000000
00200000
03000000
,  // measure 2
00320000
00032000
00003200
00000320
,  // measure 3
00000000
00000030
00000002
00000000
00000023
00000000
00000230
00000000
,  // measure 4
00002300
00023000
00000000
00030000
,  // measure 5
00000000
20000000
32000000
23000000
,  // measure 6
32000000
03200000
00000000
00320000
,  // measure 7
00030000
00002000
00003200
00000320
,  // measure 8
00000032
00000000
00000000
00000000
,  // measure 9
00000003
00000000
00000100
00000000
00000010
00000000
00000100
00001000
,  // measure 10
00010000
00100000
01000000
00000000
01100000
00000000
10000000
01000000
,  // measure 11
00100000
00010000
00001000
00000000
00001100
00000000
00000100
00000010
,  // measure 12
00000001
00000100
00000010
00000000
00000100
00000010
00000100
00000000
,  // measure 13
00001000
00010000
00100000
00000000
01000000
00000000
10000000
01000000
,  // measure 14
10000000
01000000
00100000
00000000
01100000
00000000
00100000
00010000
,  // measure 15
00001000
00000100
00000001
00000000
00000011
00000000
00000010
00000100
,  // measure 16
00001000
00010000
00110000
00000000
11000000
00000000
01100000
00000000
,  // measure 17
11000000
00000000
01000000
00000000
00100000
00000000
00011000
00001000
,  // measure 18
00000100
00000010
00000001
00000000
00000100
00000000
00000110
00000000
,  // measure 19
00001000
00000000
00010000
00000000
00100000
01000000
11000000
00000000
,  // measure 20
01000000
10000000
01000000
00000000
00100000
00000000
00110000
00000000
,  // measure 21
00010000
00001000
00000100
00000000
00000010
00000000
00000110
00000000
,  // measure 22
00000010
00000001
00000100
00000000
00000100
00000000
00011000
00000000
,  // measure 23
00100000
01000000
00100000
00000000
10000000
01000000
10000000
00000000
,  // measure 24
01000000
00100000
00010000
00000000
01000000
00100000
00010000
00000000
,  // measure 25
01000000
00100000
00020000
00000000
00000000
00001000
00000000
00000000
,  // measure 26
00001000
00000000
00030000
00002000
00000000
00000000
00000001
00000000
,  // measure 27
00000000
00000001
00000000
00003000
00000200
00000000
00000000
00000000
,  // measure 28
00000000
00000000
00000300
00002000
,  // measure 29
00100000
00000000
00010000
00000000
00003000
00020000
00000000
00000000
,  // measure 30
10000000
00000000
00000000
01000000
00000000
00030000
02000000
00000000
,  // measure 31
03000000
00100000
02000000
00000000
00000000
00100000
00000000
00000000
,  // measure 32
00010000
00000000
00100000
00000000
00000000
03000000
00010000
00001000
,  // measure 33
00000100
00000010
00000002
00000000
00000103
00000000
00000010
00000100
,  // measure 34
00000010
00000100
00000020
00000000
00000031
00000000
00002002
00000000
,  // measure 35
00003003
00000000
00001000
00010000
00100000
01000000
10000000
01000000
,  // measure 36
10000000
01000000
20000000
00000000
30010000
00000000
02200000
03300000
,  // measure 37
00100000
00010000
00002000
00000000
00003100
00000000
00000010
00000100
,  // measure 38
00000010
00000100
00000020
00000000
00000031
00000000
00000202
00000000
,  // measure 39
00000303
00000000
00000100
00001000
00010000
00100000
20000000
30000000
,  // measure 40
01000000
00000000
10000000
00000000
02000000
00000000
00000000
00000000
03100000
00000000
00000000
00000000
00010000
00100000
00010000
00000000
,  // measure 41
00001000
00000100
00001000
00000000
00000020
00000000
00000030
00000000
00000001
00000000
00000010
00000000
00000002
00000000
00000003
00000000
,  // measure 42
00000010
00000100
00002000
00003000
00010000
00100000
02000000
00000000
,  // measure 43
13000000
00000000
20000000
30000000
01000000
10000000
02000000
03000000
,  // measure 44
00100000
01000000
00200000
00000000
00300000
00000000
02000000
00000000
,  // measure 45
00000000
03010000
00002000
00000000
00003100
00000000
00000010
00000100
,  // measure 46
00000010
00000001
00000200
00000000
00000310
00000000
00000220
00000330
,  // measure 47
00000100
00000000
00001000
00000000
00020000
00000000
00030000
00200000
00000000
00300000
10000000
00000000
02000000
00000000
00000000
03000000
,  // measure 48
10000000
01000000
20000000
00000000
30020000
00000000
20030000
00000000
,  // measure 49
00000000
30010000
00001000
00000000
00000100
00001000
00000100
00000000
,  // measure 50
00000010
00000000
00000110
00000000
00000001
00000100
00000010
00000000
,  // measure 51
00000100
00000000
00001000
00000000
00010000
00100000
01000000
00000000
,  // measure 52
10000000
01000000
11000000
00000000
01000000
00100000
01000000
00010000
,  // measure 53
00100000
01000000
00010000
00000000
00001000
00000100
00000010
00000000
,  // measure 54
00000100
00000000
00000110
00000000
00000001
00000100
00000010
00000000
,  // measure 55
00000100
00000000
00001000
00000000
00010000
00100000
01000000
00000000
,  // measure 56
10000000
00010000
02000000
03000000
00020000
00030000
02000000
03000000
,  // measure 57
00010000
01000000
00011000
00000000
00000100
00000010
00000101
00000000
,  // measure 58
00001000
00000100
00001010
00000000
00000020
00000000
00000130
00000000
,  // measure 59
00001000
00000000
00011000
00000000
00100000
10000000
00110000
00000000
,  // measure 60
01000000
00100000
11000000
00000000
00020000
00000000
10030000
00000000
,  // measure 61
01000000
00000000
00200000
00300000
00020000
00030000
00002000
00003000
,  // measure 62
00000010
00000100
00000002
00000000
00000003
00000000
00000200
00000300
,  // measure 63
00020000
00030000
11000000
00000000
01100000
00000000
00110000
00000000
,  // measure 64
01100000
00000000
20020000
00000000
30030000
00000000
01000000
00100000
,  // measure 65
00010000
00001000
00000100
00000010
00000100
00000010
00000200
00000300
,  // measure 66
00000010
00000000
00000220
00000000
00000330
00000000
00001000
00010000
,  // measure 67
01000000
00100000
01000000
00100000
01000000
00100000
01100000
00000000
,  // measure 68
11000000
01100000
10010000
20000000
,  // measure 69
31000000
00000000
00100000
01000000
00100000
01000000
00200000
00000000
,  // measure 70
01300000
00000000
00000000
00000000
02200000
00000000
03300000
00000000
00100000
01000000
00100000
00000000
00010000
00000000
00001000
00000000
,  // measure 71
00000100
00000010
00000002
00000000
00000013
00000100
00000011
00000000
,  // measure 72
00001100
00000000
00011000
00000000
01100000
00000000
20000000
30000000
,  // measure 73
01000000
10000000
02000000
03000000
10000000
01000000
00200000
00300000
,  // measure 74
01000000
00000000
00100000
00000000
02000000
00000000
00000000
00000000
03100000
00000000
00000000
00000000
00010000
00001000
00010000
00000000
,  // measure 75
00001000
00000000
00000100
00000000
00000010
00000100
00000010
00000000
00000001
00000000
00000100
00000000
00000002
00000000
00000000
00000000
,  // measure 76
00000013
00000000
00000000
00000000
00000100
00000010
00000100
00000000
00001000
00010000
00001000
00000000
00020000
00000000
00000000
00000000
,  // measure 77
00130000
00000000
00100000
00010000
00100000
00010000
00200000
00000000
,  // measure 78
01300000
00000000
00000000
00000000
02200000
00000000
03300000
00000000
10000000
00000000
01000000
00000000
20000000
00000000
30000000
02000000
,  // measure 79
00000000
03000000
00100000
00000000
00020000
00000000
00030000
00000000
00001000
00000000
00000100
00000000
00000020
00000000
00000000
00000000
,  // measure 80
00000032
00000000
00000203
00000000
00000000
00000310
00000000
00000000
;

//---------------dance-double - Wrland---------------
#NOTEDATA:;
#CHARTNAME:;
#CHARTSTYLE:Pad;
#CREDIT:Wrland;
#STEPSTYPE:dance-double;
#DESCRIPTION:Wrland;
#DIFFICULTY:Hard;
#METER:13;
#METERF:13;
#RADARVALUES:0,0,0,0,0;
#NOTES:
// measure 0
00000000
00000000
00000000
00000000
,  // measure 1
00000000
0M000000
00M00000
000M0000
,  // measure 2
0000M000
00000000
00000M00
00000000
00000000
00000000
000000M0
0000000M
,  // measure 3
00000000
00000000
000000M0
00000000
00000M00
0000M000
000M0000
0M000000
,  // measure 4
00M00000
0M000000
00M00000
000M0000
00000000
00000000
0000M000
00000M00
,  // measure 5
000000M0
00000000
0000000M
00000000
000000M0
00000M00
0000M000
00000000
,  // measure 6
000M0000
00M00000
0M000000
00000000
M0000000
0M000000
M0000000
00000000
,  // measure 7
0M000000
00000000
00M00000
00000000
000M0000
0000M000
00000M00
000000M0
,  // measure 8
0000000M
00000000
000000M0
00000M00
0000M000
00020000
00230000
02300000
,  // measure 9
23000000
31000000
00100000
00000000
01000000
00000000
00100000
01000000
,  // measure 10
00100000
00010000
00002000
00003000
00000100
00000000
00000010
00000001
,  // measure 11
00000100
00000010
00000200
00000300
00001000
00000000
00010000
00100000
,  // measure 12
00100000
01000000
20000000
30000000
01000000
10000000
02000000
03000000
,  // measure 13
00100000
01000000
00200000
00300000
00010000
00000000
00001000
00000100
,  // measure 14
00000010
00000001
00000020
00000030
00000100
00000000
00001000
00010000
,  // measure 15
00100000
01000000
20000000
30000000
01000000
00000000
00100000
00010000
,  // measure 16
00001000
00000100
00000011
00000000
00001100
00000000
00011000
00000000
,  // measure 17
00110000
00000000
02000000
03000000
00200000
00300000
01000000
00100000
,  // measure 18
00010000
00000000
00001000
00000000
00000100
00000010
00000100
00000000
00000010
00000100
00000010
00000000
00000012
00000000
00000000
00000000
,  // measure 19
00000013
00000100
00000020
00000030
00000100
00001000
00020000
00030000
,  // measure 20
00100000
00000000
01000000
00000000
00100000
00010000
00100000
00000000
01000000
00100000
01000000
00000000
21000000
00000000
00000000
30000000
,  // measure 21
01000000
00000000
00100000
00000000
00020000
00000000
00000000
00030000
00001000
00000000
00000000
00000000
00000100
00000000
00000001
00000000
,  // measure 22
00000010
00000000
00000001
00000000
00000010
00000001
00000010
00000000
00000100
00000010
00000100
00000000
00002000
00000000
00003000
00000000
,  // measure 23
00010000
00100000
02000000
03000000
10000000
01000000
00200000
00300000
,  // measure 24
01000000
00100000
00020000
00030000
00001000
00000100
00000020
00000030
,  // measure 25
00000001
00000010
00000200
00000000
00000300
00000020
00000000
00000030
,  // measure 26
00000002
00000000
00000003
00000020
00000000
00000030
00000002
00000000
,  // measure 27
00000003
00000200
00000000
00000300
00002000
00010000
00100000
00000000
,  // measure 28
00010000
00000000
00100000
00010000
00103000
00000000
00010000
01000000
,  // measure 29
00010000
01000000
00020000
00000000
00030000
02000000
00000000
03000000
,  // measure 30
00200000
00000000
00300000
02000000
00000000
03000000
20000000
00000000
,  // measure 31
30000000
01000000
00200000
00000000
00300000
00010000
00002000
00000000
,  // measure 32
00000100
00000000
00010000
00000000
00003100
00000000
00000100
00000010
,  // measure 33
00000100
00000000
00000010
00000000
00000200
00000000
00000000
00000000
00000310
00000000
00000000
00000000
00001000
00000010
00000100
00001000
,  // measure 34
00000010
00000001
00000200
00000000
00001300
00000000
00022000
00000000
,  // measure 35
00033000
00000000
00000000
00000000
00100000
00010000
00100000
01000000
00100000
00000000
00100000
00000000
00010000
00000000
01000000
00000000
,  // measure 36
00100000
01000000
02000000
00000000
03100000
00000000
02200000
03300000
,  // measure 37
00010000
00100000
00010000
00000000
00002000
00000000
00000000
00000000
00003100
00000000
00000000
00000000
00000010
00000001
00000010
00000100
,  // measure 38
00000010
00000100
00002000
00000000
00013000
00000000
00220000
00330000
,  // measure 39
01000000
00100000
01000000
00100000
10000000
00000000
01000000
00000000
10000000
00000000
01000000
00000000
20000000
00000000
00000000
00000000
,  // measure 40
31000000
00000000
00100000
00000000
00020000
00000000
00000000
00000000
01030000
00000000
00000000
00000000
00100000
00010000
01000000
00100000
,  // measure 41
00010000
00001000
00000200
00000300
00000001
00000100
00000020
00000030
,  // measure 42
00001000
00010000
20000000
30000000
00100000
01000000
00200000
00000000
,  // measure 43
01300000
00100000
00010000
00100000
02000000
00000000
03000000
00000000
00100000
00000000
00010000
00000000
00002000
00000000
00003000
00000000
,  // measure 44
00000100
00000000
00000010
00000000
00000002
00000000
00000000
00000000
00001003
00000010
00000100
00000010
00000002
00000000
00000000
00000000
,  // measure 45
00000003
00000010
00000200
00000000
00001300
00000000
00010000
00100000
,  // measure 46
01000000
10000000
02000000
00000000
03100000
00000000
02200000
03300000
,  // measure 47
00100000
00010000
00001000
00000100
00000020
00000000
00000030
00000200
00000000
00000300
00000010
00000000
00000002
00000000
00000003
00000000
,  // measure 48
00000100
00000010
00000200
00000300
00000020
00000030
00000200
00000000
,  // measure 49
00000000
00000310
00001000
00000000
00010000
00100000
01000000
00000000
,  // measure 50
10000000
00000000
01100000
00000000
01000000
00100000
01000000
00000000
,  // measure 51
00100000
00010000
00001000
00000000
00000100
00000010
00000001
00000000
,  // measure 52
00000010
00000000
00000110
00000000
00001000
00010000
00100000
00010000
,  // measure 53
10000000
01000000
10000000
00000000
01000000
00100000
00010000
00000000
,  // measure 54
00001000
00000000
00001100
00000000
00000100
00000010
00000001
00000000
,  // measure 55
00000001
00000000
00000010
00000000
00000100
00001000
00010000
00000000
,  // measure 56
00100000
01000000
00200000
00000000
02300000
00000000
03200000
00000000
,  // measure 57
00000000
00310000
01100000
00000000
00100000
01000000
00011000
00000000
,  // measure 58
00001000
00000100
00000101
00000000
00000001
00000100
00000110
00000000
,  // measure 59
00001000
00000100
00001010
00000000
00001000
00010000
11000000
00000000
,  // measure 60
01000000
00100000
01100000
00000000
01000000
10000000
00110000
00000000
,  // measure 61
00010000
01000000
00110000
00001000
00000010
00000100
00000100
00000001
,  // measure 62
00000010
00001000
00000210
00000000
00000300
00000000
00002000
00013000
,  // measure 63
00200000
00000000
00310000
00000000
01000000
10000000
01000000
00000000
00100000
00010000
00100000
00000000
01000000
00100000
01000000
00000000
,  // measure 64
10000000
01000000
00100000
00000000
02000000
00000000
00010000
00000000
00100000
00000000
03000000
00000000
00010000
00000000
00001000
00000000
,  // measure 65
00000100
00000010
00000001
00000100
00000010
00000001
00000020
00000000
,  // measure 66
00000130
00000000
00022000
00000000
00033000
00000000
00010000
00100000
,  // measure 67
00010000
01000000
00100000
01000000
00100000
01000000
10100000
00000000
,  // measure 68
01010000
10100000
00110000
02010000
,  // measure 69
03000000
00000000
00100000
00010000
00001000
00000010
00000002
00000000
,  // measure 70
00000103
00000000
00000000
00000000
00000220
00000000
00000330
00000000
00000100
00000010
00001000
00000000
00010000
00000000
00100000
00000000
,  // measure 71
01000000
00000000
10000000
00000000
01000000
00100000
10000000
00000000
01000000
00000000
00100000
00000000
00020000
00000000
00000000
00000000
,  // measure 72
00031000
00000000
00002200
00003300
00000010
00000001
00000020
00000030
,  // measure 73
00000100
00000010
00000200
00000300
00001000
00010000
00200000
00300000
,  // measure 74
10000000
00000000
01000000
00000000
00200000
00000000
00000000
00000000
01300000
01000000
10000000
01000000
00200000
00000000
00300000
00000000
,  // measure 75
00010000
00001000
00000200
00000300
00000010
00000100
00000020
00000000
,  // measure 76
00000031
00000100
00000011
00000000
00001100
00000000
00011000
00000000
,  // measure 77
00100000
00010000
00100000
10000000
00100000
00000000
00010000
00000000
00100000
00000000
10000000
00000000
02000000
00000000
00000000
00000000
,  // measure 78
03100000
00000000
00000000
00000000
02200000
00000000
03300000
00000000
10000000
00000000
01000000
00000000
00200000
00000000
00300000
00020000
,  // measure 79
00000000
00030000
00001000
00000000
00000200
00000000
00000300
00000000
00000010
00000000
00000100
00000000
00000011
00000000
00000000
00000000
,  // measure 80
00000110
00000000
00002000
00000000
00000000
00013000
00000000
00000000
;
