#VERSION:0.83;
#TITLE:What It Sounds Like;
#SUBTITLE:;
#ARTIST:HUNTR/X;
#TITLETRANSLIT:;
#SUBTITLETRANSLIT:;
#ARTISTTRANSLIT:;
#GENRE:K-POP DEMON HUNTERS;
#CREDIT:Sony & Netflix & Republic;
#MUSIC:What It Sounds Like.ogg;
#BANNER:What It Sounds Like.png;
#BACKGROUND:BG.png;
#JACKET:What It Sounds Like-jacket.png;
#DISCIMAGE:;
#CDIMAGE:;
#SELECTABLE:YES;
#LYRICSPATH:What It Sounds Like.lrc;
#CDTITLE:K-POP DEMON HUNTERS.png;
#SAMPLESTART:116.082;
#SAMPLELENGTH:15;
#BPMS:0.000000=40.011000,
0.500000=106.011000,
127.000000=97.011000,
129.000000=88.011000,
131.000000=49.011000,
132.000000=47.011000,
133.000000=118.028000,
209.000000=120.000000,
273.000000=124.000000,
431.000000=104.000000,
432.000000=85.000000,
433.000000=79.000000,
451.000000=64.000000
;
#STOPS:;
#WARPS:;
#DELAYS:;
#SPEEDS:;
#SCROLLS:;
#TICKCOUNTS:;
#TIMESIGNATURES:;
#LABELS:;
#COMBOS:;
#FAKES:;
#BGCHANGES:0.000=What It Sounds Like.avi=0.000=0=0=0=StretchNoLoop====,
99999=-nosongbg-=1.000=0=0=0 // don't automatically add -songbackground-
;
#FGCHANGES:;
#ATTACKS:;
#DISPLAYBPM:120.000;
#TAGS:DMCA;

//---------------dance-single - This is What It Sounds Like ---------------
#NOTEDATA:;
#CHARTNAME:;
#CHARTSTYLE:Pad;
#CREDIT:Wrland;
#STEPSTYPE:dance-single;
#DESCRIPTION:This is What It Sounds Like ;
#DIFFICULTY:Challenge;
#METER:15;
#METERF:15;
#RADARVALUES:0,0,0,0,0;
#NOTES:
// measure 0
0000
0000
2000
0000
,  // measure 1
0000
0000
0000
0000
,  // measure 2
3000
0000
0002
0000
,  // measure 3
0000
0000
0000
0000
,  // measure 4
0003
0000
2000
0000
,  // measure 5
0000
0000
3200
0000
,  // measure 6
0000
0000
0320
0000
,  // measure 7
0000
0000
0000
0032
0000
0000
0000
0000
,  // measure 8
1003
0100
1000
0100
2000
0000
3100
0000
,  // measure 9
0010
0100
0010
0001
0200
0000
0310
0000
,  // measure 10
0001
0100
0010
0100
0002
0000
0103
0000
,  // measure 11
1000
0000
0100
0000
1000
0000
0100
0000
0020
0000
0030
0002
0000
0003
0100
0000
,  // measure 12
0020
0000
0030
0200
0000
0300
1000
0000
0200
0000
0300
2000
0000
3000
0100
0000
,  // measure 13
2000
0000
3000
0200
0000
0300
0010
0000
0002
0000
0003
0100
0000
0001
0010
0000
,  // measure 14
0200
0000
0300
0020
0000
0000
0030
0000
0100
0020
0000
0030
0200
0000
0300
0020
,  // measure 15
0000
0031
0000
2000
,  // measure 16
3002
0000
0000
0000
1003
0000
0001
0000
1000
0000
0100
0010
1000
0000
0100
0000
,  // measure 17
1000
0000
0100
0000
1000
0000
0100
0000
0010
0000
0001
0000
0100
0000
0001
0100
,  // measure 18
0001
0000
0200
0000
0300
0000
0010
0100
0020
0000
0030
0002
0000
0000
0103
0000
,  // measure 19
0000
0010
0100
0010
0001
0100
0010
0100
,  // measure 20
1000
0000
0100
0000
1000
0000
0100
0000
0020
0000
0030
0200
0000
0000
0310
0000
,  // measure 21
0001
0000
0100
0000
0010
0000
0100
0001
0010
0000
0001
0100
0001
0000
0000
0000
,  // measure 22
0010
0000
0100
0000
1000
0000
0100
0000
1000
0000
0100
1000
0100
0000
0000
0000
,  // measure 23
0100
0000
0010
0000
0001
0000
0100
0000
0001
0000
0100
0001
0200
0000
0000
0300
,  // measure 24
0010
0100
1000
0100
2000
0000
3001
0000
,  // measure 25
0100
0000
1000
0000
0100
0000
1000
0000
0100
0000
0010
0000
0001
0000
0100
0001
,  // measure 26
0100
0000
0010
0000
0100
0000
1000
0000
0200
0000
0300
2000
0000
0000
3100
0000
,  // measure 27
0000
0100
0010
0001
0100
0010
0001
0100
,  // measure 28
0001
0000
0010
0000
0100
0000
0010
0100
0002
0000
0003
0200
0000
0300
0001
0000
,  // measure 29
0100
0000
0010
0000
0100
0000
0010
0000
0100
0000
0010
0100
0010
0000
0000
0000
,  // measure 30
0001
0000
0100
0000
0010
0000
0100
0000
1000
0000
0100
1000
0100
0000
0000
0000
,  // measure 31
0100
0000
0010
0000
0001
0000
0100
0000
0010
0000
0001
0010
0200
0000
0000
0300
,  // measure 32
0010
0100
0010
0001
0200
0000
0020
0000
,  // measure 33
0000
0000
0000
0330
0001
0000
1000
0001
1000
0000
0100
0000
0010
0001
0010
0100
,  // measure 34
1000
0000
0100
0001
0100
0000
0010
0000
0100
0000
0010
0000
0100
0010
0001
0100
,  // measure 35
0010
0000
0100
0000
0010
0100
1000
0010
0001
0000
0100
0000
0010
0100
0010
0001
,  // measure 36
0100
0000
0010
0100
0001
0000
0010
0000
0100
0000
1000
0000
0100
1000
0100
0000
,  // measure 37
0020
0000
0030
0000
0100
0000
0010
0100
0010
0000
0001
0000
0100
0001
0100
0010
,  // measure 38
0100
0000
0020
0030
0100
0010
0002
0000
0103
0000
1000
0000
0100
1000
0100
0010
,  // measure 39
0100
0000
0010
0001
0200
0000
0310
0000
0100
0000
0010
0000
0001
0100
0010
0100
,  // measure 40
0020
0030
0200
0300
0010
0100
0002
0003
0001
0100
2000
3000
0100
0010
0002
0003
,  // measure 41
0200
0000
0000
0000
0310
0000
0100
0000
0010
0000
0001
0100
0002
0003
0200
0000
,  // measure 42
0310
0000
0100
0000
1000
0000
0100
0000
1000
0100
1000
0000
0200
0300
0020
0000
,  // measure 43
0031
0000
1000
0010
0100
0000
0010
0000
0001
0000
0100
0001
0200
0300
0020
0000
,  // measure 44
0130
0000
1000
0000
0100
0000
1000
0000
0100
1000
0100
0000
0020
0030
0001
0200
,  // measure 45
0300
0000
0010
0000
0002
0003
0010
0200
0300
1000
0010
0000
0200
0300
0010
2000
,  // measure 46
3000
0010
0100
0000
2000
3000
0010
0200
0300
0010
1000
0000
0200
0300
0001
0020
,  // measure 47
0030
0100
0001
0000
0100
0001
0100
0020
0030
0000
0200
0000
0310
0001
0010
0002
,  // measure 48
0003
0000
0200
0300
0001
0010
0001
0100
0002
0003
0010
0000
0100
0010
0100
0010
,  // measure 49
0200
0300
0001
0000
0200
0000
0000
0000
0000
0000
0000
0000
0000
0000
0000
0000
,  // measure 50
0320
0000
0000
0000
0230
0000
0000
0320
0000
0000
0031
0000
0100
0000
0100
0010
,  // measure 51
0100
0000
0010
0000
0200
0000
0000
0302
0000
0000
0103
0000
0010
0000
0100
0010
,  // measure 52
0100
0000
1000
0000
0100
0000
0010
0000
0100
0000
0010
0000
0001
0010
0100
0000
,  // measure 53
0010
0000
0100
0000
1000
0001
0100
0000
0010
0000
0001
0000
0200
0300
0001
0020
,  // measure 54
0030
0000
0100
0020
0030
0000
0001
0000
0100
0000
0010
0000
0100
0000
1000
0000
,  // measure 55
0100
0000
1000
0000
0100
0001
0010
0000
0001
0000
0100
0010
0200
0300
0010
0200
,  // measure 56
0300
0010
0020
0030
0001
0000
0100
0000
0010
0000
0100
0000
1000
0000
0100
1000
,  // measure 57
0200
0000
0310
0000
0100
0000
0010
0000
0001
0000
0100
0000
0010
0000
0100
0010
,  // measure 58
0200
0000
0310
0000
0001
0000
0100
0000
0010
0000
0100
0000
1000
0100
1000
0000
,  // measure 59
2000
3001
0200
0310
0002
0103
0002
0000
,  // measure 60
1003
0000
0100
1000
0100
0010
0001
0100
,  // measure 61
0010
0000
0100
0001
0010
0000
0001
0000
0100
0000
0010
0000
0200
0300
0001
0020
,  // measure 62
0030
0001
0200
0300
1000
0000
0001
0010
0100
0000
0010
0000
0100
0000
1000
0000
,  // measure 63
0100
0000
1000
0000
0100
0010
0100
0000
0001
0000
0100
0000
0020
0030
1000
0200
,  // measure 64
0300
0001
0020
0030
0001
0000
0100
0000
0010
0000
0001
0000
0100
0000
0010
0100
,  // measure 65
0010
0000
0001
0000
0100
0000
0010
0000
0100
0000
1000
0000
0100
0000
1000
0100
,  // measure 66
1000
0100
1000
0100
0010
0001
0100
0010
,  // measure 67
0200
0300
0020
0031
0200
0310
0200
0000
,  // measure 68
1300
0000
0000
0000
0100
0000
0001
0000
0010
0000
0001
0000
0100
0001
0100
0000
,  // measure 69
0001
0000
0100
0000
0010
0000
0001
0000
0100
0000
1000
0000
0100
1000
0100
0000
,  // measure 70
0100
0000
0010
0000
0010
0000
0100
0000
0001
0000
0100
0000
0001
0100
0001
0000
,  // measure 71
0100
0010
0100
0010
0001
0100
2000
0000
,  // measure 72
3100
0000
0000
0000
0101
0000
0010
0000
0001
0000
0100
0000
0010
0100
0010
0000
,  // measure 73
0001
0000
0100
0000
0010
0000
0100
0000
1000
0000
0100
0000
1000
0100
1000
0000
,  // measure 74
0100
0000
0010
0000
0001
0000
0100
0000
0010
0000
0100
0000
0010
0100
0010
0000
,  // measure 75
0100
0010
0001
0100
0010
0100
0020
0000
,  // measure 76
0130
0000
0000
0000
1100
0000
0010
0000
0001
0000
0100
0000
0010
0100
0010
0000
,  // measure 77
0100
0000
0010
0000
0100
0000
1000
0000
0100
0000
1000
0000
0100
1000
0100
0000
,  // measure 78
0110
0000
0010
0000
0001
0000
0100
0000
0010
0000
0100
0000
1000
0100
1000
0000
,  // measure 79
0100
0010
0001
0100
0010
0100
2000
0000
,  // measure 80
3100
0000
0000
0000
0010
0100
0001
0000
0100
0000
0010
0000
0100
0010
0100
0000
,  // measure 81
0010
0000
0001
0000
1100
0001
0100
0000
0010
0000
0100
0000
1000
0100
1000
0000
,  // measure 82
0100
0000
0010
0000
0011
0100
0010
0100
1000
0100
0010
0001
0100
0010
0100
0001
,  // measure 83
1000
0010
0001
0100
0010
0000
0100
0000
0010
0000
0001
0000
0200
0000
0000
0000
,  // measure 84
0302
0000
1000
1000
1000
1000
1003
0100
,  // measure 85
1000
0000
0100
0000
0010
0000
0001
0000
0100
0000
0010
0000
0100
0001
0010
0000
,  // measure 86
0001
0000
0100
0000
0020
0030
1000
0200
0000
0300
0010
0000
0001
0000
0100
0000
,  // measure 87
0010
0100
1000
0100
0010
0001
0100
0010
,  // measure 88
0100
0000
1000
0010
0200
0300
0001
0020
0000
0030
0001
0000
0100
0000
0010
0000
,  // measure 89
0100
0000
1000
0000
0100
0001
0010
0100
0002
0000
0003
0000
0100
0000
0001
0000
,  // measure 90
0100
0000
0001
0000
0100
0010
0001
0100
0002
0003
0100
0000
0010
0000
0100
0000
,  // measure 91
1000
0000
0100
0000
0010
0001
0100
0001
0020
0000
0030
0000
0200
0000
1300
0000
,  // measure 92
0200
0310
0002
0000
0103
0000
0010
0100
,  // measure 93
1000
0000
0100
0000
0010
0000
0001
0000
0100
0000
0010
0000
0100
0010
0100
0000
,  // measure 94
0100
0000
0010
0000
0002
0003
0010
0200
0300
0001
0020
0030
0100
0000
1000
0000
,  // measure 95
0100
0000
0010
0000
0001
0000
0100
0000
0010
0000
0100
0000
1000
0010
0100
0000
,  // measure 96
0010
0000
0001
0000
0200
0300
0010
0002
0003
0010
0200
0300
0010
0000
0100
0000
,  // measure 97
1000
0000
0100
0000
0010
0000
0001
0100
0001
0000
0100
0000
0010
0000
0100
0000
,  // measure 98
1000
0000
0100
0000
0010
0000
0100
0010
0100
0000
1000
0000
0100
0000
0010
0000
,  // measure 99
0100
0000
0010
0000
0001
0010
0001
0010
0002
0000
0003
0000
0200
0000
0310
0000
,  // measure 100
0200
0000
1300
0000
0200
0000
0000
0000
0310
0000
0000
0000
0001
0010
1000
0001
,  // measure 101
0100
0000
1000
0000
0100
0000
0010
0000
0001
0100
0010
0000
0200
0000
0310
0000
,  // measure 102
0200
1300
0200
0000
1300
0000
0100
0010
,  // measure 103
0001
0000
0100
0000
0010
0001
0010
0000
1000
0000
0100
0000
0200
0000
0310
0000
,  // measure 104
0002
0103
0020
0000
0130
0000
0001
0100
,  // measure 105
0010
0000
0100
0000
1000
0000
0100
0001
0020
0000
0000
0000
0130
0000
0010
0000
,  // measure 106
0001
0000
0100
0000
0010
0100
0010
0000
2000
0000
3100
0010
0100
0001
0010
0000
,  // measure 107
0001
0010
0100
0000
1000
0010
0100
0001
0010
0100
0010
0000
0002
0000
2003
0000
,  // measure 108
3002
0203
0320
0000
0230
0000
0000
0000
,  // measure 109
0000
0000
0300
0000
,  // measure 110
0000
0000
0000
0000
,  // measure 111
0000
0000
0000
0000
,  // measure 112
0000
0000
0000
0000
,  // measure 113
2002
0000
0000
0000
,  // measure 114
3003
0000
0000
0000
;

//---------------dance-double - Wrland---------------
#NOTEDATA:;
#CHARTNAME:;
#CHARTSTYLE:Pad;
#CREDIT:Wrland;
#STEPSTYPE:dance-double;
#DESCRIPTION:Wrland;
#DIFFICULTY:Challenge;
#METER:15;
#METERF:15;
#RADARVALUES:0,0,0,0,0;
#NOTES:
// measure 0
00000000
00000000
20000000
00000000
,  // measure 1
00000000
00000000
00000000
00000000
,  // measure 2
30000000
00000000
00020000
00000000
,  // measure 3
00000000
00000000
00000000
00000000
,  // measure 4
00030000
00000000
00000002
00000000
,  // measure 5
00000000
00000000
00000203
00000000
,  // measure 6
00000000
00000000
00002300
00000000
,  // measure 7
00000000
00000000
00000000
00023000
00000000
00000000
00000000
00000000
,  // measure 8
10030000
01000000
10000000
01000000
20000000
00000000
31000000
00000000
,  // measure 9
00100000
00010000
00000010
00001000
00000200
00000000
00000310
00000000
,  // measure 10
00001000
00100000
00010000
01000000
00020000
00000000
01030000
00000000
,  // measure 11
00100000
00000000
00010000
00000000
00000010
00000000
00000100
00000000
00000020
00000000
00000030
00002000
00000000
00003000
00010000
00000000
,  // measure 12
00200000
00000000
00300000
02000000
00000000
03000000
10000000
00000000
02000000
00000000
03000000
20000000
00000000
30000000
01000000
00000000
,  // measure 13
00200000
00000000
00300000
00020000
00000000
00030000
00001000
00000000
00000200
00000000
00000000
00000310
00000000
00010000
00100000
00000000
,  // measure 14
02000000
00000000
03000000
00200000
00000000
00000000
00300000
00000000
01000000
00200000
00000000
00300000
02000000
00000000
03000000
00200000
,  // measure 15
00000000
00310000
00000000
20000000
,  // measure 16
30020000
00000000
00000000
00000000
00031000
00000000
00000100
00000000
00000001
00000000
00000010
00000100
00000001
00000000
00000010
00000000
,  // measure 17
00000001
00000000
00000010
00000000
00000001
00000000
00000010
00000000
00000100
00000000
00010000
00000000
01000000
00000000
00010000
01000000
,  // measure 18
00010000
00000000
02000000
00000000
03000000
00000000
00100000
01000000
00200000
00000000
00300000
00020000
00000000
00000000
01030000
00000000
,  // measure 19
00000000
00100000
00010000
00000100
00001000
00000010
00000100
00000010
,  // measure 20
00000001
00000000
00000100
00000000
00001000
00000000
00010000
00000000
00200000
00000000
00300000
02000000
00000000
00000000
03100000
00000000
,  // measure 21
00010000
00000000
01000000
00000000
00100000
00000000
00010000
00001000
00000100
00000000
00001000
00000010
00001000
00000000
00000000
00000000
,  // measure 22
00000100
00000000
00010000
00000000
00100000
00000000
01000000
00000000
10000000
00000000
01000000
10000000
01000000
00000000
00000000
00000000
,  // measure 23
01000000
00000000
00100000
00000000
00010000
00000000
01000000
00000000
00010000
00000000
01000000
00010000
02000000
00000000
00000000
03000000
,  // measure 24
00100000
00010000
00001000
00000010
00000002
00000000
00001003
00000000
,  // measure 25
00010000
00000000
10000000
00000000
01000000
00000000
10000000
00000000
01000000
00000000
00100000
00000000
00010000
00000000
01000000
00010000
,  // measure 26
00001000
00000000
00000100
00000000
00000010
00000000
00000001
00000000
00000020
00000000
00000030
00000002
00000000
00000000
00000013
00000000
,  // measure 27
00000000
00000010
00000100
00001000
00010000
00100000
00010000
01000000
,  // measure 28
00010000
00000000
00100000
00000000
01000000
00000000
00100000
01000000
00020000
00000000
00030000
02000000
00000000
03000000
00010000
00000000
,  // measure 29
00001000
00000000
00000100
00000000
00000010
00000000
00000100
00000000
00000010
00000000
00000100
00000010
00000100
00000000
00000000
00000000
,  // measure 30
00001000
00000000
00010000
00000000
00100000
00000000
01000000
00000000
10000000
00000000
01000000
10000000
01000000
00000000
00000000
00000000
,  // measure 31
01000000
00000000
00100000
00000000
00010000
00000000
01000000
00000000
00100000
00000000
00010000
00100000
02000000
00000000
00000000
03000000
,  // measure 32
00010000
00000010
00000100
00001000
00000020
00000000
00000200
00000000
,  // measure 33
00000000
00000000
00000000
00000330
00010000
00000000
10000000
00010000
10000000
00000000
01000000
00000000
00100000
00010000
00100000
01000000
,  // measure 34
10000000
00000000
01000000
00010000
01000000
00000000
00100000
00000000
00010000
00000000
00001000
00000000
00000010
00000100
00001000
00000010
,  // measure 35
00000100
00000000
00000010
00000000
00000100
00000010
00000001
00000100
00001000
00000000
00010000
00000000
00100000
01000000
00100000
00010000
,  // measure 36
01000000
00000000
00100000
01000000
00010000
00000000
01000000
00000000
00100000
00000000
00010000
00000000
00001000
00000100
00000010
00000000
,  // measure 37
00000200
00000000
00000300
00000000
00000010
00000000
00000100
00000010
00000100
00000000
00001000
00000000
00010000
00100000
01000000
00100000
,  // measure 38
01000000
00000000
00200000
00300000
01000000
00100000
20000000
00000000
31000000
00000000
00100000
00000000
00010000
00001000
00000100
00000001
,  // measure 39
00000010
00000000
00000100
00001000
00000020
00000000
00000130
00000000
00000010
00000000
00000100
00000000
00001000
00010000
00100000
01000000
,  // measure 40
00200000
00300000
02000000
03000000
00100000
01000000
00020000
00030000
00010000
01000000
20000000
30000000
01000000
00100000
00020000
00030000
,  // measure 41
00200000
00000000
00000000
00000000
00310000
00000000
00001000
00000000
00000010
00000000
00001000
00000100
00002000
00003000
00000200
00000000
,  // measure 42
00000310
00000000
00000100
00000000
00000001
00000000
00000100
00000000
00001000
00010000
00100000
00000000
02000000
03000000
00200000
00000000
,  // measure 43
00310000
00000000
10000000
00100000
00010000
00000000
00001000
00000000
00000100
00000000
00000100
00001000
00000200
00000300
00000020
00000000
,  // measure 44
00000130
00000000
00001000
00000000
00010000
00000000
00100000
00000000
01000000
10000000
01000000
00000000
00200000
00300000
00010000
02000000
,  // measure 45
03000000
00000000
00010000
00000000
00002000
00003000
00000010
00000200
00000300
00000001
00000010
00000000
00000200
00000300
00000010
00000002
,  // measure 46
00000003
00001000
00010000
00000000
20000000
30000000
00100000
02000000
03000000
00100000
10000000
00000000
02000000
03000000
00010000
00200000
,  // measure 47
00300000
00010000
00001000
00000000
00000010
00001000
00000010
00000200
00000300
00000000
00000020
00000000
00000130
00001000
00000100
00002000
,  // measure 48
00003000
00000000
00020000
00030000
01000000
00100000
00010000
01000000
00020000
00030000
00100000
00000000
01000000
00100000
01000000
00100000
,  // measure 49
02000000
03000000
00010000
00000000
02000000
00000000
00000000
00000000
00000000
00000000
00000000
00000000
00000000
00000000
00000000
00000000
,  // measure 50
03200000
00000000
00000000
00000000
00302000
00000000
00000000
00003020
00000000
00000000
00000031
00000000
00001000
00000000
01000000
00100000
,  // measure 51
01000000
00000000
00100000
00000000
02000000
00000000
00000000
03020000
00000000
00000000
01030000
00000000
00100000
00000000
01000000
00100000
,  // measure 52
01000000
00000000
00010000
00000000
00001000
00000000
00000100
00000000
00000010
00000000
00000100
00000000
00001000
00000100
00000010
00000000
,  // measure 53
00000100
00000000
00001000
00000000
00010000
00100000
01000000
00000000
00100000
00000000
00010000
00000000
02000000
03000000
00010000
00200000
,  // measure 54
00300000
00000000
01000000
00200000
00300000
00000000
00010000
00000000
00001000
00000000
00000010
00000000
00000100
00000000
00000001
00000000
,  // measure 55
00000100
00000000
00000001
00000000
00000100
00001000
00010000
00000000
00100000
00000000
01000000
00100000
02000000
03000000
00100000
02000000
,  // measure 56
03000000
00100000
00200000
00300000
00010000
00000000
01000000
00000000
00100000
00000000
01000000
00000000
10000000
00000000
01000000
00100000
,  // measure 57
00020000
00000000
00031000
00000000
00000010
00000000
00000100
00000000
00001000
00000000
00000010
00000000
00000100
00000000
00000010
00000100
,  // measure 58
00000020
00000000
00000130
00000000
00001000
00000000
00010000
00000000
00100000
00000000
01000000
00000000
10000000
01000000
10000000
00000000
,  // measure 59
20000000
30010000
02000000
03100000
00020000
01030000
00020000
00000000
,  // measure 60
10030000
00000000
01000000
00010000
00001000
00000100
00001000
00000010
,  // measure 61
00000100
00000000
00000010
00001000
00000100
00000000
00001000
00000000
00010000
00000000
00100000
00000000
02000000
03000000
00010000
00200000
,  // measure 62
00300000
00010000
02000000
03000000
10000000
00000000
01000000
00100000
00010000
00000000
00001000
00000000
00000100
00000000
00000010
00000000
,  // measure 63
00000100
00000000
00000010
00000000
00001000
00100000
01000000
00000000
00010000
00000000
01000000
00000000
00200000
00300000
10000000
02000000
,  // measure 64
03000000
00010000
00200000
00300000
00010000
00000000
01000000
00000000
00100000
00000000
00010000
00000000
00001000
00000000
00000100
00000010
,  // measure 65
00000100
00000000
00001000
00000000
00000010
00000000
00000100
00000000
00000010
00000000
00001000
00000000
00010000
00000000
00010000
00100000
,  // measure 66
00010000
01000000
10000000
01000000
00100000
00010000
01000000
00100000
,  // measure 67
02000000
03000000
00200000
00310000
02000000
03100000
02000000
00000000
,  // measure 68
13000000
00000000
00000000
00000000
01000000
00000000
00010000
00000000
00100000
00000000
00010000
00000000
01000000
00010000
01000000
00000000
,  // measure 69
00010000
00000000
01000000
00000000
00010000
00000000
00001000
00000000
00000010
00000000
00000001
00000000
00000010
00000001
00000010
00000000
,  // measure 70
00000010
00000000
00000100
00000000
00001000
00000000
01000000
00000000
00010000
00000000
01000000
00000000
00010000
01000000
00010000
00000000
,  // measure 71
01000000
00100000
00010000
00000100
00001000
00000010
00000002
00000000
,  // measure 72
00000013
00000000
00000000
00000000
00011000
00000000
00100000
00000000
00010000
00000000
01000000
00000000
00100000
01000000
00100000
00000000
,  // measure 73
00010000
00000000
01000000
00000000
00010000
00000000
00000100
00000000
00000010
00000000
00000100
00000000
00000001
00000010
00000001
00000000
,  // measure 74
00000010
00000000
00000100
00000000
00010000
00000000
01000000
00000000
00100000
00000000
01000000
00000000
00100000
01000000
00100000
00000000
,  // measure 75
01000000
00100000
00001000
00000010
00000100
00000010
00000200
00000000
,  // measure 76
00001300
00000000
00000000
00000000
00011000
00000000
00100000
00000000
00010000
00000000
01000000
00000000
00100000
01000000
00100000
00000000
,  // measure 77
01000000
00000000
00100000
00000000
00010000
00000000
00001000
00000000
00000010
00000000
00000001
00000000
00000010
00000001
00000010
00000000
,  // measure 78
00000110
00000000
00001000
00000000
00010000
00000000
01000000
00000000
00100000
00000000
01000000
00000000
10000000
01000000
10000000
00000000
,  // measure 79
01000000
00100000
00010000
00001000
00000100
00000010
00000002
00000000
,  // measure 80
00000013
00000000
00000000
00000000
00001000
01000000
00010000
00000000
01000000
00000000
00100000
00000000
01000000
00100000
01000000
00000000
,  // measure 81
00100000
00000000
00010000
00000000
00011000
00000100
00000010
00000000
00000100
00000000
00000010
00000000
00000001
00000010
00000001
00000000
,  // measure 82
00000010
00000000
00001000
00000000
00110000
01000000
00100000
01000000
10000000
01000000
00100000
00010000
01000000
00100000
01000000
00010000
,  // measure 83
10000000
00100000
00010000
01000000
00010000
00000000
00000100
00000000
00000010
00000000
00001000
00000000
00000020
00000000
00000000
00000000
,  // measure 84
00002030
00000000
00000001
00000001
00000001
00000001
00003001
00010000
,  // measure 85
10000000
00000000
01000000
00000000
00100000
00000000
00010000
00000000
00001000
00000000
00000100
00000000
00000010
00001000
00000100
00000000
,  // measure 86
00001000
00000000
00000010
00000000
00000200
00000300
00010000
00200000
00000000
00300000
01000000
00000000
00010000
00000000
01000000
00000000
,  // measure 87
00100000
00010000
00001000
00000010
00000100
00001000
00000010
00000100
,  // measure 88
00010000
00000000
10000000
00100000
02000000
03000000
00010000
00200000
00000000
00300000
00010000
00000000
01000000
00000000
00100000
00000000
,  // measure 89
00010000
00000000
00001000
00000000
00000010
00001000
00000100
00000010
00002000
00000000
00003000
00000000
00010000
00000000
00100000
00000000
,  // measure 90
01000000
00000000
00010000
00000000
01000000
00100000
00010000
01000000
00020000
00030000
01000000
00000000
00010000
00000000
00001000
00000000
,  // measure 91
00000100
00000000
00000010
00000000
00000100
00001000
00000010
00001000
00000200
00000000
00000300
00000000
00002000
00000000
00013000
00000000
,  // measure 92
00200000
01300000
00020000
00000000
01030000
00000000
00100000
01000000
,  // measure 93
10000000
00000000
00100000
00000000
00010000
00000000
00001000
00000000
00000010
00000000
00000100
00000000
00000010
00000100
00000010
00000000
,  // measure 94
00001000
00000000
00100000
00000000
00020000
00030000
00100000
02000000
03000000
00010000
00200000
00300000
01000000
00000000
00010000
00000000
,  // measure 95
00100000
00000000
00010000
00000000
00001000
00000000
00000010
00000000
00000100
00000000
00000010
00000000
00001000
00100000
01000000
00000000
,  // measure 96
00100000
00000000
00010000
00000000
02000000
03000000
00100000
00020000
00030000
00100000
02000000
03000000
00100000
00000000
01000000
00000000
,  // measure 97
00010000
00000000
00100000
00000000
00010000
00000000
00001000
00000010
00001000
00000000
00000010
00000000
00000100
00000000
00001000
00000000
,  // measure 98
00010000
00000000
01000000
00000000
00100000
00000000
01000000
00100000
01000000
00000000
10000000
00000000
01000000
00000000
00100000
00000000
,  // measure 99
01000000
00000000
00100000
00000000
00010000
00100000
00010000
00100000
00020000
00000000
00030000
00000000
00020000
00000000
00031000
00000000
,  // measure 100
00000200
00000000
00000310
00000000
00000002
00000000
00000000
00000000
00000013
00000000
00000000
00000000
00000100
00001000
00010000
00100000
,  // measure 101
01000000
00000000
10000000
00000000
01000000
00000000
00100000
00000000
00010000
01000000
00100000
00000000
02000000
00000000
03100000
00000000
,  // measure 102
02000000
13000000
02000000
00000000
13000000
00000000
00001000
00000010
,  // measure 103
00000001
00000000
00000010
00000000
00000001
00000010
00000001
00000000
00000100
00000000
00001000
00000000
00020000
00000000
01030000
00000000
,  // measure 104
00200000
01300000
00200000
00000000
01300000
00000000
00010000
01000000
,  // measure 105
00100000
00000000
00010000
00000000
00001000
00000000
00000010
00000001
00000020
00000000
00000000
00000000
00000130
00000000
00000100
00000000
,  // measure 106
00001000
00000000
00010000
00000000
00100000
01000000
00100000
00000000
20000000
00000000
31000000
00100000
01000000
00010000
00100000
00000000
,  // measure 107
00010000
00100000
01000000
00000000
10000000
00100000
01000000
00010000
00100000
01000000
00100000
00000000
00020000
00000000
00030020
00000000
,  // measure 108
00000032
00000023
00000230
00000000
00000302
00000000
00000000
00000000
,  // measure 109
00000000
00000000
00000003
00000000
,  // measure 110
00000000
00000000
00000000
00000000
,  // measure 111
00000000
00000000
00000000
00000000
,  // measure 112
00000000
00000000
00000000
00000000
,  // measure 113
00022000
00000000
00000000
00000000
,  // measure 114
00033000
00000000
00000000
00000000
;
