#TITLE:TAKEDOWN;
#SUBTITLE:;
#ARTIST:HUNTR/X;
#TITLETRANSLIT:;
#SUBTITLETRANSLIT:;
#ARTISTTRANSLIT:;
#GENRE:K-POP DEMON HUNTERS;
#CREDIT:JYP & Sony & Netflix & Republic;
#MUSIC:TAKEDOWN (HUNTRIX).ogg;
#BANNER:TAKEDOWN (HUNTRIX).png;
#BACKGROUND:BG.png;
#CDTITLE:K-POP DEMON HUNTERS.png;
#SAMPLESTART:50.736;
#SAMPLELENGTH:15.000;
#SELECTABLE:YES;
#OFFSET:0.000;
#LYRICSPATH:TAKEDOWN (HUNTRIX).lrc;
#BPMS:0.000=117.500
,2.000=140.000
,150.000=70.000
,166.000=140.000
,198.000=70.000
,204.000=140.000
;
#STOPS:;
#DISPLAYBPM:70.000:140.000;
#JACKET:TAKEDOWN (HUNTRIX)-jacket.png;
#DISCIMAGE:;
#CDIMAGE:;
#TAGS:DMCA;
#BGCHANGES:0.000=TAKEDOWN (HUNTRIX).avi=0.000=0=0=0=StretchNoLoop====,
99999=-nosongbg-=1.000=0=0=0 // don't automatically add -songbackground-
;
#FGCHANGES:;

//--------------- dance-single - Wrland ----------------
#NOTES:
     dance-single:
     Wrland:
     Beginner:
     4:
     0,0,0,0,0:
0000
0000
0000
0000
,
0000
0000
0000
0000
,
0000
0000
0000
0000
,
0000
0000
0000
0000
,
0000
0000
0100
0000
,
0100
0010
0100
0000
0100
0000
0000
0000
,
0100
1000
0100
0000
0010
0000
0000
0000
,
0001
0100
0010
0000
,
0000
0000
0001
0000
,
0001
0100
0001
0000
0001
0000
0000
0000
,
0100
0010
0100
0000
1000
0000
0000
0000
,
0001
0100
0010
0000
1000
0000
0000
0010
,
0100
0000
0100
0010
,
0100
0000
0010
1000
,
0100
0000
0100
0010
,
0100
0000
0010
0100
,
0010
0000
1000
0000
,
1000
0000
0001
0000
,
0100
0000
0000
0000
2000
0000
3000
0100
,
0020
0000
0030
0000
,
0000
0000
0020
0000
,
0000
0030
0200
0000
,
0000
0300
2000
0000
,
0000
3000
0002
0000
,
0000
0003
0200
0000
,
0000
0300
0020
0000
,
0000
0030
0200
0000
,
0000
0300
0020
0000
,
0000
0030
0000
0000
,
0000
0000
0100
0000
,
0001
0000
0100
0100
,
1000
0000
0010
0000
,
1000
0000
0000
0000
0010
0000
0001
0100
,
0010
0000
0100
0000
,
0001
0000
0000
0000
1000
0000
0100
1000
,
0100
0000
0010
0000
,
0100
0000
0001
0100
0100
0000
1000
0100
,
1000
0000
0002
0000
,
0003
0000
0002
0000
,
0003
0000
2000
0000
,
3000
0000
2000
0000
,
3000
0000
0100
0010
,
0001
0000
0100
1000
,
0100
0000
0100
0010
,
0001
0000
0100
0010
,
0100
0000
0010
0001
,
0100
0000
0010
0100
,
1000
0000
0100
1000
,
0100
0000
0000
0000
0010
0000
0001
0100
,
0001
0000
0000
0000
0200
0300
0002
0003
,
0100
0002
0000
0000
0003
0000
0000
0000
,
0100
0000
0001
0000
,
0010
0000
0100
0010
0001
0000
0000
0000
,
0100
0000
1000
0000
,
0010
0000
0100
0010
0001
0000
0000
0000
,
0010
0000
0001
0000
,
1000
0000
0010
0100
0010
0000
0000
0000
,
0100
0000
0000
0000
0100
1000
0100
0000
,
0001
0000
0100
0000
0010
0100
0010
0000
,
1000
0000
0001
0000
,
1000
0000
0100
1000
0100
0000
0000
0000
,
0001
0000
0010
0000
,
0001
0000
0001
0100
0001
0000
0000
0000
,
0100
0000
0001
0000
,
0010
0000
1000
0100
0010
0000
0000
0000
,
0010
0000
0100
0000
,
0010
0000
0010
0100
0010
0000
0100
0000
,
0010
0000
0000
0000
;

//--------------- dance-single - Wrland ----------------
#NOTES:
     dance-single:
     Wrland:
     Easy:
     6:
     0,0,0,0,0:
0000
0000
0000
0000
,
0000
0000
0000
0000
,
0000
0000
0000
0000
,
0000
0000
0000
0000
,
0000
0000
0100
0010
,
0100
0010
0100
0000
0100
0000
1000
0000
,
0100
1000
0100
0000
0010
0000
0100
0000
,
0001
0000
0100
0000
0010
0000
0100
0010
,
0100
0000
0001
0100
,
0001
0100
0001
0000
0001
0000
0010
0000
,
0100
0010
0100
0000
1000
0000
0100
0000
,
0001
0100
0010
0000
1000
0000
0100
1000
,
0100
0000
0100
0010
,
0100
0001
0010
1000
,
0100
0000
0100
0010
,
0100
0001
0010
0100
,
0010
0000
0000
0000
1000
0000
0100
0100
,
1000
0000
0100
0000
0001
0000
0001
0001
,
0100
0000
0010
0000
2000
0000
3000
0100
,
0020
0000
0030
0000
,
0000
0000
0020
0000
,
0000
0030
0200
0000
,
0000
0300
2000
0000
,
0000
3000
0002
0000
,
0000
0003
0200
0000
,
0000
0300
0020
0000
,
0000
0030
0200
0000
,
0000
0300
0020
0000
,
0000
0030
0000
0000
,
0000
0000
0100
0010
,
0001
0000
1000
0010
0100
0000
0100
0000
,
1000
0000
0010
0100
,
0001
0000
0100
0010
0010
0000
0001
0100
,
0010
0000
0100
0010
,
0001
0000
0100
0010
1000
0000
0100
1000
,
0100
0000
0010
0001
,
0100
0000
0001
0100
0100
0000
1000
0100
,
1000
0000
0002
0000
,
0003
0000
0002
0000
,
0003
0000
2000
0000
,
3000
0000
2000
0000
,
3000
0000
0100
0010
,
0001
0000
0100
1000
,
0100
0000
0100
0010
,
0001
0000
0100
0010
,
0100
0000
0010
0001
,
0100
0000
0010
0100
,
1000
0000
0100
1000
,
0100
0000
0000
0000
0010
0000
0001
0100
,
0001
0000
0000
0000
0200
0300
0002
0003
,
0100
0002
0000
0000
0003
0000
0000
0000
,
0100
0000
0010
0000
0001
0000
1000
0001
,
0010
0000
0100
0010
0001
0000
0000
0000
,
0100
0000
0010
0000
1000
0000
0100
1000
,
0010
0000
0100
0010
0001
0000
0000
0000
,
0010
0100
0001
0100
,
1000
0000
0010
0100
0010
0000
0000
0000
,
0100
0000
0001
0000
0100
1000
0100
0000
,
0001
0000
0100
0000
0010
0100
0010
0000
,
1000
0000
0100
0000
0001
0100
0010
0000
,
1000
0000
0100
1000
0100
0000
0000
0000
,
0001
0000
0100
0000
0010
0000
0100
0010
,
0001
0000
0001
0100
0001
0000
0000
0000
,
0100
0000
0010
0000
0001
0000
0100
1000
,
0010
0000
1000
0100
0010
0000
0000
0000
,
0010
0000
0001
0000
0100
0000
0001
0100
,
0010
0000
0010
0100
0010
0000
0100
0000
,
0010
0000
0000
0000
;

//--------------- dance-single - Wrland ----------------
#NOTES:
     dance-single:
     Wrland:
     Medium:
     10:
     0,0,0,0,0:
0000
0000
0000
0000
,
0000
0000
0000
0000
,
0000
0000
0000
0000
,
0000
0000
0000
0000
,
0000
0000
0100
0100
,
0010
0010
0100
0000
1000
0100
0010
0000
,
0001
0100
0001
0000
0010
0001
0100
0010
,
1000
0000
1000
0010
0100
0000
0010
1000
,
0001
0000
0100
0000
0001
0010
0100
1000
,
0010
0001
0100
0000
0100
0100
0010
0010
,
0100
0000
0010
0000
0001
0000
0000
0000
0010
0000
0001
0000
0100
0000
0010
0100
,
1000
0000
0100
0000
1000
0000
0010
0100
0100
0000
0001
0000
0010
0000
0001
0000
,
0000
0100
0010
0001
0100
0000
1000
0100
,
1000
0000
0100
0001
0010
0000
0001
0100
,
0001
0000
0010
1000
0100
0000
0010
0100
,
0001
0000
0100
0010
0001
0000
0001
0100
,
0010
0000
0010
0010
1000
0000
0100
1000
,
0100
0000
0100
0001
0010
0000
0001
0100
,
0001
0000
0000
0000
0100
0000
1000
0000
0020
0000
0000
0030
0100
0000
0010
0000
,
0002
0000
1003
0000
,
0000
0000
2000
3000
,
0100
1000
0200
0300
,
0100
0010
0001
0200
,
0000
0300
0010
0000
0100
0000
0020
0000
,
0000
0030
0001
0000
0100
0000
0020
0000
,
0030
0001
0001
0100
,
0001
0000
0100
0000
0001
0100
0001
0000
,
0100
0000
0010
0000
0100
1000
0100
0000
,
1000
0100
2002
3003
,
0100
0000
0010
0000
0100
0000
0010
0100
,
0010
0000
0000
0000
0001
0000
0000
0000
0100
0010
0100
0000
0001
0000
0100
0000
,
0001
0000
0100
0000
0010
0000
1000
0100
,
1000
0000
0000
0000
0100
0000
0000
0000
0010
0010
0000
0000
0100
0100
0000
0000
,
1000
0100
0010
0001
0100
0000
0010
0100
,
0010
0000
0000
0000
0001
0000
0000
0000
0100
0010
0100
0000
0001
0000
0100
0000
,
0001
0000
0010
0000
0100
0000
1000
0100
,
1000
0000
0000
0000
0100
0000
0000
0000
0010
0010
0000
0000
0100
0100
0000
0000
,
0010
0000
0000
0000
0001
0000
0100
0000
0020
0000
0030
0000
0100
0000
1000
0100
,
2000
0000
3000
0000
0100
0000
0010
0000
0200
0000
0300
0000
0100
0000
0010
0100
,
0020
0030
0001
0010
0200
0300
0020
0030
0002
0000
0003
0000
0100
0010
1000
0100
,
2000
0000
3000
0100
0020
0000
0030
0001
0200
0300
0020
0000
0030
0000
0100
0001
,
0020
0030
0001
0100
0002
0003
0200
0300
0020
0000
0000
0000
0030
0000
0000
0000
,
0100
1000
0200
0300
,
0100
0000
0010
0100
0020
0000
0030
0000
,
0010
0000
0000
0000
0001
0000
0100
0000
0001
0000
0000
0100
0000
0000
0010
0000
,
0100
0000
0000
0010
0000
0000
0001
0000
0200
0000
0000
0000
0300
0000
0010
0000
,
0200
0000
0300
0001
0200
0000
0300
0010
,
0200
0000
0300
1000
0200
0000
0300
0000
,
2000
0000
3000
0001
0200
0000
0300
0001
,
0200
0000
0000
0000
0300
0000
0010
0000
2000
0000
3000
0010
0200
0000
0300
0001
,
0100
0000
0010
0000
0200
0000
0000
0000
0000
0000
0000
0000
0000
0000
0000
0000
0000
0000
0000
0000
0000
0000
0000
0000
0300
0000
0000
0000
0000
0000
0010
0001
,
0100
0000
0000
0100
0000
0000
0010
0000
0100
0000
0000
0010
0000
0000
0100
0000
,
0010
0000
0000
0001
0000
0000
0100
0000
0001
0000
0000
0000
0010
0000
0000
0000
,
0100
0000
0000
0010
0000
0000
0100
0000
1000
0000
0000
0010
0000
0000
0001
0000
,
0100
0000
0000
1000
0000
0000
0100
0000
1000
0000
0000
0010
0000
0000
1000
0000
,
0100
0000
0000
0010
0000
0000
0100
0000
0010
0000
0000
0100
0000
0000
0010
0000
,
0001
0000
0000
0001
0000
0000
0100
0000
0001
0000
0000
0010
0000
0000
0100
0000
,
0020
0000
0000
0030
0001
0000
0010
0000
0200
0000
0000
0300
0010
0000
0100
0000
,
1000
0100
0000
0000
0001
0010
0000
0000
0100
0000
0010
0000
0001
0000
0100
0000
,
0010
0000
0010
0001
0100
0000
0100
0010
,
1000
0010
0000
0000
0100
0010
0000
0000
0100
0000
0010
0000
0200
0000
0300
0000
,
0010
0100
0001
0100
0002
0003
0010
0001
,
0100
0010
0000
0000
0100
0001
0000
0000
1000
0100
0000
0000
0100
0001
0010
0100
,
2000
3000
0100
0010
0001
0010
0100
0000
,
0010
0100
0000
0000
0001
0010
0000
0000
0001
0000
0010
0000
0200
0000
0300
0000
,
0010
0000
0001
0000
0100
0000
0010
0000
0001
0010
1000
0000
0100
0000
0001
0000
,
0010
0000
0010
0000
0100
0000
0010
0000
0001
0000
0010
0000
0100
0010
0100
0000
,
0110
0000
0000
0000
;

//--------------- dance-single - Wrland ----------------
#NOTES:
     dance-single:
     Wrland:
     Hard:
     14:
     0,0,0,0,0:
0000
0000
1000
0100
,
1000
0000
0100
0000
0010
0100
0010
0100
,
0020
0000
0130
0010
0002
0003
0010
0100
,
0020
0000
0030
0000
0100
0000
0000
0000
0010
0000
0001
0000
0100
0001
0000
0000
,
0100
1000
0000
0000
0110
0000
0000
0000
1000
0000
0010
0000
0100
0000
0010
0000
,
1000
0010
0100
0010
2000
0000
3000
0000
0100
0000
0001
0000
0010
0000
0100
0000
,
0001
0010
0100
0010
0002
0000
0003
0000
0100
0000
0001
0000
0010
0000
1000
0010
,
0200
0000
0300
0000
0001
0000
0010
0001
0200
0000
0300
0000
1000
0000
0100
0000
,
2000
0000
3100
0000
0010
0001
0100
1000
,
0010
0001
0200
0300
0010
0100
0001
0010
,
0100
0000
0001
0000
0200
0000
0300
0000
0010
0000
0001
0010
0100
0000
0010
0000
,
1000
0100
1000
0010
0100
1000
0010
0002
,
0003
0000
0010
0001
0100
0010
0100
0100
,
1010
0000
0100
1000
0010
0100
0001
0020
,
0030
0000
0100
0001
0010
0001
0100
1000
,
0110
0000
0010
0100
0001
0010
0100
0002
,
0003
0000
0010
0001
0100
0010
1000
0100
,
1000
0010
0100
1000
0010
0100
0001
0100
,
0001
0100
0010
0001
0200
0300
1000
0100
,
2000
3000
0100
0010
0100
0010
0100
0010
,
0001
0100
0010
0100
0020
0000
0130
0000
,
0000
0000
0000
0000
1000
0100
0010
0001
,
0010
0000
0100
0000
0001
0000
0010
0000
2000
0000
3000
0010
0002
0000
0000
0000
,
0003
0000
0000
0000
0010
0000
0100
0000
0020
0000
0030
0010
0200
0000
0000
0000
,
0300
0010
0100
0010
0200
0000
0310
0000
,
0000
0000
0000
0000
0010
0100
0001
0010
,
1000
0000
0010
0000
0100
0000
0010
0000
2000
0000
3000
0100
2000
0000
0000
3000
,
0100
0000
0001
0000
0010
0000
0001
0000
0200
0000
0300
0001
0020
0000
0000
0000
,
0000
0000
0000
0000
0030
0000
0000
0000
0100
1000
0000
0000
0100
0010
0000
0000
,
0100
0001
0010
1000
0020
0000
0130
0000
,
0010
0000
0100
0000
0001
0000
0100
0000
0001
0010
0000
0000
0100
0010
0000
0000
,
0200
0000
0300
0000
1000
0100
0000
0000
2000
0000
3001
0000
0100
0000
0010
0000
,
0001
0000
0010
0000
0100
0000
1000
0000
0010
0001
0000
0000
0100
1000
0000
0000
,
0001
0010
0000
0000
0010
0001
0000
0000
2000
0000
0000
0000
3100
0000
0010
0000
,
0001
0000
0010
0000
0100
0000
0010
0000
0100
0010
0100
0001
0010
0000
0001
0000
,
0100
0010
0000
0000
0010
0001
0000
0000
0110
0000
0000
0000
0010
0000
0001
0000
,
0100
0010
0001
0000
0010
0000
1000
0000
0100
0010
0000
0000
0100
0001
0000
0000
,
0002
0000
0000
0000
1003
0000
0000
0000
0200
0000
0000
0300
0010
0100
0010
0001
,
0200
0000
0300
0100
2000
0000
3000
0100
2000
3000
0200
0000
0000
0300
0010
0100
,
0020
0030
0001
0100
0002
0003
0200
0300
0020
0000
0000
0030
0100
1000
0100
0010
,
0200
0000
0300
0001
0200
0000
0300
0010
0200
0300
0020
0000
0000
0030
0001
0100
,
0002
0003
0100
0010
0200
0300
2000
3000
0020
0000
0000
0000
0030
0000
0000
0000
,
0020
0000
0030
0200
0000
0300
0010
0000
0020
0000
0000
0000
0030
0000
0100
0000
,
0002
0000
0003
2000
0000
3000
0100
0000
0002
0000
0000
0000
0003
0000
0100
0000
,
2000
0000
3000
0020
0000
0030
0100
0000
2000
0000
3000
0020
0000
0030
0001
0000
,
0200
0000
0300
0020
0000
0030
0100
0000
2000
0000
0000
0000
3000
0000
0100
0000
,
0020
0000
0030
0010
0200
0000
0300
0010
,
0200
0000
0300
1000
0020
0000
0030
0000
,
0200
0000
0300
0010
2000
0000
3000
0001
,
0200
0000
0000
0000
0300
0000
0010
0000
0200
0000
0300
0010
0200
0000
0300
0001
,
0100
0000
0001
0000
0020
0000
0000
0000
0030
0000
0000
0000
0100
0000
0010
0000
0001
0000
0100
0000
0010
0000
0100
0000
1000
0000
0000
0000
0000
0000
0100
0010
,
0002
0000
0000
2003
0000
3000
0100
0010
1000
0000
0100
0000
0010
0000
0001
0000
,
0100
0000
0010
0001
0100
0000
0010
0000
0100
0000
1000
0010
0100
0000
0010
0100
,
0002
0000
0000
0203
0000
0300
0001
0010
0100
0000
0010
0001
0100
0000
0010
0000
,
1000
0100
1000
0100
0000
0000
1010
0000
0110
0000
0001
0100
0010
0000
0100
0010
,
0001
0000
0010
0100
0000
0001
0010
0000
0100
0010
1000
0001
0100
0000
0010
0000
,
0001
0010
0100
0001
1000
0010
0100
0000
0020
0000
0130
0000
1000
0000
0100
0000
,
1000
0000
0100
0000
0010
0000
0100
0000
0000
0010
0000
0000
0001
0000
0010
0000
1000
0000
0100
0000
0000
0001
0000
0000
,
0100
0001
0100
0000
0010
1000
0100
0000
0010
0000
0100
0000
0010
0000
0001
0000
,
2000
0000
0000
0100
3010
0000
0001
0000
0100
0000
0001
0100
0010
0000
0100
0000
,
1000
0000
0010
0100
0100
0000
0001
0000
0100
1000
0100
1000
0010
0000
0001
0000
,
0200
0000
0000
0010
0301
0000
0010
0000
0001
0000
0010
1000
0100
0000
0010
0000
,
0001
0000
0010
0100
1000
0000
0001
0000
0100
0010
0100
0001
1000
0010
0100
0010
,
2000
0000
0100
0010
3100
0000
0010
0000
0001
0000
0010
0001
0100
0000
0010
0000
,
0001
0000
0100
0010
0001
0000
0100
0000
0010
0100
0010
0100
0010
0000
0100
0010
,
2000
0000
0010
0100
3010
0000
0010
0000
0001
0100
0010
1000
0100
0000
0010
0000
,
0001
0100
0010
0001
0010
0000
0100
0000
0010
0001
0100
0010
0100
0000
0010
0000
,
0110
0000
0000
0000
;

//--------------- dance-single - May you have a TAKEDOWN ahead!! ----------------
#NOTES:
     dance-single:
     May you have a TAKEDOWN ahead!!:
     Challenge:
     16:
     0,0,0,0,0:
0000
0000
1000
0001
,
1000
0000
0001
0000
1000
0001
1000
0001
,
1000
0000
0100
1000
0200
0300
0010
0100
,
0020
0000
0030
0000
0001
0000
0000
0000
0100
0000
0010
0000
0100
0010
0000
0000
,
0001
0100
0000
0000
0101
0000
0000
0000
0010
0000
0100
0000
0010
0000
0100
0000
,
0010
0100
0010
0100
0020
0000
0030
0000
0001
0000
0100
0000
0001
0000
0100
0000
,
0001
0100
0001
0100
0002
0000
0003
0000
0010
0000
0100
0010
0100
0000
1000
0000
,
0010
0000
0001
0010
0100
0000
0010
0100
0020
0000
0030
0000
0001
0000
0100
0001
,
0200
0000
0000
0000
1300
0000
0010
0000
0100
0000
0100
0000
1000
0000
0100
0010
,
1000
0000
0100
0000
0020
0000
0030
0000
0100
0010
1000
0000
0100
0000
1000
0000
,
0100
0001
0010
0000
0002
0000
0013
0000
0100
0000
0010
0100
0010
0000
0100
0000
,
0010
0000
0001
0100
0001
0000
0010
0000
0100
0000
0010
0000
0100
0010
0100
0000
,
0010
0100
0010
0001
0100
1000
0100
1000
,
0200
0000
0300
0000
0010
0000
0001
0000
0100
0000
0001
0100
0001
0000
0100
0000
,
0010
0100
1000
0100
0010
0001
0100
0010
,
0200
0000
0300
0000
1000
0000
0100
0000
1000
0000
0100
1000
0100
0000
0100
0000
,
0010
0000
0001
0000
0100
0000
0010
0000
0100
0010
0001
0000
0100
0000
0010
0000
,
0100
1000
0100
0000
0010
0000
0100
0000
0010
0100
0010
0000
1000
0000
0100
0000
,
1000
0100
1000
0000
0100
0000
0010
0000
0002
0000
0000
0003
0010
0000
0100
0000
,
0010
0100
0010
0000
0100
0000
0010
0000
0001
0000
0010
0000
0100
0000
1000
0000
,
0100
0000
1000
0000
0100
0000
0010
0000
0002
0000
0000
0000
2003
0000
0000
3000
,
0100
1000
0100
0010
0001
0100
0010
0100
,
1000
0000
0100
0000
0010
0000
0001
0000
0200
0000
0300
0001
0200
0000
0000
0300
,
0010
0000
0100
0000
1000
0000
0100
0000
2000
0000
3000
0100
2000
0000
0000
3000
,
0100
0000
0010
0000
0001
0000
0100
0000
0010
0100
0010
0000
0001
0100
0001
0000
,
0100
0010
0100
0000
1000
0010
0100
0000
0100
0000
0010
0000
0001
0000
0100
0000
,
0010
0000
0100
0000
1000
0100
0001
0000
0010
0000
0100
0001
0010
0000
0100
0000
,
1000
0000
0100
0000
0010
0000
0001
0000
0100
0000
0001
0100
0001
0000
0100
0000
,
0010
0000
0100
0000
1000
0100
0010
0100
0001
0010
0000
0000
0001
0010
0000
0000
,
0010
0000
0100
0000
1000
0000
0100
0000
0120
0000
0000
0030
0001
0000
0100
0000
,
0001
0100
0001
0000
0100
0000
0010
0000
0200
0000
0300
0000
1000
0000
0100
0000
,
1000
0100
1000
0000
0100
0000
0010
0000
0200
0000
0300
0000
0010
0000
0001
0000
,
0010
0001
0010
0000
0010
0000
0100
0000
0020
0000
0030
0000
0100
0000
1000
0000
,
0100
1000
0000
0000
0100
0010
0000
0000
1002
0000
0000
0003
0100
0000
1000
0000
,
0100
1000
0001
0010
0100
0000
0010
0000
0001
0100
1000
0000
0001
0010
0100
0000
,
0020
0000
0031
0000
0100
0010
0001
0100
0020
0000
0030
0000
0100
0000
0010
0000
,
0100
0010
0100
0000
1000
0000
0100
0000
0020
0000
0030
0000
0001
0000
0100
0000
,
0001
0100
0010
0000
0002
0000
0000
0000
1003
0000
0000
0000
0100
1000
0100
1000
,
0200
0000
0300
0001
0020
0000
0030
0100
2000
3000
0200
0000
0300
0000
0010
0100
,
0020
0030
0001
0100
0002
0003
0200
0300
0020
0000
0000
0030
0100
1000
0100
1000
,
0200
0000
0300
0100
0020
0000
0030
0001
0200
0300
0020
0000
0000
0030
0100
1000
,
0200
0300
0010
0001
0100
0010
0200
0300
1000
0000
0100
0000
1000
0000
0100
0000
,
0020
0000
0030
0200
0000
0300
0010
0000
0002
0000
0000
0000
0103
0000
0010
0000
,
2000
0000
3000
0200
0000
0300
1000
0000
0200
0000
0000
0000
1300
0000
0100
0000
,
2000
0000
3000
0200
0000
0300
1000
0000
0200
0000
0300
0020
0000
0030
0001
0000
,
0200
0000
0300
0020
0000
0030
0100
0000
0020
0000
0030
0000
0001
0000
0100
0000
,
0020
0000
0030
0100
0020
0000
0030
0001
,
0200
0000
0300
0010
0200
0000
0300
0000
,
2000
0000
3000
0001
2000
0000
3000
0100
,
2000
0000
0000
0000
3000
0000
0100
0000
0020
0000
0030
0001
0020
0000
0030
0001
,
0020
0000
0030
0000
0200
0000
0000
0000
0000
0000
0000
0000
0310
0000
0001
0000
0010
0000
0100
0000
1000
0000
0100
0000
0010
0000
0000
0000
0000
0000
0100
0010
,
0100
0000
0000
0010
0000
0000
0100
0001
0010
0000
0100
0010
1000
0000
0100
0000
,
0010
0100
0001
0010
0100
0000
0100
0000
0110
0000
0000
0000
0010
0000
0001
0100
,
0001
0000
0000
0100
0000
0000
0010
0001
0100
0000
0100
0010
0100
0000
1000
0000
,
0100
1000
0010
0100
1000
0000
0100
0000
0001
0100
0001
0000
0110
0000
1000
0001
,
1000
0000
0100
1000
0100
0000
0010
0000
0100
1000
0001
0010
0100
0000
0010
0000
,
0100
0010
0100
0001
0100
0000
0100
0000
1000
0100
0010
0001
0100
0000
0010
0000
,
0100
0000
0010
0000
0100
0000
0011
0000
0000
1100
0000
0000
1000
0000
0100
0000
0010
0000
1100
0000
0000
0110
0000
0000
,
0010
0100
0000
0000
0001
0010
0000
0000
0100
0000
0010
0000
0001
0100
0001
0000
,
0110
0000
1000
0100
1000
0000
0100
0000
0010
0000
0001
0100
0001
0000
0100
0000
,
0010
0000
0100
0010
0100
0000
0001
0000
0010
0000
0100
0010
0100
0000
1000
0000
,
1100
0000
0100
0010
0100
0000
0010
0000
0001
0000
0100
0001
0100
0000
0010
0000
,
0100
0000
0010
0100
0010
0000
0100
0000
1000
0000
0100
1000
0100
0000
0010
0000
,
0100
0001
0100
0001
0100
0000
0010
0000
0100
1000
0100
0010
0001
0000
0010
0000
,
0100
0010
0100
0010
0100
0000
1000
0000
0100
0010
0100
0010
0001
0000
0100
0000
,
0010
0100
0010
0100
1000
0000
0100
0000
0010
0100
0010
0001
0100
0000
0010
0000
,
0100
0010
0100
1000
0100
0000
0010
0000
0001
0100
0000
0000
0010
0001
0000
0000
,
0220
0330
0000
0000
;

//--------------- dance-double - Wrland ----------------
#NOTES:
     dance-double:
     Wrland:
     Easy:
     7:
     0,0,0,0,0:
00000000
00000000
00000000
00000000
,
00000000
00000000
00000000
00000000
,
00000000
00000000
00000000
00000000
,
00000000
00000000
00000000
00000000
,
00000000
00000000
01000000
00100000
,
01000000
00100000
01000000
00000000
00100000
00000000
00010000
00000000
,
00001000
00000100
00000010
00000000
00000001
00000000
00000010
00000001
,
00000010
00000000
00000100
00000000
00001000
00000000
00010000
00100000
,
01000000
00000000
10000000
00000000
01000000
00000000
10000000
01000000
,
10000000
00000000
01000000
00000000
00100000
00000000
01000000
00100000
,
00010000
00000000
01000000
00000000
00100000
00000000
00010000
00001000
,
00000100
00000000
00000010
00000000
00000001
00000000
00000100
00000100
,
00001000
00010000
00100000
00100000
,
01000000
10000000
10000000
01000000
,
10000000
01000000
00100000
01000000
,
00100000
00010000
00001000
00000100
,
00000010
00000000
00000001
00000010
00000100
00000000
00001000
00010000
,
00100000
00000000
10000000
01000000
10000000
00000000
01000000
10000000
,
01000000
00000000
01000000
00100000
00020000
00000000
00030000
00001000
,
00000200
00000300
00000000
00000000
,
00000000
00000000
00000010
00000100
,
00001000
00000000
00010000
00100000
,
10000000
00000000
01000000
10000000
,
01000000
00000000
10000000
01000000
,
00100000
00000000
00010000
00001000
,
00000100
00000000
00000010
00000001
,
00000100
00000000
00001000
00010000
,
00100000
00000000
01000000
10000000
,
01000000
00000000
00000000
00000000
,
00000000
00000000
00000000
00000000
00100000
00000000
00010000
00001000
,
00000100
00000000
00000000
00000000
00000010
00000000
00000000
00000000
00000001
00000001
00000000
00000000
00000010
00000000
00000001
00000000
,
00000010
00000000
00000100
00000000
00001000
00000000
00010000
00100000
,
01000000
00000000
00000000
00000000
10000000
00000000
00000000
00000000
01000000
00100000
00000000
00000000
10000000
00000000
01000000
00000000
,
10000000
00000000
01000000
00000000
00100000
00000000
00010000
00001000
,
00000100
00000000
00000000
00000000
00000010
00000000
00000001
00000000
00000010
00000001
00000000
00000000
00000100
00000000
00001000
00000000
,
00010000
00000000
00100000
00000000
10000000
00000000
01000000
10000000
,
01000000
00000000
00000000
00000000
01000000
00000000
00000000
00000000
00100000
01000000
00000000
00000000
00010000
00000000
00001000
00000000
,
00000100
00000000
00000000
00000000
00000000
00000000
00000020
00000030
,
00000200
00000300
00002000
00003000
00010000
00200000
00300000
00000000
,
10000000
01000000
10000000
01000000
00200000
00300000
00010000
00001000
,
00000200
00000300
00000002
00000003
00000010
00000200
00000300
00000000
,
00001000
00010000
00100000
10000000
01000000
00000000
00100000
00000000
,
00010000
00000000
00001000
00000100
00000010
00000000
00000001
00000000
,
00000010
00000100
00001000
00010000
00100000
00000000
01000000
00000000
,
10000000
01000000
10000000
00000000
01000000
00000000
00100000
00000000
,
00010000
00000000
01000000
00100000
01000000
00000000
00100000
00000000
,
00020000
00000000
00030000
00001000
00000200
00000000
00000300
00000000
,
00000020
00000000
00000030
00000001
00000200
00000000
00000300
00000000
,
00002000
00000000
00003000
00010000
00200000
00000000
00300000
10000000
,
02000000
00000000
03000000
10000000
02000000
00000000
00000000
00000000
,
00000000
03000000
00000000
00000000
,
00100000
00000000
00010000
00000000
00001000
00000100
00000010
00000000
,
00000001
00000000
00000010
00000100
00001000
00000000
00000000
00000000
,
00010000
00000000
00100000
00000000
01000000
10000000
01000000
00000000
,
10000000
00000000
01000000
10000000
01000000
00000000
00000000
00000000
,
01000000
00000000
00100000
00000000
00010000
00001000
00000100
00000000
,
00000010
00000000
00000001
00000100
00000010
00000000
00000000
00000000
,
00000100
00001000
00010000
00100000
,
10000000
00000000
01000000
10000000
01000000
00000000
00000000
00000000
,
01000000
00000000
00100000
00000000
00010000
00000000
00001000
00000100
,
00000010
00000000
00000001
00000100
00000010
00000000
00000100
00000000
,
00001000
00000000
00010000
00100000
10000000
00000000
01000000
10000000
,
01000000
00000000
01000000
00100000
00010000
00000000
00001000
00000000
,
00000100
00000000
00000010
00000000
00000001
00000000
00000010
00000010
,
00000100
00000000
00001000
00010000
00100000
00000000
01000000
00000000
,
10000000
00000000
01000000
10000000
01000000
00000000
00100000
00000000
,
00010000
00000000
00001000
00000100
00000010
00000000
00000001
00000000
,
00000010
00000000
00000000
00000000
;

//--------------- dance-double - Wrland ----------------
#NOTES:
     dance-double:
     Wrland:
     Medium:
     11:
     0,0,0,0,0:
00000000
00000000
00000000
00000000
,
00000000
00000000
00000000
00000000
,
00000000
00000000
00000000
00000000
,
00000000
00000000
00000000
00000000
,
00000000
00000000
00000000
00000000
01000000
00000000
00100000
01000000
,
00100000
00000000
00010000
00000000
00001000
00000100
00000010
00000001
,
00000100
00000010
00000100
00000000
00000100
00001000
00010000
00100000
,
01000000
00000000
10000000
01000000
10000000
00000000
01000000
00100000
,
00010000
00000000
01000000
00000000
00100000
01000000
00100000
00010000
,
00001000
00010000
00001000
00000000
00000100
00000000
00000010
00000000
00000001
00000000
00000100
00000000
00000010
00000000
00000100
00000000
,
00001000
00000100
00001000
00000000
00010000
00000000
00100000
00000000
01000000
00000000
10000000
00000000
01000000
00000000
10000000
00000000
,
01000000
00100000
01000000
00100000
00010000
00001000
00000100
00000020
,
00000000
00000030
00000100
00000010
00000020
00000030
00000001
00000100
,
00000001
00000000
00000010
00000001
00000100
00001000
00010000
00200000
,
00000000
00300000
00000000
00000000
01000000
00000000
10000000
00000000
01000000
00000000
00100000
00000000
10000000
00000000
01000000
00000000
,
00200000
00300000
00010000
00100000
01000000
00010000
01000000
00200000
,
00300000
00000000
00100000
00010000
00002000
00003000
00000100
00000010
,
00000002
00000003
00000010
00000100
00000020
00000030
00000100
00001000
,
00020000
00030000
00100000
01000000
20000000
30000000
01000000
10000000
,
02000000
03000000
01000000
00000000
00200000
00000000
00000000
00000000
,
00000000
00000000
00310000
00000000
00020000
00030000
00001000
00000100
,
00000020
00000030
00000001
00000100
00000001
00000100
00000010
00000001
,
00000100
00000000
00000010
00000000
00001000
00000000
00010000
00000000
00200000
00000000
00300000
10000000
02000000
00000000
03000000
00000000
,
01000000
00000000
00100000
00000000
00010000
00000000
00001000
00000000
00000200
00000000
00000300
00000010
00000200
00000000
00000000
00000300
,
00000001
00000010
00000100
00001000
00020000
00030000
00100000
01000000
,
20000000
30000000
01000000
10000000
01000000
00100000
00010000
01000000
,
00100000
00000000
00010000
00000000
01000000
00000000
10000000
00000000
02000000
00000000
03000000
00100000
02000000
00000000
00000000
03000000
,
00100000
00000000
00010000
00000000
00001000
00000000
00000100
00000000
00000020
00000000
00000030
00000100
00000020
00000000
00000030
00000000
,
00000010
00000100
00000001
00000100
00000020
00000000
00000000
00000000
,
00000000
00000000
00000100
00000000
00000230
00000300
00001000
00010000
,
00200000
00000000
00300000
00000000
01000000
00000000
10000000
00000000
01000000
10000000
00000000
00000000
01000000
00100000
00000000
00000000
,
00100000
00010000
00002000
00003000
00000100
00000010
00000002
00000003
,
00000100
00000000
00000001
00000000
00000200
00000000
00000300
00000000
00000010
00000100
00000000
00000000
00001000
00010000
00000000
00000000
,
00100000
01000000
00100000
01000000
20000000
30000000
01000000
10000000
,
01000000
00000000
00100000
00000000
00010000
00000000
00001000
00000000
00000100
00000010
00000000
00000000
00000001
00000010
00000000
00000000
,
00000100
00001000
00020000
00030000
00100000
01000000
20000000
30000000
,
01000000
00000000
10000000
00000000
01000000
00000000
00100000
00000000
00010000
00001000
00000000
00000000
00000100
00000010
00000000
00000000
,
00000010
00000000
00000100
00000000
00000020
00000000
00000030
00000000
00000200
00000000
00000000
00000300
00002000
00003000
00010000
00100000
,
02000000
00000000
03000000
10000000
02000000
00000000
03000000
00100000
00020000
00030000
00002000
00000000
00000000
00003000
00000100
00000010
,
00000002
00000003
00000100
00000010
00000200
00000300
00002000
00003000
00020000
00000000
00000000
00030000
00100000
01000000
10000000
01000000
,
20000000
00000000
30000000
01000000
20000000
00000000
30000000
01000000
00200000
00300000
00020000
00030000
00002000
00003000
00000100
00001000
,
00000200
00000300
00000010
00000001
00000200
00000300
00000020
00000030
00000200
00000000
00000000
00000300
00002000
00000000
00000000
00003000
,
00020000
00000000
00030000
00200000
00000000
00300000
01000000
00000000
20000000
00000000
00000000
30000000
01000000
00000000
00100000
00000000
,
20000000
00000000
30000000
02000000
00000000
03000000
10000000
00000000
02000000
00000000
00000000
03000000
00100000
00000000
01000000
00000000
,
02000000
00000000
03000000
00200000
00000000
00300000
00010000
00000000
00002000
00000000
00003000
00000200
00000000
00000300
00000010
00000000
,
00000002
00000000
00000003
00000200
00000000
00000300
00000010
00000000
00000200
00000000
00000000
00000300
00001000
00000000
00010000
00000000
,
00200000
00000000
00300000
01000000
00200000
00000000
00300000
01000000
,
20000000
00000000
30000000
01000000
00200000
00000000
00300000
00000000
,
00020000
00000000
00030000
00001000
00000200
00000000
00000300
00000010
,
00000002
00000000
00000000
00000000
00000003
00000000
00000010
00000000
00000200
00000000
00000300
00001000
00020000
00000000
00030000
00100000
,
02000000
00000000
03000000
00000000
20000000
00000000
00000000
00000000
00000000
00000000
30000000
00000000
01000000
00000000
00100000
00000000
01000000
00000000
00000000
00000000
00100000
00000000
00010000
00000000
00001000
00000000
00000000
00000000
00000000
00000000
00000100
00001000
,
00000100
00000000
00000000
00000010
00000000
00000000
00000100
00000001
00000010
00000000
00000100
00000001
00000010
00000000
00000100
00000000
,
00001000
00000000
00000000
00010000
00000000
00000000
00100000
00000000
01000000
00000000
00000000
00000000
10000000
00000000
01000000
10000000
,
01000000
00000000
00000000
00100000
00000000
00000000
01000000
00100000
01000000
00000000
00100000
00010000
00001000
00000000
00000100
00000000
,
00001000
00000000
00000000
00000100
00000000
00000000
00001000
00000000
00000100
00000000
00000010
00000000
00000001
00000000
00000010
00000100
,
00000010
00000000
00000100
00001000
00000100
00000000
00000100
00000000
00001000
00000100
00001000
00010000
00100000
00000000
01000000
00000000
,
10000000
01000000
10000000
01000000
00100000
00000000
01000000
00000000
00100000
00000000
00000000
00000000
00010000
00000000
00001000
00000000
,
00000100
00000000
00000010
00000000
00000010
00000100
00000001
00000000
00000010
00000000
00000100
00000000
00001000
00010000
00001000
00000000
,
00010000
00100000
00000000
00000000
10000000
01000000
00000000
00000000
00100000
00000000
01000000
00000000
00100000
00000000
01000000
00000000
,
00020000
00000000
00000000
00030000
00000100
00000000
00000010
00000000
00000100
00000010
00001000
00000000
00000001
00000000
00000100
00000000
,
00000001
00000100
00000001
00000000
00000100
00000010
00000100
00000000
00001000
00000000
00001000
00000000
00020000
00000000
00030000
00000000
,
00100000
00000000
01000000
00000000
10000000
00000000
01000000
00000000
10000000
01000000
10000000
00000000
01000000
00000000
00100000
00000000
,
01000000
00100000
01000000
00000000
00100000
00000000
00010000
00000000
00001000
00000100
00000010
00000000
00000001
00000000
00000010
00000000
,
00000100
00000000
00001000
00000000
00010000
00000000
01000000
00000000
10000000
01000000
10000000
00000000
01000000
00000000
00100000
00000000
,
01000000
00100000
01000000
00000000
00100000
00010000
00100000
00000000
00010000
00000000
00001000
00000000
00000200
00000000
00000000
00000300
,
00000010
00000000
00000001
00000000
00000010
00000000
00000100
00000000
00001000
00010000
00100000
00000000
01000000
00000000
10000000
00000000
,
01000000
00000000
00100000
00000000
00010000
00000000
00001000
00000000
00000100
00000010
00000100
00000000
00000001
00000100
00000010
00000000
,
00000100
00000000
00000000
00000000
;

//--------------- dance-double - Wrland ----------------
#NOTES:
     dance-double:
     Wrland:
     Hard:
     15:
     0,0,0,0,0:
00000000
00000000
00000000
00000000
,
00000000
00000000
00000000
00000000
,
00000000
00000000
00000000
00000000
,
00000000
00000000
00000000
00000000
00000000
00000000
00000000
00000000
00000000
00000000
00000000
00000000
10000000
00010000
00000000
00000000
,
10000000
00000000
01100000
00000000
01000000
00100000
01000000
10000000
,
01000000
00100000
01000000
00100000
00020000
00000000
00030000
00000000
00001000
00000000
00000100
00000000
00000010
00000001
00000100
00000000
,
00000010
00000100
00000010
00000000
00000001
00000000
00000010
00000000
00000100
00000000
00001000
00000000
00010000
00000000
00100000
00010000
,
00100000
00000000
01000000
00000000
10000000
00000000
01000000
10000000
01000000
00000000
00100000
00000000
01000000
00100000
01000000
00000000
,
00020000
00000000
00031000
00000000
00001000
00000100
00000010
00000001
,
00001000
00000010
00001000
00000000
00000100
00000000
00000010
00000000
00001000
00000000
00010000
00000000
00100000
00000000
01000000
00000000
,
00100000
01000000
00100000
00000000
01100000
00000000
10000000
00000000
01000000
00000000
10000000
01000000
10000000
00000000
01000000
00000000
,
00100000
01000000
00100000
00000000
00010000
00000000
00001000
00000000
00000100
00000000
00000010
00000000
00000001
00000000
00000200
00000000
,
00000300
00000000
00000010
00000000
00000100
00000000
00000010
00000000
00001000
00010000
00100000
00000000
01000000
00000000
10000000
00000000
,
11000000
00000000
00000000
00000000
01000000
00000000
00100000
00000000
01000000
00100000
01000000
00000000
00100000
00000000
01000000
00000000
,
00100000
01000000
00100000
00000000
00100000
00000000
00010000
00000000
00001000
00000000
00000100
00000000
00001000
00000100
00001000
00000000
,
00000100
00000000
00000010
00000000
00000100
00000000
00000010
00000000
00000001
00000010
00000001
00000000
00000010
00000000
00000100
00000000
,
00001000
00000000
00010000
00000000
00100000
00010000
01000000
00000000
00100000
00000000
01000000
00000000
10000000
00000000
01000000
00000000
,
10000000
00000000
00100000
00000000
01000000
00100000
01000000
00000000
00100000
00000000
00010000
00000000
00001000
00000000
00000100
00000000
,
00000010
00000100
00000010
00000000
00000001
00000000
00000100
00000000
00002000
00000000
00000000
00000000
00013000
00000000
00100000
01000000
,
01000000
10000000
02000000
00000000
03100000
00010000
00001000
00000100
,
00000010
00000000
00000001
00000000
00001000
00000000
00000100
00000000
00002000
00000000
00000000
00003000
00020000
00000000
00030000
00000000
,
00010000
00100000
01000000
00000000
00100000
01000000
00100000
10000000
,
01000000
00000000
10000000
00000000
01000000
00000000
00100000
00000000
00020000
00000000
00030000
01000000
00020000
00000000
00000000
00030000
,
01000000
00000000
00100000
00000000
00010000
00000000
00001000
00000000
00000200
00000000
00000300
00000010
00000200
00000000
00000000
00000300
,
00000010
00000000
00000100
00000000
00001000
00010000
00001000
00000000
00010000
00000000
00100000
00000000
02000000
00000000
00000000
03000000
,
10000000
00000000
01000000
10000000
01000000
00000000
00100000
00000000
01000000
00100000
01000000
00000000
00100000
00000000
00010000
00000000
,
00001000
00000100
00001000
00000000
00000100
00000000
00000010
00000000
00000002
00000000
00000003
00000010
00000200
00000000
00000000
00000300
,
00001000
00000000
00010000
00000000
00100000
00000000
01000000
00000000
00200000
00000000
00300000
01000000
00200000
00000000
00000000
00300000
,
10000000
01000000
10000000
01000000
00100000
00000000
00010000
00000000
01000000
00010000
00000000
00000000
01000000
00100000
00000000
00000000
,
10000000
00000000
01000000
00000000
00100000
00010000
00001000
00000000
00000100
00000000
00000010
00000000
00000001
00000000
00000100
00000000
,
00000001
00000100
00000001
00000000
00000100
00000000
00000010
00000000
00000100
00001000
00010000
00000000
00100000
01000000
10000000
00000000
,
01000000
00000000
00100000
00000000
01000000
00010000
01000000
00000000
00100000
00000000
00010000
00000000
00001000
00000000
00000100
00000000
,
00000010
00000100
00000010
00000000
00000010
00000000
00000100
00000000
00001000
00010000
00100000
00000000
01000000
10000000
01000000
00000000
,
00100000
00010000
01000000
00000000
00100000
01000000
00100000
00000000
00010000
00001000
00000100
00000000
00000010
00000000
00000001
00000000
,
00000100
00000010
00000100
00000000
00001000
00000000
00010000
00000000
00100000
01000000
10000000
00000000
01000000
10000000
01000000
00000000
,
00100000
00000000
00010000
00000000
00001000
00000000
00000100
00000000
00000010
00000001
00000010
00000000
00000100
00000000
00001000
00000000
,
00010000
00100000
01000000
00000000
10000000
00000000
01000000
00000000
10000000
01000000
10000000
00000000
01000000
00100000
01000000
00000000
,
00100000
00000000
00010000
00000000
00002000
00000000
00000000
00000000
00003200
00000000
00000000
00000300
00001000
00000100
00001000
00010000
,
00200000
00000000
00300000
01000000
20000000
00000000
30000000
01000000
20000000
30000000
02000000
03000000
00100000
00000000
01000000
00100000
,
00020000
00030000
00001000
00000100
00000020
00000030
00000002
00000003
00000020
00000000
00000000
00000030
00000100
00001000
00010000
00100000
,
02000000
00000000
03000000
00100000
02000000
03000000
00100000
00010000
02000000
03000000
00200000
00000000
00000000
00300000
00010000
00001000
,
00000200
00000300
00000010
00000100
00000020
00000030
00000002
00000003
00000020
00000000
00000030
00000000
00000100
00000000
00001000
00000000
,
00020000
00000000
00030000
00200000
00000000
00300000
01000000
00000000
20000000
00000000
30000000
00000000
01000000
00000000
10000000
00000000
,
02000000
00000000
03000000
00200000
00000000
00300000
00010000
00000000
00002000
00000000
00003000
00000000
00000100
00000000
00001000
00000000
,
00000200
00000000
00000300
00000020
00000000
00000030
00000001
00000000
00000200
00000000
00000300
00000020
00000000
00000030
00000100
00000000
,
00002000
00000000
00003000
00020000
00000000
00030000
00100000
00000000
02000000
00000000
00000000
03000000
10000000
00000000
01000000
00000000
,
20000000
00000000
00000000
00000000
30000000
00000000
01000000
00000000
20000000
00000000
00000000
30000000
01000000
00000000
00100000
00000000
,
00020000
00000000
00000000
00000000
00000000
00030000
01000000
00000000
00200000
00000000
00300000
00000000
00010000
00000000
00000000
00000000
,
00002000
00000000
00003000
00000100
00000020
00000000
00000030
00000001
,
00000020
00000000
00000000
00000000
00000030
00000000
00000100
00000000
00002000
00000000
00003000
00001000
00020000
00000000
00030000
00010000
,
00100000
00000000
01000000
00000000
20000000
00000000
30000000
00000000
01000000
00000000
00000000
00000000
10000000
00000000
01000000
00000000
00100000
00000000
00010000
00000000
00001000
00000000
00000100
00000000
00000010
00000000
00000000
00000000
00000000
00000000
00000010
00000100
,
00000010
00000000
00000000
00000100
00000000
00000000
00001000
00000100
00010000
00000000
00100000
01000000
00000000
00000000
10000000
00000000
,
01000000
00000000
10000000
01000000
00000000
00000000
10000000
00000000
01000000
00000000
00100000
00000000
00010000
00000000
00001000
00000100
,
00000010
00000000
00000000
00000001
00000000
00000000
00000001
00000100
00000010
00000000
00000100
00000010
00000100
00000000
00001000
00000000
,
00010000
00000000
00000000
00010000
00000000
00000000
00100000
00000000
10000000
00000000
01000000
10000000
01000000
00000000
00100000
00010000
,
01000000
00000000
00100000
00010000
00001000
00000000
00000100
00000000
00001000
00000100
00000010
00000001
00000010
00000000
00000010
00000000
,
00000100
00000000
00001000
00010000
00100000
00000000
01000000
00000000
10010000
00000000
01000000
00000000
00100000
01000000
00100000
00000000
,
00010000
00000000
00001000
00000000
00000100
00000000
00000010
00000000
00000000
00000011
00000000
00000000
00000010
00000000
00000100
00000000
00001000
00000000
00010000
00000000
00000000
00110000
00000000
00000000
,
01000000
00100000
01000000
00000000
10000000
01000000
10000000
00000000
01000000
00000000
00100000
00000000
01000000
00100000
01000000
00000000
,
00100000
00000000
00010000
00001000
00010000
00000000
00001000
00000000
00000100
00000010
00000001
00000100
00000010
00000000
00000100
00000000
,
00001000
00010000
00100000
01000000
10000000
00000000
00100000
00000000
01000000
00100000
01000000
00000000
00100000
00010000
00100000
00000000
,
00010000
00001000
00000100
00000010
00000001
00000000
00000010
00000000
00000100
00001000
00010000
00001000
00010000
00000000
00100000
00000000
,
01000000
10000000
00100000
01000000
00100000
00000000
00010000
00000000
00001000
00000100
00000000
00000000
00000010
00000100
00000000
00000000
,
00000001
00000000
00000010
00000100
00000010
00000000
00000100
00000000
00001000
00010000
00100000
00010000
00100000
00000000
01000000
00000000
,
00100000
01000000
00100000
01000000
00100000
00000000
01000000
00000000
00100000
00010000
00001000
00000100
00000010
00000000
00000100
00000000
,
00000010
00000100
00001000
00010000
00100000
00000000
01000000
00000000
00100000
01000000
00100000
00010000
00001000
00000000
00000100
00000000
,
00001000
00000100
00001000
00000000
00000100
00000000
00000010
00000000
00000001
00000100
00000000
00000000
00000010
00000100
00000000
00000000
,
00000110
00000000
00000000
00000000
;
