#VERSION:0.83;
#TITLE:Strategy;
#SUBTITLE:;
#ARTIST:트와이스;
#TITLETRANSLIT:;
#SUBTITLETRANSLIT:;
#ARTISTTRANSLIT:TWICE;
#GENRE:K-Pop;
#CREDIT:JYP;
#MUSIC:Strategy (K-POP DEMON HUNTERS ver).ogg;
#BANNER:Strategy (K-POP DEMON HUNTERS ver).png;
#BACKGROUND:BG.png;
#CDTITLE:K-POP DEMON HUNTERS.png;
#SAMPLESTART:18.059;
#SAMPLELENGTH:15;
#SELECTABLE:YES;
#OFFSET:0.000;
#BPMS:0.000=109.310
,17.000=110.000
,80.000=55.000
,80.500=110.000
,147.500=55.000
,148.000=110.000
;
#STOPS:;
#DISPLAYBPM:110.000;
#JACKET:Strategy (K-POP DEMON HUNTERS ver)-jacket.png;
#DISCIMAGE:;
#CDIMAGE:;
#TAGS:DMCA;
#METERTYPE:DDR X;
#BGCHANGES:0.000=Strategy (K-POP DEMON HUNTERS ver).avi=0.000=0=0=0=StretchNoLoop====,
99999=-nosongbg-=1.000=0=0=0 // don't automatically add -songbackground-
;
#FGCHANGES:;

//--------------- dance-single - Wrland ----------------
#NOTEDATA:;
#STEPSTYPE:dance-single;
#DESCRIPTION:Wrland;
#DIFFICULTY:Beginner;
#METER:4;
#RADARVALUES:0,0,0,0,0;
#CHARTNAME:;
#CHARTSTYLE:Pad;
#CREDIT:Wrland;
#METERF:4;
#NOTES:
0000
0000
0000
0000
,
0000
0000
0000
0000
,
0000
0000
0000
0000
,
0000
0000
0000
0000
,
0000
0100
0000
0100
,
0001
0100
0000
1000
,
0100
0001
0000
0100
,
0001
0200
0000
0000
,
0310
0010
0010
0001
,
0001
0100
0010
1000
,
1000
0100
0010
0001
,
0001
0200
0320
0230
,
0310
0000
0000
0100
0000
0000
0100
0000
,
0000
0010
0000
0100
,
0000
0001
0000
0100
,
0000
1000
0000
0100
,
0000
0020
0100
0100
,
0030
0002
1000
1000
,
0003
2000
0001
0001
,
3000
1000
0001
1000
,
0000
0001
1000
0001
0000
0000
0100
1000
,
0000
0000
0100
0000
0010
0100
0010
0000
0000
0000
0000
0000
0100
0000
0001
0000
,
0000
0000
0100
0010
0100
0000
0000
0000
0001
0100
0001
0000
0000
0000
0100
0000
,
0000
1000
0100
1000
0100
1000
0000
0100
,
0000
0010
0001
0000
0000
0010
0100
0010
,
0000
0001
0100
0000
0001
0010
0000
1000
,
0000
0000
0100
1000
0100
0000
0000
0000
0010
0100
0010
0000
0000
0000
0001
0000
,
0000
0100
0001
0100
0001
0100
0000
0010
,
0000
0000
0001
0100
0001
0000
0000
0000
0000
0000
0010
0000
0000
0000
0100
0000
,
0000
0000
1000
0100
1000
0000
0000
0000
0000
0000
0010
0000
0000
0000
0001
0000
,
0000
0000
0100
0001
0100
0000
0000
0000
0100
0001
0100
0000
0000
0000
0010
0000
,
0000
0100
0010
0100
1000
0100
1000
0000
,
0000
0100
0010
0000
0000
0100
0000
0001
,
0000
0100
0010
0000
0000
1000
0100
1000
,
0000
0000
1000
0100
1000
0000
0000
0000
0100
0010
0100
0000
0000
0000
0000
0000
,
0000
0100
0001
0100
0001
0100
0001
0100
,
0000
0010
0000
0010
0000
0001
0100
0010
,
0100
0100
0010
0001
,
0100
0001
0100
0001
,
0100
1000
0100
1000
,
0100
0010
0001
0100
,
0010
0100
0010
0100
,
1000
0000
0100
0000
1000
0100
0000
1000
,
0100
0010
0001
0100
,
0010
0100
0010
0000
0001
0100
0000
0000
;

//--------------- dance-single - Wrland ----------------
#NOTEDATA:;
#STEPSTYPE:dance-single;
#DESCRIPTION:Wrland;
#DIFFICULTY:Easy;
#METER:6;
#RADARVALUES:0,0,0,0,0;
#CHARTNAME:;
#CHARTSTYLE:Pad;
#CREDIT:Wrland;
#METERF:6;
#NOTES:
0000
0000
0000
0000
,
0000
0000
0000
0000
,
0000
0000
0000
0000
,
0000
0000
0000
0000
,
0000
0000
0100
0000
0000
0010
0100
0000
,
0001
0000
0100
1000
0000
0100
1000
0000
,
0100
0000
0001
0100
0000
0010
0100
0000
,
0001
0200
0000
0000
,
0310
0000
0000
0000
0010
0000
0100
0000
0010
0000
0000
0000
0001
0000
0000
0100
,
0001
0000
0000
0000
0100
0000
0000
0000
0010
0000
0100
0000
1000
0000
0000
0100
,
1000
0000
0000
0000
0100
0000
0000
0000
0010
0000
0000
0000
0001
0000
0000
0100
,
0001
0200
0320
0230
,
0310
0000
0000
0100
0001
0000
0100
0000
,
0100
0010
0001
0100
,
0100
0001
0001
0100
,
0100
1000
1000
0100
,
0100
0020
0100
0100
,
0030
0002
1000
1000
,
0003
2000
0001
0001
,
3000
0000
1000
0001
1000
0001
1000
0000
,
0000
0001
1000
0001
0000
0100
1000
0100
,
0000
0000
0100
0000
0010
0100
0010
0000
0000
0000
0001
0000
0100
0000
0001
0000
,
0000
0000
0100
0010
0100
0000
0000
0000
0001
0100
0001
0000
0000
0000
0100
0000
,
0000
1000
0100
1000
0100
1000
0000
0100
,
0000
0010
0001
0100
0000
0010
0100
0010
,
0000
0000
0001
0000
0100
0001
0100
0000
0000
0000
0010
0000
0100
0000
1000
0000
,
0000
0000
0100
1000
0100
0000
0000
0000
0010
0100
0010
0000
0000
0000
0001
0000
,
0000
0100
0001
0100
0001
0100
0000
0010
,
0000
0000
0001
0100
0001
0000
0000
0000
0100
0000
0010
0000
0000
0000
0100
0000
,
0000
0000
1000
0100
1000
0000
0000
0000
0100
0000
0010
0000
0000
0000
0001
0000
,
0000
0000
0100
0001
0100
0000
0000
0000
0100
0001
0100
0000
0000
0000
0010
0000
,
0000
0000
0100
0000
0010
0000
0100
0000
1000
0000
0100
0000
1000
0100
1000
0000
,
0000
0100
0010
0000
0001
0100
0000
0001
,
0000
0100
0010
0100
0000
1000
0100
1000
,
0000
0000
1000
0100
1000
0000
0000
0000
0100
0010
0100
0000
0000
0000
0001
0000
,
0000
0100
0001
0100
0001
0100
0001
0100
,
0000
0000
0010
0000
0100
0000
0010
0000
0001
0100
0001
0000
0100
0000
0010
0000
,
0100
0100
0010
0001
,
0100
0001
0100
0001
,
0100
1000
0100
1000
,
0100
0010
0001
0100
,
0010
0100
0010
0100
,
1000
0000
0100
0000
1000
0100
0000
1000
,
0100
0010
0001
0100
,
0010
0100
0010
0000
0001
0100
0000
0000
;

//--------------- dance-single - Wrland ----------------
#NOTEDATA:;
#STEPSTYPE:dance-single;
#DESCRIPTION:Wrland;
#DIFFICULTY:Medium;
#METER:8;
#RADARVALUES:0,0,0,0,0;
#CHARTNAME:;
#CHARTSTYLE:Pad;
#CREDIT:Wrland;
#METERF:8;
#NOTES:
0000
0000
0000
0000
,
0000
0000
0000
0000
,
0000
0000
0000
0000
,
0000
0000
0000
0000
,
0000
0000
0000
0000
,
0000
0000
0000
0000
,
0000
0000
0000
0000
,
0000
0000
0000
0000
,
0000
0000
0000
0000
,
0000
0000
0000
0000
,
0000
0000
0000
0000
,
0000
0000
0000
0000
,
0000
0000
0000
0000
0000
0000
0100
0000
0020
0000
0000
0030
0001
0100
0001
0000
,
0100
0000
0010
0100
0010
0000
0001
1000
0200
0000
0300
0000
0100
0010
0100
0000
,
0010
0000
0200
0000
0300
0000
1000
0000
0200
0000
0300
0000
0100
0001
0100
0000
,
0010
0000
0100
0000
0010
0000
0100
0010
0200
0300
1000
0100
0001
0000
0100
1000
,
0100
0000
0010
0000
0020
0000
0100
1000
0100
0000
1000
0100
1000
0000
0100
0000
,
0130
0000
0000
0000
2000
0000
0010
0001
0010
0000
0001
0010
0001
0000
0010
0000
,
3001
0000
0000
0000
0000
0000
0200
0000
0010
0000
0000
0000
0010
0001
0010
0000
,
0300
0000
0010
0001
0010
0000
0010
0000
0100
0000
0100
0000
0020
0000
0000
0000
,
0130
1000
0100
0010
0001
0200
0300
0010
,
0100
1000
0010
0001
0010
0200
0000
1300
,
0000
0000
0010
0100
0010
0000
0000
0000
0100
0010
0001
0000
0000
0000
0100
0000
,
0000
0010
0001
0100
0010
0200
0000
0310
,
0000
1000
0100
0010
0001
0200
0300
0010
,
0100
1000
0100
0010
0001
0200
0300
0001
,
0000
0000
0010
0100
0010
0000
0000
0000
1000
0100
0100
0000
0000
0000
0001
0000
,
0000
0000
0010
0000
0100
0000
1000
0000
0100
0010
0001
0000
2000
0000
3100
0000
,
0000
0000
0100
0010
0100
0000
0000
0000
0001
0100
0010
0000
0000
0000
0001
0000
,
0000
0000
0100
1000
0100
0000
0000
0000
0100
0010
0010
0000
0000
0000
0001
0000
,
0000
0000
0001
0100
0010
0000
0000
0000
1000
0100
0010
0000
0000
0000
0001
0000
,
0000
0100
0100
0010
0010
1000
1000
0002
,
0003
0000
0100
0010
0100
0000
0000
0000
0001
0100
0100
0000
0000
0000
1000
0000
,
0000
0010
0100
1000
0100
0010
0000
0001
,
0000
0000
0100
0010
0100
0000
0000
0000
0001
0100
0100
0000
0000
0000
0010
0000
,
0000
1000
1000
0001
0001
1000
1000
0002
,
0003
0100
0100
0010
0010
0100
0100
0010
,
1000
0000
0100
0000
0000
0000
0001
0010
0100
0000
0010
0000
0000
0000
1000
0000
,
0100
0000
0010
0000
0100
0000
0001
0100
0010
0000
0100
0000
0000
0000
0001
0000
,
0100
0000
0000
0000
0000
0000
1000
0100
0100
0000
0010
0000
0000
0000
0001
0100
,
1000
0000
0100
0010
0100
0000
0001
0100
1000
0000
0100
0000
0000
0000
0001
0000
,
0100
0000
0000
0000
0000
0000
1000
0100
0010
0000
0100
0000
0000
0000
0100
0010
,
0010
0000
0001
0100
0001
0000
0100
0010
0001
0000
0010
0000
0000
0000
1000
0000
,
0100
0000
0000
0000
0000
0000
0001
0100
0010
0000
0001
0000
0000
0000
0010
0100
,
1000
0000
0100
0010
0100
0000
0001
0100
0010
0000
0001
0000
0000
0000
0000
0000
,
0100
0000
0000
0000
0000
0000
0010
0100
0010
0000
0001
0000
0000
0000
0100
0001
,
0100
0000
0001
0000
0100
0000
0001
0100
0001
0000
0100
0000
0000
0000
0000
0000
;

//--------------- dance-single - Wrland ----------------
#NOTEDATA:;
#STEPSTYPE:dance-single;
#DESCRIPTION:Wrland;
#DIFFICULTY:Hard;
#METER:13;
#RADARVALUES:0,0,0,0,0;
#CHARTNAME:;
#CHARTSTYLE:Pad;
#CREDIT:Wrland;
#METERF:13;
#NOTES:
0000
0000
0000
0000
,
0000
0000
0000
0000
,
0000
0000
0000
0000
,
0000
0000
0000
0000
,
0000
0000
0000
0000
0100
0000
0010
0000
0000
0000
0001
0100
0001
0000
0100
0000
,
0020
0000
0030
0000
0100
0000
1000
0000
0000
0000
0100
1000
0100
0000
0100
0000
,
0020
0000
0030
0000
0001
0000
0100
0000
0000
0000
0010
0100
0010
0000
0001
0100
,
0002
0000
0003
0000
0100
0000
0010
0000
0000
0000
0001
0100
0001
0000
0100
0010
,
0200
0000
0300
0000
1000
0000
0100
1000
0100
0000
0100
0010
0100
0000
0001
0100
,
0020
0000
0030
0000
0001
0100
0001
0100
0001
0000
0100
0010
0100
0000
1000
0100
,
2000
0000
3000
0000
0100
0010
0001
0100
0010
0000
0100
1000
0200
0000
0300
0010
,
0200
0000
0000
0300
0002
0000
0000
0000
0203
0000
0000
0000
2300
0000
0000
0000
,
3100
0010
0001
0000
0000
0000
0100
0000
0020
0000
0000
0030
0001
0100
0002
0003
,
0200
0000
0310
0000
0200
0300
1000
0100
2000
0000
0000
3000
0100
0000
0010
0100
,
0001
0000
0200
0300
0010
0000
0001
0010
0200
0000
0000
0300
0010
0100
0020
0030
,
0001
0000
0200
0300
0020
0030
0100
0010
0100
0000
1000
0100
2000
3000
0100
0001
,
0010
0000
0001
0100
0010
0000
0100
0010
0100
0000
0010
0100
0010
0000
0100
0000
,
0110
0000
0000
0000
0100
0000
0010
0100
0010
0000
0001
0100
0001
0000
1000
0000
,
1100
0000
0000
0000
0000
0000
0200
0300
0020
0000
0000
0030
0001
0100
0002
0000
,
0000
0003
0100
0101
0100
1100
0200
0000
,
0310
0000
0100
0000
0010
0001
1000
0000
0100
0010
2000
3000
0010
0001
0100
0000
,
1000
0000
0010
0000
0100
0010
0002
0003
0010
0100
0002
0000
0000
0000
0103
0000
,
0000
0000
0010
0100
0020
0000
0030
0000
0100
0010
0002
0000
0003
0000
0200
0000
,
0300
0000
1000
0000
0101
0000
1000
0000
0101
0000
0200
0000
0000
0000
0010
0001
,
0310
0000
0100
0000
0010
0100
2000
3000
1000
0001
0100
0000
0010
0000
1000
0000
,
0010
0000
0001
0000
0010
0100
2000
3000
0100
0010
0020
0000
0000
0000
1030
0000
,
0000
0000
0001
1000
0020
0000
0030
0000
0100
0010
2000
0000
3000
0000
0200
0000
,
0300
0100
1010
0100
0110
0100
1100
0200
,
0300
0000
0100
0010
0100
0000
0000
0000
0010
0001
0100
0000
0000
0000
0020
0000
,
0000
0030
0001
0010
0100
0000
0000
0000
1000
0010
0100
0000
0000
0000
0200
0000
,
0000
0300
0010
1000
0001
0000
0000
0000
0100
0001
0020
0000
0000
0030
0001
0000
,
0000
1000
1001
0001
1001
1000
1001
0020
,
0000
0000
0130
0100
1000
0000
0000
0000
0100
0010
1000
0000
0000
0000
0100
0000
,
0010
0100
0010
0000
0001
0010
0100
0000
0100
0000
0010
0000
0000
0000
0200
0000
,
0000
0300
0010
0100
0001
0000
0000
0000
0010
0001
0100
0000
0000
0000
2000
0000
,
0000
3000
0100
0000
1100
0000
0100
0000
0110
0000
0010
0000
0011
0000
0020
0000
,
0000
0000
0130
0000
0011
0000
0001
0000
1100
0000
0010
0000
0110
0000
0200
0001
,
0310
0000
0100
0000
0010
0000
0001
0100
0001
0000
0100
0000
0010
0000
0010
0100
,
0010
0001
0100
0010
1000
0000
0100
0010
1000
0000
0100
0000
0001
0000
0100
0000
,
0010
0000
1000
0000
0001
0000
0100
0001
0100
0000
0010
0000
0100
0000
0100
0010
,
0100
0000
1000
0010
0100
0000
0010
0100
0001
0000
0100
0000
0001
0000
0100
0000
,
0001
0000
0010
0000
0010
0000
0100
0010
0100
0000
1000
0000
0100
0000
0100
1000
,
0100
0000
0010
0100
0001
0000
0100
0001
0010
0000
0100
0000
0001
0000
0100
0000
,
0010
0000
0001
0000
0100
0000
0001
0100
0001
0000
0010
0000
1000
0000
0100
1000
,
0100
0000
0010
0100
0001
0000
0100
0001
0010
0000
0100
0000
0010
0000
0001
0000
,
0200
0000
0000
0000
0300
0000
0010
0100
0010
0000
0002
0000
0003
0000
0100
0001
,
0100
0000
0010
0100
1000
0000
0100
0010
1000
0000
0100
0000
0000
0000
0000
0000
;

//--------------- dance-single - Wrland ----------------
#NOTEDATA:;
#STEPSTYPE:dance-single;
#DESCRIPTION:Wrland;
#DIFFICULTY:Challenge;
#METER:15;
#RADARVALUES:0,0,0,0,0;
#CHARTNAME:;
#CHARTSTYLE:Pad;
#CREDIT:Wrland;
#METERF:15;
#NOTES:
0000
0000
0000
0000
,
0000
0000
0000
0000
,
0000
0000
0000
0000
,
0000
0000
0000
0000
,
0000
0000
0000
0000
0100
0000
0010
0000
0001
0000
0100
0001
0200
0300
0010
0100
,
2000
3000
0100
0000
0010
0000
0002
0000
0003
1000
0100
0001
0200
0300
0010
0100
,
0020
0030
0001
0000
0100
0000
0020
0000
0030
0000
0001
0100
0002
0003
0100
0010
,
0200
0300
1000
0001
0100
0000
0020
0000
0030
0000
0001
0100
0001
0000
0100
0010
,
0100
0000
1000
0000
0100
1000
0100
0010
0001
0100
0001
0100
0002
0000
0003
0100
,
0002
0000
0003
0000
0010
0100
0010
0100
1000
0100
0001
0010
2000
0000
3000
0100
,
2000
0000
3000
0000
0100
0010
0100
1000
0100
0010
1000
0001
0200
0000
0300
0010
,
0200
0000
0310
0100
0002
0003
0010
0100
2000
3000
0100
0010
2000
3000
0010
0100
,
0001
0010
0100
0000
0010
0000
0200
0000
0020
0000
0000
0330
0001
0010
0200
0300
,
0001
0100
0002
0003
0020
0030
0100
0010
0200
0300
1000
0100
2000
3000
0100
0001
,
0020
0030
0200
0300
0020
0030
0001
0100
0002
0000
0000
0003
0100
0010
0200
0300
,
1000
0010
0100
1000
0200
0300
0100
0010
0200
0300
0010
0001
0020
0030
0100
0010
,
0020
0030
0002
0003
0010
0000
0010
0100
0010
0000
0100
1000
0100
0000
1000
0000
,
1100
0000
0000
0010
0100
0010
0001
0000
0010
0000
0100
0010
0100
0000
1000
0000
,
0110
0000
0000
0000
0000
0000
0002
0003
2000
0000
0000
3000
0001
1000
0002
0003
,
0100
0000
1000
0100
1001
0000
0100
0010
1100
0000
0001
0100
0002
0000
0000
0000
,
2000
0000
0000
3003
0200
0000
0000
0000
0310
0000
0100
0000
0020
0000
0000
0000
0031
0000
0100
0000
0002
0000
0000
0000
0203
0000
0310
0000
2000
0000
0000
0000
,
3010
0000
1000
0100
1000
0100
0020
0000
0031
0100
0002
0000
0103
0010
0200
0000
,
1300
0001
0100
0010
2000
0000
0000
0000
3100
0010
0002
0000
0000
0000
0103
0000
,
0000
0000
0010
0100
0001
0100
0002
0000
0103
0010
0200
0000
0310
0000
0020
0000
,
0130
0000
0001
0010
0100
0001
0200
0000
0320
0000
1030
0010
0100
0010
2000
0000
,
3100
0000
0010
0100
0001
0100
0002
0000
0103
0001
0020
0000
0130
0010
2000
0000
,
3100
0000
1000
0100
2000
0000
0000
0000
3100
0010
0200
0000
0000
0000
0301
0000
,
0100
0000
0001
0000
0001
1000
0001
0000
0100
0010
0100
0000
1000
0000
0200
0000
,
0310
0000
0010
0100
0010
0000
0000
0000
0100
0010
0100
0000
0000
0000
0020
0000
,
0000
0000
0031
1000
0100
0000
0000
0000
0001
1000
0100
0000
0000
0000
0020
0000
,
0000
0000
1030
0100
0010
0000
0000
0000
1000
0100
0020
0000
0000
0000
0130
0000
,
0000
0010
0110
0100
0110
0010
0110
0200
,
0000
0000
0310
0001
0010
0000
0000
0000
1000
0100
1000
0000
0000
0000
0100
0001
,
0010
0100
0010
0000
0100
0010
0100
0000
0001
0000
0100
0000
0000
0000
0020
0000
,
0000
0000
1030
0100
1000
0000
0000
0000
0100
0010
0100
0000
0000
0000
0002
0000
,
0000
0103
1100
0100
1100
0100
1100
0200
,
0000
0000
0310
0000
0011
0000
0010
0000
0011
0000
0010
0000
0011
0000
0002
1000
,
0103
0000
0010
0000
0100
0000
0010
0100
0010
0000
0001
0000
0100
0000
0001
0100
,
0001
0000
0100
0010
0100
0000
1000
0100
1000
0000
0100
0000
0010
0000
0001
0000
,
0100
0000
0010
0100
0010
0000
0001
0100
0001
0000
0100
0000
0010
0000
0100
1000
,
0100
0000
0010
0001
0100
0000
1000
0100
0010
0000
0100
0000
0010
0000
0001
0000
,
0100
0000
0010
0000
0100
0000
1000
0100
1000
0000
0100
0000
0010
0000
0001
0100
,
0001
0000
0100
0010
0100
0000
1000
0100
1000
0000
0100
0000
0010
0000
0001
0000
,
0100
0000
0001
0100
0001
0000
0100
0010
0100
0000
1000
0000
0100
0000
1000
0100
,
1000
0000
0100
0010
0100
0000
0001
0100
0001
0000
0100
0000
0010
0001
0100
0000
,
0020
0000
0000
0000
0030
0000
0100
1000
0100
0000
2000
0000
0000
3000
0100
1000
,
0100
0010
0001
0100
0010
0000
0010
0100
0010
0000
0001
0000
0000
0000
0000
0000
;

//--------------- dance-double - Wrland ----------------
#NOTEDATA:;
#STEPSTYPE:dance-double;
#DESCRIPTION:Wrland;
#DIFFICULTY:Easy;
#METER:6;
#RADARVALUES:0,0,0,0,0;
#CHARTNAME:;
#CHARTSTYLE:Pad;
#CREDIT:Wrland;
#METERF:6;
#NOTES:
00000000
00000000
00000000
00000000
,
00000000
00000000
00000000
00000000
,
00000000
00000000
00000000
00000000
,
00000000
00000000
00000000
00000000
,
00000000
00000000
00000100
00000010
00000000
00000010
00000100
00000001
,
00000200
00000000
00000310
00000100
00000000
00001000
00100000
01000000
,
00200000
00000000
00000000
00000000
01300000
00000000
00100000
00000000
00000000
00000000
10000000
00000000
01000000
00000000
00100000
01000000
,
00200000
00000000
01300000
00100000
00000000
00010000
00002000
00000000
,
00003000
00000000
00000000
00000000
00000100
00000000
00000010
00000000
00000001
00000000
00000000
00000000
00000100
00000000
00000000
00000001
,
00000200
00000000
00000300
00000000
00000010
00000000
00000100
00000000
00000100
00000000
00000000
00000000
00001000
00000000
00000000
00010000
,
00200000
00000000
00300000
00000000
00100000
00000000
01000000
00000000
00100000
00000000
00000000
00000000
10000000
00000000
00000000
10000000
,
02000000
03000000
00200000
00320000
00032000
00003200
00002300
00013000
,
00100000
01000000
00100000
00000000
00000000
00000000
00100000
00000000
02000000
00000000
03000000
00000000
00010000
01000000
00020000
00000000
,
00000000
00030000
00000000
00000000
01000000
00000000
00000000
00000000
00100000
00000000
00000000
00000000
00010000
00000000
00000000
00000000
,
00001000
00000000
00000000
00000000
00000100
00000000
00000000
00000000
00000020
00000000
00000030
00000000
00000001
00000100
00000002
00000000
,
00000000
00000003
00000000
00000000
00000100
00000000
00000000
00000000
00000010
00000000
00000000
00000000
00000001
00000000
00000100
00000000
,
00000000
00000010
00000100
00001000
,
00011000
00100000
01000000
10000000
,
11000000
00000000
00000000
00000000
00000000
00000000
01000000
00000000
00200000
00000000
00000000
00300000
00010000
00100000
00010000
00000000
,
00000000
00000000
00001000
00000000
00010000
00001000
00010000
00000000
,
00011000
00000000
00001000
00000000
00000100
00001000
00000100
00000000
00000000
00000000
00000100
00000000
00000010
00000000
00000001
00000000
,
00000000
00000000
00000100
00000000
00000001
00000100
00000001
00000000
00000000
00000000
00000100
00000000
00000010
00000000
00000001
00000000
,
00000000
00000000
00000100
00000010
00000100
00000000
00000000
00000000
00001000
00000100
00001000
00000000
00000000
00000000
00000100
00000000
,
00000000
00001000
00000000
00000100
00001000
00000100
00000000
00001000
,
00000000
00010000
00100000
01000000
00000000
00100000
01000000
00100000
,
00000000
00000000
10000000
00000000
01000000
10000000
01000000
00000000
00000000
00000000
10000000
00000000
00000000
00000000
01000000
00000000
,
00000000
00000000
10000000
01000000
10000000
00000000
00000000
00000000
01000000
00100000
01000000
00000000
00000000
00000000
00010000
00000000
,
00000000
01000000
00010000
01000000
00000000
00100000
01000000
00100000
,
00000000
00000000
00100000
00010000
00001000
00000000
00000000
00000000
00000100
00000010
00000001
00000000
00000000
00000000
00000100
00000000
,
00000000
00000000
00000001
00000100
00000001
00000000
00000000
00000000
00000010
00000100
00000010
00000000
00000000
00000000
00001000
00000000
,
00000000
00000000
00000100
00001000
00000100
00000000
00000000
00000000
00000100
00000010
00000100
00000000
00000000
00000000
00000001
00000000
,
00000000
00000100
00000000
00000010
00000100
00000010
00000000
00000001
,
00000000
00000000
00000100
00001000
00010000
00000000
00000000
00000000
00010000
00100000
00010000
00000000
00000000
00000000
01000000
00000000
,
10000000
01000000
00000000
01000000
00100000
00010000
00000000
01000000
,
00000000
00000000
01000000
00100000
01000000
00000000
00000000
00000000
10000000
01000000
10000000
00000000
00000000
00000000
01000000
00000000
,
00000000
00010000
01000000
00010000
01000000
00010000
01000000
00100000
,
00000000
00000000
01000000
00000000
01000000
00000000
00100000
00000000
00100000
00000000
01000000
00000000
01000000
00000000
00200000
00300000
,
01000000
00100000
00000000
00010000
01000000
00010000
00000000
01000000
,
10000000
00000000
00100000
01000000
10000000
01000000
00000000
00100000
,
00010000
00000000
00000000
00010000
00001000
00000100
00000000
00000100
,
00000010
00000001
00000100
00000000
00000001
00000100
00000000
00000001
,
00000100
00000000
00000000
00000010
00000100
00000010
00000000
00001000
,
00010000
00100000
01000000
10000000
01000000
10000000
00000000
01000000
,
00100000
00000000
00000000
00010000
01000000
00010000
00000000
01000000
,
00100000
00000000
00010000
00000000
01000000
00000000
00100000
01000000
00100000
00000000
00010000
00000000
00000000
00000000
00000000
00000000
;

//--------------- dance-double - Wrland ----------------
#NOTEDATA:;
#STEPSTYPE:dance-double;
#DESCRIPTION:Wrland;
#DIFFICULTY:Medium;
#METER:10;
#RADARVALUES:0,0,0,0,0;
#CHARTNAME:;
#CHARTSTYLE:Pad;
#CREDIT:Wrland;
#METERF:10;
#NOTES:
00000000
00000000
00000000
00000000
,
00000000
00000000
00000000
00000000
,
00000000
00000000
00000000
00000000
,
00000000
00000000
00000000
00000000
,
00000000
00000000
00000000
00000000
00001000
00000000
00000200
00000000
00000300
00000000
00000010
00000100
00000010
00000000
00000001
00000000
,
00000200
00000000
00000300
00000000
00000001
00000000
00000100
00000000
00000000
00000000
00000010
00000100
00000010
00000000
00000001
00000100
,
00000001
00000000
00000100
00000000
00001000
00000000
00000200
00000000
00000300
00000000
00001000
00010000
00010000
00000000
01000000
00100000
,
02000000
00000000
03000000
00000000
10000000
00000000
01000000
00000000
00000000
00000000
10000000
01000000
00100000
00000000
00010000
01000000
,
00020000
00000000
00030000
00000000
01000000
00000000
01000000
00100000
00010000
00000000
00001000
00000100
00000020
00000000
00000030
00000100
,
00000020
00000000
00000030
00000000
00000001
00000100
00000001
00000100
00000001
00000000
00000010
00000100
00000020
00000000
00000030
00000100
,
00002000
00000000
00003000
00000000
00001000
00010000
00100000
01000000
10000000
00000000
01000000
10000000
02000000
00000000
03000000
00100000
,
02000000
00000000
03000000
00000000
00100000
00000000
00010000
00000000
00001000
00000000
00000100
00000000
00000010
00000000
00000100
00001000
,
00020000
00000000
00000000
00000000
00030000
00000000
00100000
00000000
01000000
00000000
00000000
00000000
00100000
01000000
00100000
00000000
,
00010000
00000000
00100000
00000000
01000000
00000000
10000000
01000000
10000000
00000000
01000000
00000000
00100000
00000000
00010000
00000000
,
01000000
00000000
00200000
00000000
00300000
00000000
01000000
00100000
02000000
00000000
03000000
00000000
00100000
00010000
00100000
00000000
,
00010000
00000000
00001000
00000000
00000100
00000000
00000010
00000100
00000010
00000000
00000001
00000000
00000100
00000000
00000001
00000100
,
00000010
00000000
00000010
00000000
00000001
00000000
00000010
00000001
00000010
00000000
00000001
00000010
00000001
00000000
00000020
00000000
,
00000130
00000000
00000000
00000000
00000100
00000000
00001000
00000100
00001000
00000000
00000100
00001000
00000100
00000000
00002000
00000000
,
00003100
00000000
00000000
00000000
00000000
00000000
00002000
00000000
00023000
00000000
00000000
00030000
00001000
00010000
00002000
00003000
,
00010000
00000000
00010000
00100000
01000000
00000000
10010000
00000000
01000000
00000000
10010000
00000000
02000000
00000000
00000000
00000000
,
03100000
00000000
00010000
00000000
00100000
00000000
00010000
00000000
00100000
00010000
00100000
00000000
00010000
00000000
00001000
00000000
,
00000100
00000000
00000010
00000000
00000001
00000100
00000001
00000000
00000100
00000000
00000010
00000000
00000100
00000010
00000100
00000000
,
00001000
00000000
00000100
00001000
00000100
00000000
00000000
00000000
00010000
00001000
00010000
00000000
00100000
00000000
00010000
00000000
,
00100000
00000000
01000000
00000000
10000000
01000000
10000000
00000000
01000000
00100000
02000000
00000000
00000000
00000000
03010000
00000000
,
00100000
01000000
01000000
00000000
00010000
01000000
00010000
00000000
01000000
00000000
00100000
00000000
10000000
00000000
01000000
00000000
,
00100000
00000000
01000000
00100000
01000000
00100000
01000000
00000000
00100000
00000000
00010000
00000000
00100000
00010000
00100000
00000000
,
00100000
00000000
01000000
00100000
01000000
00000000
00000000
00000000
00100000
01000000
00100000
00000000
00100000
00000000
00010000
00000000
,
00001000
00000000
00000100
00000000
00001000
00000100
00001000
00000000
00000010
00001000
00000020
00000000
00000000
00000000
00000230
00000000
,
00000000
00000300
00001000
00000100
00001000
00000000
00000000
00000000
00010000
00001000
00010000
00000000
00000000
00000000
00200000
00000000
,
00000000
00300000
01000000
00100000
01000000
00000000
00000000
00000000
10000000
01000000
10000000
00000000
00000000
00000000
02000000
00000000
,
00000000
03000000
00100000
01000000
00100000
00000000
00000000
00000000
00010000
01000000
00010000
00000000
00000000
00000000
02000000
00000000
,
03000000
01000000
01010000
01000000
11000000
01000000
01100000
00020000
,
00000000
00030000
00001000
00000100
00000010
00000000
00000000
00000000
00000001
00000100
00000001
00000000
00000000
00000000
00000010
00000000
,
00000100
00000010
00000100
00000000
00000001
00000000
00000100
00000000
00001000
00000000
00000100
00000000
00000000
00000000
00002000
00000000
,
00003000
00000000
00000100
00001000
00000100
00000000
00000000
00000000
00000100
00000010
00000100
00000000
00000000
00000000
00000002
00000000
,
00000000
00000003
00000100
00000000
00000110
00000000
00000001
00000000
00000101
00000000
00000100
00000000
00000110
00000000
00002000
00000000
,
00000000
00000000
00003100
00000000
00000110
00000000
00000100
00000000
00000110
00000000
00000100
00000000
00000110
00000000
00000020
00000030
,
00001000
00000000
00010000
00000000
00010000
00000000
00100000
01000000
10000000
00000000
01000000
00000000
00100000
00000000
01000000
00100000
,
01000000
00000000
00010000
01000000
00010000
00000000
00100000
01000000
00100000
00000000
10000000
00000000
01000000
00000000
10000000
00000000
,
01000000
00000000
00000000
00000000
00100000
00000000
01000000
00100000
01000000
00000000
00100000
00000000
00000000
00000000
00010000
01000000
,
00010000
00000000
01000000
00000000
00100000
00000000
01000000
00100000
01000000
00000000
10000000
00000000
01000000
00000000
10000000
00000000
,
01000000
00000000
00000000
00000000
00100000
00000000
01000000
00100000
01000000
00000000
00100000
00000000
00010000
00000000
01000000
00010000
,
01000000
00000000
00100000
01000000
00100000
00000000
10000000
01000000
10000000
00000000
01000000
00000000
00100000
00000000
00010000
00000000
,
01000000
00000000
00000000
00000000
01000000
00000000
01000000
00100000
01000000
00000000
00100000
00000000
00010000
00000000
01000000
00010000
,
01000000
00000000
00100000
01000000
00100000
00000000
10000000
01000000
10000000
00000000
01000000
00000000
00100000
00000000
00010000
00000000
,
00002000
00000000
00000000
00000000
00003000
00000000
00001000
00000100
00001000
00000000
00000200
00000000
00000300
00000000
00000100
00000010
,
00000100
00000000
00000001
00000100
00000001
00000000
00000010
00000100
00000010
00000000
00000100
00000000
00000000
00000000
00000000
00000000
;

//--------------- dance-double - Wrland ----------------
#NOTEDATA:;
#STEPSTYPE:dance-double;
#DESCRIPTION:Wrland;
#DIFFICULTY:Hard;
#METER:14;
#RADARVALUES:0,0,0,0,0;
#CHARTNAME:;
#CHARTSTYLE:Pad;
#CREDIT:Wrland;
#METERF:14;
#NOTES:
00000000
00000000
00000000
00000000
,
00000000
00000000
00000000
00000000
,
00000000
00000000
00000000
00000000
,
00000000
00000000
00000000
00000000
,
00000000
00000000
00000000
00000000
01000000
00000000
00100000
00000000
00000000
00000000
00010000
01000000
00010000
00000000
01000000
00010000
,
01000000
00000000
00100000
00000000
10000000
00000000
01000000
00100000
01000000
00000000
01000000
00100000
01000000
00000000
10000000
00000000
,
01000000
00000000
00100000
00010000
00001000
00000000
00000100
00000000
00000010
00000000
00000001
00000100
00000001
00000000
00000100
00000001
,
00000100
00000000
00000010
00000000
00002000
00000000
00003000
00000000
00000100
00000000
00000010
00000100
00000010
00000000
00000001
00000100
,
00001000
00000000
00010000
00000000
00100000
01000000
10000000
01000000
00100000
00010000
01000000
00100000
02000000
03000000
10000000
01000000
,
00200000
00000000
00300000
00000000
01000000
00100000
01000000
00100000
01000000
10000000
01000000
00100000
00020000
00000000
00030000
00010000
,
00002000
00000000
00003000
00000000
00000100
00000010
00000001
00000100
00000010
00000100
00000010
00000001
00000020
00000000
00000030
00000100
,
00000020
00000000
00000030
00000000
00000100
00000000
00001000
00000000
00010000
00000000
00100000
01000000
10000000
00000000
01000000
00100000
,
01000000
00100000
00020000
00000000
00030000
00000000
00020000
00000000
00032000
00000000
00000000
00003000
00000100
00001000
00000100
00000000
,
00000010
00000000
00000001
00000000
00000100
00000000
00000001
00000100
00000001
00000000
00000100
00000010
00000100
00000000
00001000
00000000
,
00000100
00000000
00001000
00000000
00000100
00000000
00000010
00000000
00000002
00000000
00000000
00000003
00000100
00000001
00000100
00000000
,
00000010
00000000
00000100
00000000
00000010
00000000
00000100
00000010
00000100
00000000
00001000
00000100
00001000
00000000
00000100
00000010
,
00000100
00000000
00000001
00000000
00000100
00000000
00000010
00000100
00000010
00000000
00001000
00000100
00001000
00000000
00010000
00000000
,
00200000
00000000
00300000
00000000
00100000
00000000
01000000
00100000
01000000
00000000
10000000
01000000
10000000
00000000
01000000
00000000
,
00200000
00000000
00000000
00000000
00300000
00000000
01000000
00000000
00200000
00000000
00000000
00300000
00010000
01000000
00010000
00000000
,
01000000
00000000
00100000
00000000
10000000
01000000
10000000
00000000
01000000
00100000
01000000
00000000
00020000
00000000
00000000
00000000
,
10030000
00000000
01000000
00000000
00100000
01000000
00100000
00000000
00010000
00000000
01000000
00000000
00100000
00000000
00010000
00000000
,
00001000
00000000
00000100
00001000
00000100
00001000
00000100
00000000
00000010
00000100
00000010
00000000
00000001
00000000
00000100
00000000
,
00000010
00000000
00000100
00000010
00000200
00000000
00000000
00000300
00001000
00000100
00002000
00000000
00000000
00003000
00000100
00000000
,
00000010
00000000
00000001
00000000
00000100
00000001
00000100
00000000
00000001
00000100
00000002
00000000
00000100
00000000
00000023
00000000
,
00001030
00000000
00010000
00000000
00100000
01000000
00100000
00000000
01000000
00000000
10000000
00000000
01000000
00000000
00100000
00000000
,
00010000
00000000
01000000
00010000
01000000
00010000
01000000
00000000
00100000
01000000
10000000
00000000
01000000
00000000
00100000
00000000
,
00010000
00000000
01000000
00010000
02000000
00000000
00000000
03000000
00100000
01000000
00200000
00300000
10000000
00000000
01000000
00000000
,
00100000
00000000
00010000
00001000
00000100
00000000
00000001
00000100
00000001
00000000
00000020
00000000
00000100
00000000
00001030
00000000
,
00010000
00000000
00100000
01000000
00200000
00000000
00300000
00000000
10000000
01000000
20000000
00000000
30000000
00000000
01000000
00000000
,
00100000
00000000
00010000
01000000
00020000
00000000
00030000
00000000
01000000
00100000
01000000
00000000
10000000
00000000
02000000
00000000
,
03000000
00000000
01000000
00100000
02000000
00000000
03000000
00000000
00010000
01000000
00020000
00030000
01000000
00000000
00200000
00000000
,
00300000
00000000
01000000
00100000
01000000
00000000
00010000
01000000
00010000
00000000
10000000
01000000
00100000
00000000
00020000
00000000
,
00030000
00000000
00001000
00000100
00002000
00000000
00003100
00000000
00000010
00000100
00000020
00000000
00000031
00000000
00000010
00000000
,
00000100
00000010
00000100
00000000
00000001
00000100
00000001
00000000
00000010
00000000
00000200
00000000
00000000
00000000
00001300
00000000
,
00000100
00000000
00001000
00000100
00002000
00000000
00003000
00000000
00000100
00000010
00000200
00000000
00000301
00000000
00000100
00000000
,
00001000
00000100
00001000
00000000
00010000
00000000
00001000
00000000
00010000
00000000
00001000
00000000
00010000
00000000
00002000
00000000
,
00000000
00003000
00010000
00001000
00010000
00000000
00100000
01000000
00100000
00000000
01000000
10000000
01000000
00000000
01000000
00100000
,
00010000
00000000
01000000
00000000
00010000
00000000
01000000
00010000
01000000
00000000
01000000
00000000
00100000
00000000
01000000
10000000
,
01000000
00000000
00100000
01000000
00100000
00000000
00010000
01000000
00010000
00000000
01000000
00000000
00100000
00000000
10000000
00000000
,
01000000
00000000
00100000
00000000
00010000
00000000
00100000
00010000
00100000
00000000
00010000
00000000
00010000
00000000
00000100
00001000
,
00000100
00000000
00001000
00000100
00001000
00000000
00000100
00000010
00000100
00000000
00000001
00000000
00000100
00000000
00000010
00000000
,
00000001
00000000
00000100
00000000
00000001
00000000
00000100
00000001
00000100
00000000
00000001
00000000
00000100
00000000
00000010
00000100
,
00000010
00000000
00001000
00000100
00001000
00000000
00000100
00000010
00000100
00000000
00000001
00000000
00000100
00000000
00000010
00000000
,
00001000
00000000
00000100
00001000
00000100
00000000
00000100
00000010
00000100
00000000
00000001
00000000
00000001
00000000
00000100
00000010
,
00000100
00000000
00001000
00000100
00001000
00000000
00000100
00000010
00000100
00000000
00000001
00000000
00000100
00000000
00001000
00000000
,
00020000
00000000
00000000
00000000
00000000
00030000
00100000
01000000
00100000
00000000
20000000
00000000
30000000
00000000
01000000
10000000
,
01000000
00000000
00100000
01000000
00100000
00000000
00010000
01000000
00010000
00000000
01000000
00000000
00000000
00000000
00000000
00000000
;
